osu file format v12

[General]
AudioFilename: x264001.mp3
AudioLeadIn: 1000
PreviewTime: 60678
Countdown: 0
SampleSet: None
StackLeniency: 0.7
Mode: 0
LetterboxInBreaks: 0
WidescreenStoryboard: 1

[Editor]
DistanceSpacing: 1
BeatDivisor: 4
GridSize: 4
TimelineZoom: 1

[Metadata]
Title:Sunshine
TitleUnicode:Sunshine
Artist:Monkey Majik
ArtistUnicode:Monkey Majik
Creator:wonders
Version:jiezou
Source:Nurarihyon no Mago
Tags:Maynard Blaise tax Nura Yokai Clan opening
BeatmapID:389932
BeatmapSetID:136070

[Difficulty]
HPDrainRate:7
CircleSize:5
OverallDifficulty:7
ApproachRate:9
SliderMultiplier:3.2
SliderTickRate:1

[Events]
//Background and Video events
0,0,"img_1289510688_1.jpg",0,0
//Break Periods
2,59075,60078
//Storyboard Layer 0 (Background)
//Storyboard Layer 1 (Fail)
//Storyboard Layer 2 (Pass)
//Storyboard Layer 3 (Foreground)
//Storyboard Sound Samples
//Background Colour Transformations
3,100,163,162,255

[TimingPoints]
1192,600.871263331831,4,1,1,40,1,0
10805,-83.3333333333333,4,1,1,40,0,1
20419,-100,4,2,1,40,0,0
29733,-100,4,1,1,40,0,0
39046,-125,4,1,1,40,0,0
53618,-125,4,2,1,40,0,0
56472,-125,4,1,1,40,0,0
60678,-100,4,1,1,40,0,0
61279,-83.3333333333333,4,1,1,40,0,1
88618,-100,4,1,1,40,0,0

[Colours]
Combo1 : 244,145,145
Combo2 : 119,119,255
Combo3 : 125,236,150
Combo4 : 241,232,112

[HitObjects]
100,176,1192,6,0,P|172:140|260:132,1,160
328,148,1642,1,0,0:0:0:0:
388,216,1792,2,0,P|432:140|512:80,1,160,8|0,0:0|0:0,0:0:0:0:
316,64,2393,6,0,P|224:48|96:44,1,160
232,280,2994,2,0,P|324:296|452:300,1,160,8|0,0:0|0:0,0:0:0:0:
180,212,3595,1,0,0:0:0:0:
100,224,3745,1,0,0:0:0:0:
40,172,3895,1,0,0:0:0:0:
48,92,4046,1,0,0:0:0:0:
120,60,4196,2,0,P|212:48|316:-8,1,160,8|0,0:0|0:0,0:0:0:0:
404,132,4797,6,0,P|388:228|408:300,1,160
316,152,5398,2,0,P|272:152|212:164,1,80
212,232,5698,2,0,P|172:244|124:244,1,80
0,284,5998,2,0,P|76:200|172:164,1,160
456,216,6599,2,0,P|380:132|284:96,1,160,8|0,0:0|0:0,0:0:0:0:
160,92,7200,6,0,P|108:28|96:-8,2,80
268,208,7801,2,0,P|252:300|268:392,1,160,8|0,0:0|0:0,0:0:0:0:
352,160,8402,1,0,0:0:0:0:
136,268,8853,5,0,0:0:0:0:
84,204,9003,2,0,P|136:188|200:196,1,80,8|0,0:0|0:0,0:0:0:0:
16,120,9453,2,0,P|68:124|112:104,1,80
280,200,9904,5,0,0:0:0:0:
316,272,10054,1,0,0:0:0:0:
392,300,10205,2,0,P|452:324|504:232,1,160,4|0,0:0|0:0,0:0:0:0:
356,144,10805,6,0,P|344:116|344:36,1,95.9999970703126,4|0,0:2|0:0,0:0:0:0:
244,64,11106,2,0,L|116:112,1,95.9999970703126
128,188,11406,2,0,L|28:316,1,95.9999970703126,8|0,0:2|0:0,0:0:0:0:
148,320,11707,2,0,L|272:304,1,95.9999970703126
340,304,12007,2,0,L|476:336,1,95.9999970703126
456,232,12308,2,0,L|340:224,1,95.9999970703126
320,140,12608,2,0,L|440:112,1,95.9999970703126,8|0,0:2|0:0,0:0:0:0:
352,44,12908,2,0,L|252:32,1,95.9999970703126
160,48,13209,5,4,0:2:0:0:
24,180,13509,1,0,0:0:0:0:
112,140,13660,1,0,0:0:0:0:
160,48,13810,2,0,P|208:64|260:128,1,95.9999970703126,12|0,0:2|0:0,0:0:0:0:
288,180,14110,1,0,0:0:0:0:
380,200,14260,1,0,0:0:0:0:
464,152,14411,2,0,P|488:132|492:52,1,95.9999970703126
416,28,14711,1,0,0:0:0:0:
312,40,14861,1,0,0:0:0:0:
252,124,15012,2,0,P|268:224|236:328,1,191.999994140625,8|0,0:2|0:0,0:0:0:0:
44,256,15612,2,0,P|152:256|244:236,1,191.999994140625
468,192,16213,1,12,0:2:0:0:
108,116,16814,2,0,P|192:104|264:116,1,95.9999970703126
284,160,17115,2,0,P|280:220|304:296,1,95.9999970703126
208,308,17415,2,0,P|300:344|376:288,1,191.999994140625,8|0,0:2|0:0,0:0:0:0:
380,104,18016,5,8,0:2:0:0:
476,104,18166,1,8,0:2:0:0:
284,160,18467,2,0,P|237:150|193:130,1,95.9999970703126,8|0,0:2|0:0,0:0:0:0:
360,228,18917,2,0,P|284:264|120:224,2,191.999994140625,8|0|0,0:2|0:0|0:0,0:0:0:0:
220,360,19819,1,4,0:3:0:0:
400,136,20269,6,0,L|376:40,1,95.9999970703126,0|0,0:0|0:0,0:0:0:0:
200,116,20870,1,0,0:0:0:0:
184,176,21020,1,8,0:1:0:0:
216,52,21321,2,0,P|232:156|212:220,1,160,2|0,0:2|0:0,0:0:0:0:
164,324,21922,2,0,P|144:244|160:196,1,80
184,176,22222,1,8,0:1:0:0:
292,108,22522,1,0,0:0:0:0:
420,124,22823,2,0,P|492:64|508:-24,1,160,2|0,0:2|0:0,0:0:0:0:
388,40,23424,5,8,0:1:0:0:
400,168,23724,2,0,P|388:256|412:328,1,160,2|0,0:0|0:0,0:0:0:0:
308,244,24325,1,0,0:0:0:0:
236,348,24625,2,0,P|260:336|320:328,1,80,8|0,0:1|0:0,0:0:0:0:
372,348,24926,2,0,P|396:352|520:304,1,160,0|2,0:0|0:0,0:0:0:0:
456,192,25527,2,0,P|388:184|428:88,1,160
236,56,26128,6,0,L|320:72,1,80,2|0,0:0|0:0,0:0:0:0:
136,128,26428,2,0,L|240:124,1,80,2|2,0:0|0:0,0:0:0:0:
72,224,26729,2,0,L|156:192,1,80,2|2,0:0|0:0,0:0:0:0:
52,300,27029,1,8,0:1:0:0:
208,264,27329,2,0,P|336:268|416:232,1,160
224,184,27930,1,8,0:0:0:0:
288,140,28080,2,0,P|352:120|408:120,1,80
316,56,28381,1,8,0:0:0:0:
396,44,28531,2,0,P|428:44|480:24,1,80
484,108,28832,1,8,0:0:0:0:
436,172,28982,2,0,L|420:264,1,80
468,316,29282,1,8,0:0:0:0:
396,348,29432,1,8,0:0:0:0:
280,236,29733,6,0,P|324:200|396:184,1,80,0|0,0:0|0:0,0:0:0:0:
336,96,30033,2,0,P|252:112|208:92,1,80
196,44,30334,2,0,L|176:132,1,80
100,112,30634,2,0,L|100:192,1,80
24,220,30934,2,0,L|56:316,1,80
112,316,31235,5,0,0:0:0:0:
172,296,31385,1,0,0:0:0:0:
212,244,31535,2,0,P|252:248|296:272,1,80
328,316,31836,2,0,P|396:336|496:332,1,160,8|0,0:2|0:0,0:0:0:0:
328,316,32437,5,0,0:0:0:0:
348,156,32737,1,0,0:0:0:0:
356,236,32887,1,0,0:0:0:0:
364,140,33038,2,0,L|448:128,2,80,8|0|0,0:2|0:0|0:0,0:0:0:0:
204,104,33639,1,0,0:0:0:0:
172,32,33789,2,0,L|200:228,1,160
132,240,34239,2,0,P|204:268|272:208,1,160,8|0,0:2|0:0,0:0:0:0:
308,68,34840,1,0,0:0:0:0:
460,120,35141,5,0,0:0:0:0:
512,60,35291,1,0,0:0:0:0:
436,40,35441,2,0,P|380:116|432:196,1,160,8|0,0:2|0:0,0:0:0:0:
460,120,35892,2,0,P|472:200|396:248,1,160
400,172,36342,2,0,P|376:172|308:200,1,80
312,284,36643,2,0,L|292:125,1,160,8|0,0:2|0:0,0:0:0:0:
128,60,37244,2,0,L|220:80,1,80
48,152,37694,2,0,L|152:124,1,80
116,308,38145,2,0,P|124:232|240:164,1,160
360,40,39046,6,0,P|352:64|364:112,1,64
424,144,39347,2,0,P|432:120|420:72,1,64
216,116,39647,2,0,P|268:200|324:232,1,128,4|0,0:2|0:0,0:0:0:0:
428,288,40248,6,0,P|448:284|504:300,1,64,8|0,0:2|0:0,0:0:0:0:
452,360,40549,2,0,P|432:364|376:348,1,64
188,288,40849,2,0,P|264:260|356:256,1,128
396,128,41450,6,0,P|408:88|428:64,1,64
348,48,41750,2,0,P|316:72|280:72,1,64
176,84,42051,2,0,P|216:100|252:144,1,64
100,172,42351,2,0,P|152:164|192:132,1,64
176,236,42652,2,0,P|176:280|140:328,1,64,8|0,0:0|0:0,0:0:0:0:
96,316,42952,2,0,P|96:272|132:224,1,64
308,312,43252,2,0,P|392:348|484:348,1,128
384,204,43853,6,0,P|376:172|384:120,1,64,8|0,0:0|0:0,0:0:0:0:
304,116,44154,2,0,P|320:88|348:60,1,64
276,24,44454,1,0,0:0:0:0:
176,140,44755,1,0,0:0:0:0:
244,176,44905,1,0,0:0:0:0:
228,252,45055,2,0,P|220:336|208:356,1,64,8|0,0:2|0:0,0:0:0:0:
160,356,45356,1,0,0:0:0:0:
308,308,45656,6,0,P|376:296|420:304,1,64
376,220,45956,2,0,P|392:176|396:132,1,64
400,84,46257,1,8,0:2:0:0:
444,248,46557,2,0,L|428:384,1,128
256,192,47008,12,0,48510,0:0:0:0:
148,96,48660,6,0,P|120:124|56:128,1,64,8|0,0:2|0:0,0:0:0:0:
252,52,48961,2,0,P|228:80|224:152,1,64,8|0,0:2|0:0,0:0:0:0:
424,44,49261,2,0,P|356:88|304:96,1,128,4|0,0:2|0:0,0:0:0:0:
80,240,49862,6,0,P|40:208|12:144,1,64
208,220,50163,2,0,P|177:210|145:209,1,64
324,328,50463,2,0,P|284:252|280:196,1,128
232,60,51064,6,0,P|276:84|328:92,1,64,8|0,0:0|0:0,0:0:0:0:
420,48,51364,2,0,P|396:48|336:60,1,64
188,160,51665,2,0,P|232:160|280:148,1,64
396,168,51965,2,0,P|364:136|308:116,1,64
128,260,52266,2,0,P|196:248|240:224,1,64,8|0,0:0|0:0,0:0:0:0:
368,304,52566,2,0,P|364:272|340:216,1,64
24,344,52866,2,0,P|128:344|200:320,1,128
368,304,53467,5,0,0:0:0:0:
368,228,53618,2,0,L|416:92,1,128
392,40,54068,1,0,0:0:0:0:
308,168,54369,2,0,L|280:244,1,64
208,220,54669,2,0,L|180:296,1,64,8|0,0:1|0:0,0:0:0:0:
192,92,54969,2,0,L|164:168,1,64
292,40,55270,2,0,L|264:116,2,64
140,40,55871,1,8,0:1:0:0:
76,80,56022,2,0,L|28:216,1,128
0,316,56472,6,0,P|64:292|168:296,1,128
336,360,57073,2,0,P|312:284|320:204,1,128,4|0,0:3|0:0,0:0:0:0:
272,44,57673,2,0,P|240:104|152:148,1,128
256,324,58274,1,4,0:3:0:0:
336,360,58424,2,0,L|436:348,1,64
492,272,58725,2,0,L|428:280,1,64
440,292,60678,6,0,P|356:276|244:276,1,160
100,316,61279,5,4,0:0:0:0:
184,268,61429,1,0,0:0:0:0:
232,184,61579,1,0,0:0:0:0:
236,88,61729,1,0,0:0:0:0:
60,44,61879,2,0,P|144:92|238:86,1,191.999994140625,8|0,0:2|0:0,0:0:0:0:
180,200,62480,2,0,L|288:228,1,95.9999970703126
268,320,62781,2,0,L|372:296,1,95.9999970703126
456,284,63081,1,8,0:2:0:0:
456,284,63382,6,0,L|432:184,1,95.9999970703126
460,40,63682,2,0,P|452:56|368:84,1,95.9999970703126
288,88,63983,1,0,0:0:0:0:
196,56,64133,1,0,0:0:0:0:
104,80,64283,1,12,0:2:0:0:
104,80,64583,6,0,L|88:220,1,95.9999970703126
72,332,64884,1,0,0:0:0:0:
160,300,65034,1,0,0:0:0:0:
256,308,65184,2,0,P|328:336|452:340,2,191.999994140625,0|8|0,0:0|0:2|0:0,0:0:0:0:
512,196,66086,2,0,P|396:200|304:244,1,191.999994140625,8|0,0:3|0:0,0:0:0:0:
512,48,66686,2,0,P|428:104|368:52,1,191.999994140625,8|0,0:2|0:0,0:0:0:0:
176,56,67287,6,0,P|208:184|200:204,1,95.9999970703126
160,224,67588,1,0,0:0:0:0:
300,356,67888,1,8,0:2:0:0:
468,264,68189,2,0,P|500:136|492:116,1,95.9999970703126
472,88,68490,1,8,0:3:0:0:
296,12,68790,2,0,P|292:80|272:120,2,95.9999970703126,0|0|8,0:0|0:0|0:2,0:0:0:0:
152,140,69390,1,0,0:0:0:0:
92,324,69691,1,0,0:0:0:0:
280,280,69991,1,0,0:0:0:0:
408,136,70292,2,0,P|456:208|436:324,1,191.999994140625,8|0,0:2|0:0,0:0:0:0:
296,60,70893,5,4,0:2:0:0:
296,60,71193,2,0,P|260:108|252:168,1,95.9999970703126
276,236,71493,2,0,P|260:284|116:352,1,191.999994140625,8|0,0:2|0:0,0:0:0:0:
68,176,72094,2,0,P|124:256|184:284,1,95.9999970703126
172,172,72395,2,0,P|228:148|296:136,1,95.9999970703126
356,128,72695,2,0,P|460:152|504:140,2,95.9999970703126,8|0|0,0:0|0:0|0:0,0:0:0:0:
120,40,73296,5,0,0:0:0:0:
120,40,73596,2,0,P|184:84|208:116,1,95.9999970703126
228,188,73897,1,8,0:0:0:0:
228,188,74197,2,0,P|212:248|160:296,1,95.9999970703126
132,348,74498,1,0,0:0:0:0:
228,360,74648,1,0,0:0:0:0:
308,304,74798,2,0,P|336:256|420:200,1,95.9999970703126
512,136,75099,2,0,P|440:120|284:152,1,191.999994140625,8|0,0:0|0:0,0:0:0:0:
136,88,75700,6,0,P|104:44|108:-32,2,95.9999970703126
152,184,76150,1,0,0:0:0:0:
32,264,76300,2,0,P|124:280|188:268,1,95.9999970703126,4|0,0:3|0:0,0:0:0:0:
312,336,76751,1,0,0:0:0:0:
376,264,76901,2,0,L|480:244,1,95.9999970703126
496,152,77202,1,0,0:0:0:0:
308,116,77502,2,0,L|404:76,1,95.9999970703126,8|0,0:0|0:0,0:0:0:0:
204,160,77803,2,0,L|252:60,1,95.9999970703126
112,284,78103,2,0,P|116:152|152:72,2,191.999994140625
308,256,79004,6,0,P|364:264|436:256,1,95.9999970703126
468,192,79305,1,0,0:0:0:0:
224,336,79605,1,0,0:0:0:0:
120,176,79906,2,0,P|224:176|344:140,1,191.999994140625,8|0,0:2|0:0,0:0:0:0:
24,40,80507,2,0,P|80:72|140:68,1,95.9999970703126
204,52,80807,5,0,0:0:0:0:
300,44,80957,1,0,0:0:0:0:
232,116,81107,1,8,0:2:0:0:
316,124,81258,1,0,0:0:0:0:
208,180,81408,2,0,L|304:224,1,95.9999970703126
160,224,81708,1,0,0:0:0:0:
216,316,81858,1,0,0:0:0:0:
96,228,82009,1,0,0:0:0:0:
44,340,82159,1,0,0:0:0:0:
352,328,82309,6,0,L|464:352,1,95.9999970703126,8|0,0:2|0:0,0:0:0:0:
368,244,82610,2,0,L|464:180,1,95.9999970703126
336,144,82910,2,0,L|400:8,1,95.9999970703126
284,32,83210,5,0,0:0:0:0:
188,36,83361,1,0,0:0:0:0:
120,104,83511,2,0,P|84:144|44:224,1,95.9999970703126,12|0,0:2|0:0,0:0:0:0:
52,276,83811,1,0,0:0:0:0:
140,316,83962,1,0,0:0:0:0:
236,296,84112,2,0,P|280:220|352:192,1,95.9999970703126
380,196,84412,1,0,0:0:0:0:
464,244,84562,1,0,0:0:0:0:
512,328,84713,2,0,P|416:332|320:288,1,191.999994140625,8|0,0:2|0:0,0:0:0:0:
0,56,85313,2,0,P|96:52|192:96,1,191.999994140625
252,268,85914,2,0,P|256:336|244:404,1,95.9999970703126,12|0,0:2|0:0,0:0:0:0:
352,92,86515,6,0,P|400:112|472:96,2,95.9999970703126
344,204,87116,2,0,P|392:248|468:248,2,95.9999970703126
164,140,87717,1,0,0:0:0:0:
72,112,87867,2,0,L|64:8,1,95.9999970703126,4|0,0:3|0:0,0:0:0:0:
180,240,88168,1,8,0:3:0:0:
20,344,88468,2,0,L|148:324,1,95.9999970703126,0|4,0:0|0:3,0:0:0:0:
