osu file format v12

[General]
AudioFilename: x264001.mp3
AudioLeadIn: 1000
PreviewTime: 60678
Countdown: 0
SampleSet: Normal
StackLeniency: 0.7
Mode: 0
LetterboxInBreaks: 0
WidescreenStoryboard: 1

[Editor]
DistanceSpacing: 1.2
BeatDivisor: 4
GridSize: 4
TimelineZoom: 1

[Metadata]
Title:Sunshine
TitleUnicode:Sunshine
Artist:Monkey Majik
ArtistUnicode:Monkey Majik
Creator:wonders
Version:Hard
Source:Nurarihyon no Mago
Tags:Maynard Blaise tax Nura Yokai Clan opening
BeatmapID:371118
BeatmapSetID:136070

[Difficulty]
HPDrainRate:5
CircleSize:4
OverallDifficulty:5
ApproachRate:7
SliderMultiplier:1.8
SliderTickRate:1

[Events]
//Background and Video events
0,0,"img_1289510688_1.jpg",0,0
//Break Periods
//Storyboard Layer 0 (Background)
//Storyboard Layer 1 (Fail)
//Storyboard Layer 2 (Pass)
//Storyboard Layer 3 (Foreground)
//Storyboard Sound Samples
//Background Colour Transformations
3,100,163,162,255

[TimingPoints]
1192,600.871263331831,4,1,1,40,1,0

[Colours]
Combo1 : 244,145,145
Combo2 : 119,119,255
Combo3 : 125,236,150
Combo4 : 241,232,112

[HitObjects]
108,232,1192,6,0,P|96:304|108:356,2,89.9999999999999
168,164,2093,1,0,0:0:0:0:
180,76,2393,2,0,P|248:72|308:48,1,89.9999999999999
352,104,2994,2,0,P|400:76|424:40,1,89.9999999999999
472,120,3595,6,0,P|440:208|456:316,1,180
364,324,4496,1,0,0:0:0:0:
208,248,4797,2,0,L|336:256,1,89.9999999999999
380,168,5398,2,0,L|280:160,1,89.9999999999999
148,108,5998,1,0,0:0:0:0:
148,108,6599,2,0,P|96:124|36:116,1,89.9999999999999
72,304,7200,6,0,P|69:259|77:215,1,89.9999999999999
168,196,7801,2,0,P|164:152|136:84,1,89.9999999999999
112,24,8402,1,0,0:0:0:0:
200,44,8702,1,0,0:0:0:0:
276,96,9003,2,0,P|332:112|376:88,1,89.9999999999999
436,52,9604,2,0,P|508:28|536:36,1,89.9999999999999
496,176,10205,2,0,L|480:296,1,89.9999999999999
340,308,10805,6,0,B|268:280|200:324|200:324|136:304,1,180
92,264,11707,1,0,0:0:0:0:
92,264,12007,2,0,P|112:200|108:164,1,90
192,136,12608,2,0,P|244:104|300:108,1,90
392,200,13209,2,0,B|372:304|456:312|456:312|480:352,1,180
256,192,14110,12,0,15612,0:0:0:0:
256,188,16213,5,0,0:0:0:0:
256,192,16514,12,0,19819,0:0:0:0:
124,76,20419,6,0,P|152:152|144:200,1,90
116,240,21020,1,0,0:0:0:0:
48,300,21321,2,0,P|104:340|216:336,1,180
292,296,22222,1,0,0:0:0:0:
380,308,22522,2,0,L|372:216,1,90
400,132,23123,1,0,0:0:0:0:
400,132,23424,1,0,0:0:0:0:
444,52,23724,6,0,L|316:24,2,90
400,132,24625,2,0,P|324:156|224:112,1,180
144,44,25527,6,0,P|76:60|56:100,1,90
112,152,26128,2,0,L|132:248,1,90
40,256,26729,2,0,L|76:348,1,90
208,384,27329,6,0,P|260:356|320:352,1,90
364,304,27930,2,0,L|416:332,2,45
404,280,28381,2,0,L|456:260,2,45
424,240,28832,2,0,L|436:192,2,45
408,196,29282,2,0,L|388:140,1,45
256,48,29733,6,0,L|296:88,1,45,0|0,0:0|0:0,0:0:0:0:
304,120,30033,2,0,P|244:104|180:112,1,90
136,148,30634,6,0,L|72:156,1,45
116,192,30935,2,0,L|60:200,1,45
96,236,31235,2,0,L|28:248,1,45
68,284,31535,2,0,P|136:288|184:272,1,90
244,264,32136,1,0,0:0:0:0:
312,204,32437,2,0,L|340:304,1,90
360,376,33038,5,0,0:0:0:0:
420,204,33639,2,0,L|395:117,1,90
368,32,34239,2,0,P|304:40|256:72,2,90
220,136,35441,6,0,P|228:216|212:264,2,90
136,296,36643,6,0,P|72:296|32:272,1,90
24,200,37244,1,0,0:0:0:0:
24,200,37394,2,0,P|92:152|160:144,1,135
232,136,38145,2,0,P|308:124|380:80,1,135
456,192,39046,5,0,0:0:0:0:
476,280,39347,1,0,0:0:0:0:
428,356,39647,2,0,P|364:344|312:316,1,90
268,280,40248,5,0,0:0:0:0:
184,312,40549,1,0,0:0:0:0:
96,288,40849,2,0,P|104:212|128:176,1,90
60,128,41450,6,0,L|184:104,1,90
120,24,42051,2,0,L|232:44,1,90
292,8,42652,2,0,L|336:88,1,90
372,168,43252,1,0,0:0:0:0:
468,268,43553,5,0,0:0:0:0:
468,268,43703,1,0,0:0:0:0:
468,268,43853,2,0,P|396:292|348:292,1,90
276,272,44454,1,0,0:0:0:0:
156,336,44755,1,0,0:0:0:0:
156,336,44905,1,0,0:0:0:0:
156,336,45055,2,0,P|176:252|176:220,1,90
180,148,45656,1,0,0:0:0:0:
76,64,45956,1,0,0:0:0:0:
76,64,46107,1,0,0:0:0:0:
76,64,46257,2,0,P|144:40|160:24,2,90
256,192,47158,12,0,48360,0:0:0:0:
84,108,48660,5,0,0:0:0:0:
92,196,48961,1,0,0:0:0:0:
100,284,49261,2,0,L|192:292,1,90
264,240,49862,5,0,0:0:0:0:
352,220,50163,1,0,0:0:0:0:
440,200,50463,2,0,L|416:100,1,90
328,108,51064,6,0,P|276:112|204:96,1,90
188,180,51665,2,0,P|124:152|104:108,1,90
28,108,52266,2,0,P|56:52|112:24,1,90
164,16,52866,1,0,0:0:0:0:
304,128,53467,6,0,L|496:100,1,180
364,236,54669,2,0,L|172:208,1,180
52,332,55871,1,0,0:0:0:0:
52,332,56021,1,0,0:0:0:0:
120,216,56472,6,0,P|136:140|124:92,1,90
224,40,57073,2,0,P|252:108|288:136,1,90
428,188,57673,2,0,P|404:140|360:96,1,90
256,192,58274,12,0,60978,0:0:0:0:
120,104,61279,6,0,P|152:208|140:248,1,135
104,248,61879,2,0,L|192:268,1,90
264,324,62480,2,0,P|280:296|280:224,1,90
240,352,63081,1,0,0:0:0:0:
240,352,63682,6,0,L|168:352,2,45
356,304,64283,2,0,P|436:280|500:280,1,135
456,244,64884,2,0,L|412:228,1,45
332,120,65485,6,0,P|288:200|232:216,1,135
184,160,66086,2,0,P|228:80|284:64,1,135
348,32,66686,2,0,L|452:32,1,90
472,116,67287,1,0,0:0:0:0:
380,116,67588,1,0,0:0:0:0:
364,204,67888,1,0,0:0:0:0:
272,204,68189,2,0,B|212:204|212:204|184:164|184:164|104:164,1,180
52,96,69090,6,0,P|112:80|148:56,1,90
228,48,69691,2,0,P|212:124|220:168,1,90
180,220,70292,2,0,P|140:176|76:156,1,90
56,232,70893,1,0,0:0:0:0:
96,312,71193,1,0,0:0:0:0:
180,344,71493,1,0,0:0:0:0:
272,348,71794,1,0,0:0:0:0:
356,316,72094,2,0,P|448:264|508:256,1,135
475,258,72695,1,0,0:0:0:0:
456,152,73296,5,0,0:0:0:0:
416,72,73596,1,0,0:0:0:0:
332,40,73896,1,0,0:0:0:0:
240,36,74197,1,0,0:0:0:0:
156,68,74497,2,0,P|64:120|4:128,1,135
44,172,75099,2,0,L|32:268,1,90
88,332,75700,5,0,0:0:0:0:
172,300,76000,2,0,L|183:210,1,90
260,260,76601,1,0,0:0:0:0:
344,228,76901,1,0,0:0:0:0:
428,192,77202,2,0,L|439:102,2,90
416,280,78103,2,0,L|456:364,2,90
256,136,79305,6,0,P|320:152|376:136,2,90
208,60,80206,1,0,0:0:0:0:
120,48,80507,2,0,P|56:92|40:124,1,90
48,236,81107,6,0,B|84:308|160:320|160:320|168:252,1,180
176,196,82009,1,0,0:0:0:0:
164,108,82309,2,0,P|188:36|200:24,1,90
280,56,82910,1,0,0:0:0:0:
332,132,83210,1,0,0:0:0:0:
436,44,83511,6,0,B|414:100|414:100|462:140|446:208,1,180
396,284,84412,2,0,L|280:264,2,90
464,344,85313,1,0,0:0:0:0:
396,284,85614,1,0,0:0:0:0:
320,208,85914,6,0,P|256:296|240:300,1,90
176,312,86515,2,0,P|136:348|68:356,1,90
80,252,87116,2,0,P|112:204|172:176,1,90
232,132,87717,1,0,0:0:0:0:
232,132,87867,2,0,P|312:140|344:128,2,90
232,132,88618,1,0,0:0:0:0:
