osu file format v9

[General]
AudioFilename: MS-NA BELOM KONE.mp3
AudioLeadIn: 0
PreviewTime: -1
Countdown: 1
SampleSet: Soft
StackLeniency: 0.7
Mode: 0
LetterboxInBreaks: 1

[Editor]
DistanceSpacing: 0.8
BeatDivisor: 4
GridSize: 8

[Metadata]
Title:Na Belom Kone
Artist:Mongol Shuudan
Creator:ReViVeD
Version:Hard
Source:
Tags:

[Difficulty]
HPDrainRate:5
CircleSize:4
OverallDifficulty:5
ApproachRate:5
SliderMultiplier:1.6
SliderTickRate:1

[Events]
//Background and Video events
0,0,"1.jpg"
//Break Periods
2,25660,39978
2,99445,116800
2,170028,177360
//Storyboard Layer 0 (Background)
//Storyboard Layer 1 (Fail)
//Storyboard Layer 2 (Pass)
//Storyboard Layer 3 (Foreground)
//Storyboard Sound Samples
//Background Colour Transformations
3,100,163,162,255

[TimingPoints]
2758,291.064325215873,4,2,0,55,1,0
2758,-100,4,2,0,55,0,0
7342,-100,4,1,0,55,0,0
95534,-100,4,1,0,5,0,0
99464,-100,4,1,0,55,0,0
194714,-200,4,1,0,55,0,0
198862,-200,4,1,0,5,0,0

[Colours]
Combo1 : 69,69,69
Combo2 : 255,0,0
Combo3 : 255,255,255
Combo4 : 0,0,0

[HitObjects]
8,136,2758,2,2,B|88:136,2,80,2|2|6
136,136,3340,2,2,B|240:136,2,80,2|2|6
264,136,3922,2,2,B|360:136,2,80,2|2|6
392,136,4504,2,2,B|496:136,2,80,2|2|6
504,200,5086,2,2,B|400:200,2,80,2|2|6
376,200,5668,2,2,B|272:200,2,80,2|2|6
248,200,6250,2,2,B|144:200,2,80,2|2|6
120,200,6832,2,2,B|40:200,2,80,2|2|6
8,272,7415,6,0,B|-8:128|96:-16|440:0|528:96|520:304,1,800
392,280,9161,1,0
272,232,9452,1,0
216,120,9743,2,0,B|296:104|296:32|280:-24|496:48,1,320
448,160,10616,1,0
456,288,10907,2,0,B|384:320|176:328|56:160,1,440
168,40,12072,5,0
256,128,12363,1,0
352,208,12654,1,0
464,264,12945,2,0,B|464:192|464:192|424:184|424:184|448:112|448:112|392:136|392:136|424:72|424:72|368:96|368:96|400:32|336:32|336:32,1,440
240,48,14036,1,0
120,88,14327,2,0,B|192:256|392:232,1,320
464,136,15200,1,0
368,104,15419,2,0,B|352:88|352:88|336:104|336:104|336:88|336:88|320:104|320:104|320:88|320:88|304:104|304:104|304:88|304:88|288:104|288:104|288:88|288:88|200:88|64:88,1,400
296,48,16656,6,0,B|496:48,1,200
440,128,17238,2,0,B|96:280,1,360
104,144,18184,1,0
176,80,18402,1,0
296,32,18693,1,0
296,160,18984,1,0
296,288,19275,1,0
392,288,19494,2,0,B|392:128,2,160
88,192,20803,5,0
216,192,21095,1,0
344,200,21386,1,0
120,96,21968,1,0
224,168,22259,2,0,B|264:208|288:232|352:248|384:256|416:232|376:208|432:176|416:144|344:176|416:104|344:96|304:104|264:120|272:176|256:208|264:240|296:272|320:288,1,480
40,288,23714,1,0
264,280,24223,1,0
368,360,24515,1,0
248,360,24806,2,0,B|128:320|128:320|240:256|240:256|160:224|160:224|112:200,1,360
288,184,41178,5,4
144,24,42561,1,0
200,24,42852,1,0
248,48,43143,2,0,B|376:64|376:64|248:96|248:96|376:112|376:112|248:144|248:144|440:184|440:184,1,680
400,216,44598,2,0,B|24:144,1,360
432,104,45835,5,4
120,48,47072,2,0,B|168:96|168:96|176:96|176:96|176:104|176:104|184:104|184:104|184:112|184:112|192:112|192:112|192:120|192:120|200:120|200:120|200:128|200:128|208:128|208:128|208:136|208:136|312:240|320:248,1,280,0|4
384,256,47872,1,0
416,176,48164,2,0,B|336:96|248:48|160:24|64:24,1,360
104,88,49037,1,4
176,128,49328,1,4
320,200,49910,1,4
240,336,50419,6,0,B|88:312|40:216|128:128|200:136|272:144|336:160|352:128|456:112|360:48|344:24|248:16|200:16|128:16|128:16,1,720
112,112,51947,2,0,B|264:184,1,160,0|4
376,216,52529,1,4
392,336,52821,2,0,B|232:336,1,160,4|4
104,336,53403,2,0,B|104:152,1,160,4|4
64,80,54567,5,0
160,80,54785,1,0
320,80,55149,2,0,B|464:344,1,280,4|4
328,328,55950,1,4
200,328,56241,1,4
32,112,56895,1,0
144,56,57187,1,0
248,48,57478,6,0,B|280:40|280:40|288:56|288:56|304:48|304:48|312:64|312:64|328:56|328:56|336:72|336:72|352:64|352:64|360:80|360:80|376:72|376:72|384:88|384:88|400:80|400:80|408:96|408:96|424:88|424:88|432:104|432:104|448:96|448:96|456:112|456:112|464:128,1,320,0|4
440,224,58278,1,4
344,224,58496,2,0,B|152:152,1,200,4|4
384,32,59442,2,0,B|488:32,1,80
400,120,59806,1,4
328,192,60024,2,0,B|416:192,1,80
432,256,60315,2,4,B|160:256,1,240
432,192,61480,5,0
304,192,61771,1,0
176,192,62062,1,0
384,40,62717,1,8
304,104,62935,1,8
232,176,63153,2,0,B|256:168|280:168|280:152|240:120|200:136|184:184|328:232|448:232|480:8,1,400,8|0
256,40,64172,5,0
128,72,64463,1,4
72,104,64609,1,4
24,144,64754,1,4
40,240,64972,6,0,B|112:296|216:312|304:304|376:288|408:264|424:248,1,400,0|4
112,72,66501,1,0
232,128,66792,1,0
232,128,67010,1,0
112,176,67301,1,0
232,224,67592,1,0
120,288,67883,2,0,B|200:320|288:320|336:304|312:160|312:64|480:16,1,520,0|4
480,112,69047,1,4
480,240,69338,1,4
392,272,69557,2,12,B|312:288,3,80
256,56,70794,6,0,B|272:64|272:64|256:72|256:72|272:80|272:80|256:88|256:88|272:96|272:96|256:104|256:104|272:112|272:112|256:120|256:120|272:128|272:128|256:136|256:136|272:144|272:144|256:152|256:152|272:160|272:160,1,200,0|4
264,272,71449,5,4
8,288,72031,1,4
112,208,72322,1,4
232,160,72613,2,4,B|312:208|448:192|496:88|464:0|304:8|248:32|232:64|232:120|232:160,1,520
232,248,73777,1,4
296,248,73923,1,4
360,248,74068,1,4
488,248,74359,1,4
56,184,75451,5,0
192,184,75742,1,0
320,184,76033,1,0
8,264,76688,1,0
104,264,76906,1,4
232,264,77197,1,4
496,160,77852,1,4
328,184,78434,5,4
256,184,78725,1,4
184,184,79016,1,4
344,104,79890,1,6
264,104,80181,1,6
144,168,80763,1,4
216,168,81054,1,4
288,168,81345,1,4
488,64,82218,1,4
472,144,82509,1,4
424,216,82800,1,4
344,232,83091,1,4
264,232,83382,1,4
184,232,83673,1,4
24,168,84547,5,6
80,168,84838,1,6
208,168,85420,1,4
264,160,85711,1,4
224,104,86002,1,4
24,56,86875,1,4
48,120,87166,1,4
88,176,87457,1,4
136,224,87748,1,4
200,232,88039,1,4
264,232,88330,1,4
208,120,89204,5,6
168,160,89495,1,6
296,184,90077,1,4
352,184,90368,1,4
408,184,90659,1,4
456,304,91532,1,4
392,304,91823,1,4
328,296,92114,1,4
264,272,92405,1,4
208,240,92696,1,4
160,192,92987,1,4
8,184,93861,5,6
72,184,94152,1,6
216,240,94734,2,4,B|240:192|192:168|152:200|144:224|136:280|184:320|256:304|280:280|288:248|288:224|240:176,1,320
256,192,95680,12,0,99245
64,104,118019,5,2
64,104,118165,1,2
104,200,118456,1,0
48,200,118601,1,0
120,280,118892,1,0
176,280,119038,1,0
224,280,119183,1,0
272,280,119329,1,0
320,280,119474,1,0
384,208,119765,1,2
336,176,119911,1,2
200,152,120347,1,0
152,136,120493,1,0
136,88,120639,1,0
200,24,120930,1,2
248,24,121075,1,2
256,80,121221,2,2,B|304:112|304:112|272:168|272:168|360:128|360:128|344:216|344:216|408:152|408:152|264:344|264:344,1,640
200,312,122603,5,0
136,240,122822,1,0
128,112,123113,1,0
160,56,123258,1,0
280,16,123549,1,0
480,296,124422,1,0
488,176,124713,1,0
392,248,125005,2,0,B|328:288|240:312|144:296|56:240,1,320
120,176,125805,1,0
112,88,126023,1,0
432,48,126751,5,0
368,160,127042,1,0
288,256,127333,1,0
136,288,127697,1,0
160,176,127988,2,0,B|-16:88|16:0|232:-24|344:48,1,440
488,88,129225,2,0,B|384:304,2,240
424,56,130244,1,0
320,48,130462,2,0,B|176:320,1,280
16,192,131626,5,0
128,176,131772,2,0,B|288:176,2,160
233,56,132572,1,0
512,8,132936,1,0
9,303,133664,1,0
168,320,133882,2,0,B|240:376|304:368|336:336|344:264|336:224,1,240
32,40,134828,1,0
200,176,135119,1,0
376,296,135410,1,0
256,40,136210,6,8,B|272:56|272:56|256:56|256:56|272:64|272:64|256:64|256:64|272:72|272:72|256:72|256:72|272:80|272:80|256:80|256:80|256:88|256:88|256:128|256:128,1,160
256,160,136647,1,8
496,280,137229,1,0
408,312,137448,1,8
312,328,137666,1,8
24,184,138393,2,0,B|256:184,1,200
128,96,139048,2,0,B|328:96,1,200
472,176,139776,1,0
368,272,140140,1,0
112,272,140722,1,0
256,64,141304,5,4
336,120,141595,1,6
32,296,142759,1,0
144,296,143051,2,0,B|256:296|296:256|320:232,1,160
392,200,143633,1,0
192,104,144215,1,0
304,104,144506,1,0
416,104,144797,1,0
112,248,145670,2,0,B|264:248,2,120
80,176,146325,1,0
160,176,146543,1,0
272,176,146834,1,0
448,128,147416,1,0
128,184,147999,6,0,B|344:184,1,200
360,64,148653,1,0
296,64,148799,1,0
168,64,149090,1,0
160,224,149454,1,0
456,40,150182,5,0
368,80,150400,2,0,B|256:96|240:160|256:208|336:248|408:232,1,280
464,264,151128,2,0,B|464:40,2,200
120,192,152656,1,0
248,192,152947,1,0
504,200,153529,1,0
384,200,153820,1,0
264,200,154111,1,0
344,64,154911,5,0
344,152,155057,2,0,B|344:312,2,160
432,152,155785,2,0,B|432:328,1,160
0,16,157022,1,0
152,128,157313,1,0
208,296,157604,1,0
392,32,158186,1,0
224,32,158477,2,4,B|224:200,3,160
432,64,159932,5,4
432,120,160223,1,4
432,176,160514,1,4
256,112,161388,1,6
240,168,161679,1,6
152,64,162261,1,4
152,120,162552,1,4
152,176,162843,1,4
40,144,163716,5,4
72,96,164007,1,4
128,56,164298,1,4
184,32,164589,1,4
248,24,164880,1,4
312,32,165171,1,4
384,232,166045,1,6
336,256,166336,1,6
200,280,166918,1,4
152,248,167209,1,4
104,208,167500,1,4
451,44,168373,6,4,B|451:222,5,160,4|4|4|4|6|6
24,192,178560,5,4
96,192,178851,1,0
176,192,179142,2,0,B|288:192,1,80
264,256,179506,2,0,B|16:256,1,240
40,152,180307,1,0
184,80,180889,1,4
264,80,181180,1,4
296,160,181471,1,4
368,176,182344,5,4
368,176,182635,1,4
368,176,182926,1,4
368,176,183217,1,4
368,176,183508,1,4
368,176,183800,1,4
256,232,184091,1,0
128,256,184382,1,0
136,128,184673,1,0
264,120,184964,1,0
416,112,185546,5,4
416,240,185837,1,4
280,240,186128,1,4
8,32,187001,1,0
120,96,187292,1,0
256,136,187583,1,0
152,200,187874,1,4
264,264,188165,1,4
152,320,188457,1,4
88,320,188602,1,0
0,320,188820,1,0
32,64,189402,1,0
24,192,189694,1,0
144,224,189985,5,0
262,226,190203,2,0,B|358:226,2,80
442,225,190858,1,0
47,223,191658,1,0
191,224,191949,1,0
334,225,192240,1,0
427,116,192531,1,0
285,94,192823,1,0
167,13,193114,1,0
184,120,193405,5,0
120,120,193550,2,0,B|120:368,1,240
240,360,194278,1,0
368,360,194569,1,0
256,240,194860,6,0,B|256:80,1,160
256,192,195806,12,0,199153
