osu file format v9

[General]
AudioFilename: Money Boy - Dreh den Swag auf.mp3
AudioLeadIn: 0
PreviewTime: -1
Countdown: 1
SampleSet: Soft
StackLeniency: 0.7
Mode: 0
LetterboxInBreaks: 1

[Editor]
DistanceSpacing: 0.8
BeatDivisor: 2
GridSize: 8

[Metadata]
Title:Dreh den Swag auf
Artist:Money Boy
Creator:deathfighterx
Version:Easy
Source:
Tags:

[Difficulty]
HPDrainRate:4
CircleSize:6
OverallDifficulty:0
ApproachRate:5
SliderMultiplier:1.39999990463257
SliderTickRate:4

[Events]
//Background and Video events
0,0,"money-boy.jpg"
//Break Periods
//Storyboard Layer 0 (Background)
//Storyboard Layer 1 (Fail)
//Storyboard Layer 2 (Pass)
//Storyboard Layer 3 (Foreground)
//Storyboard Sound Samples
//Background Colour Transformations
3,100,163,162,255

[TimingPoints]
1957.1827518876,779.320779220779,4,2,0,100,1,0

[Colours]
Combo1 : 255,150,0
Combo2 : 5,240,5
Combo3 : 255,128,255
Combo4 : 0,0,255

[HitObjects]
296,64,788,1,0
296,120,1177,1,0
208,192,1957,1,0
112,144,2736,1,0
216,112,3515,1,0
336,112,4295,1,0
376,224,5074,1,0
264,248,5853,1,0
192,176,6633,1,0
80,128,7412,1,0
200,104,8191,1,0
320,136,9360,1,0
248,200,9750,1,0
128,160,10529,1,0
232,112,11309,1,0
344,176,12478,1,0
408,120,12867,1,0
344,88,13257,1,0
232,96,14036,1,0
160,144,14815,1,0
112,248,15595,1,0
232,280,16374,1,0
360,280,17153,1,0
408,200,17933,1,0
288,200,18712,1,0
360,112,19491,1,0
248,88,20271,1,0
320,144,20660,1,0
200,216,21829,1,0
280,232,22219,1,0
248,152,22998,1,0
152,96,23778,1,0
56,64,24557,1,0
80,160,24947,1,0
200,224,26116,1,0
296,184,26895,1,0
344,152,27285,1,0
512,152,28064,1,0
472,192,28454,1,0
416,216,28843,1,0
336,208,29233,1,0
312,200,29623,1,0
296,192,29817,1,0
280,184,30012,1,0
224,152,30402,1,0
136,96,31181,1,0
120,200,31961,1,0
224,224,32740,1,0
312,160,33519,1,0
416,184,34298,1,0
312,224,35078,1,0
216,168,35857,1,0
120,248,36636,1,0
240,240,37416,1,0
320,160,38195,1,0
232,120,38974,1,0
200,224,39754,1,0
312,232,40533,1,0
312,120,41312,1,0
192,152,42092,1,0
264,200,42871,1,0
408,136,44040,1,0
320,144,44819,1,0
232,184,45599,1,0
144,136,46378,1,0
96,224,47157,1,0
200,240,47937,1,0
288,184,48716,1,0
400,216,49495,1,0
304,160,50275,1,0
192,216,51054,1,0
144,112,51833,1,0
248,112,52613,1,0
328,208,53392,1,0
208,240,54171,1,0
248,120,54950,1,0
368,104,55730,1,0
296,192,56509,1,0
192,144,57288,1,0
288,112,58068,1,0
360,168,58847,1,0
424,112,59626,1,0
360,112,60406,1,0
304,104,61185,1,0
232,112,61964,1,0
192,176,62744,1,0
48,176,63523,1,0
168,144,64302,1,0
296,176,65082,1,0
408,112,65861,1,0
432,216,66640,1,0
360,232,67420,1,0
264,192,68199,1,0
184,136,68978,1,0
112,80,69758,1,0
176,152,70537,2,0,B|464:240|48:312|456:256|440:72|-24:160|-48:152|-40:152,2,419.999971389771
312,120,75992,1,0
280,224,76771,1,0
176,176,77551,1,0
248,88,78330,1,0
360,136,79109,1,0
376,248,79889,1,0
256,216,80668,1,0
208,88,81447,1,0
112,152,82227,1,0
216,224,83006,1,0
328,144,83785,1,0
456,216,84565,1,0
336,240,85344,1,0
216,208,86123,1,0
128,120,86903,1,0
96,256,87682,1,0
240,264,88461,1,0
336,192,89241,1,0
408,256,90020,1,0
264,184,90799,1,0
128,96,91579,1,0
232,216,92358,1,0
368,272,93137,1,0
224,128,94696,1,0
304,120,95086,1,0
240,216,95865,1,0
192,208,96254,1,0
160,176,96644,1,0
136,152,97034,1,0
248,136,97813,1,0
352,144,98592,1,0
352,248,99372,1,0
248,248,100151,1,0
160,168,100930,1,0
264,120,101710,1,0
376,128,102489,1,0
344,232,103268,1,0
272,264,103658,1,0
208,264,104048,1,0
168,240,104437,1,0
152,184,104827,1,0
160,104,105217,1,0
216,72,105606,1,0
280,72,105996,1,0
320,80,106386,1,0
328,112,106775,1,0
256,160,107555,1,0
168,128,108334,1,0
112,192,109113,1,0
200,232,109893,1,0
296,192,110672,1,0
400,152,111451,1,0
440,248,112231,1,0
328,256,113010,1,0
232,176,113789,1,0
120,216,114569,1,0
128,96,115348,1,0
256,112,116127,1,0
320,224,116906,1,0
208,256,117686,1,0
160,176,118465,1,0
248,144,119244,1,0
296,144,119634,1,0
392,128,120413,1,0
456,64,121193,1,0
360,56,121972,1,0
264,88,122751,1,0
160,80,123531,1,0
128,176,124310,1,0
224,224,125089,1,0
312,176,125869,1,0
184,168,126648,2,0,B|328:304|424:168|-24:144,1,419.999971389771
48,144,128986,1,0
168,192,129765,1,0
288,136,130545,1,0
400,184,131324,1,0
384,48,132103,1,0
240,72,133272,1,0
280,136,133662,1,0
160,184,134441,1,0
264,248,135221,1,0
352,168,136000,1,0
256,136,136779,1,0
168,192,137558,6,0,B|424:328|456:96|504:144,1,349.999976158143
304,144,140676,1,0
328,200,141065,1,0
280,232,141455,1,0
216,224,141845,1,0
176,200,142234,1,0
144,160,142624,1,0
192,96,143014,1,0
264,72,143403,1,0
344,64,143793,1,0
432,64,144572,1,0
408,120,144962,1,0
368,144,145352,1,0
320,160,145741,1,0
280,160,146131,1,0
200,136,146521,1,0
112,160,147300,1,0
96,200,147690,1,0
192,224,148469,1,0
296,176,149248,1,0
304,136,150417,5,0
128,136,151586,1,0
128,16,152366,1,0
264,88,153535,1,0
320,120,153924,1,0
376,160,154314,1,0
400,184,154704,1,0
208,176,155873,1,0
144,168,156262,1,0
88,120,156652,1,0
64,56,157042,1,0
136,56,157431,1,0
208,72,157821,1,0
416,152,159379,1,0
200,200,160938,1,0
160,176,161328,1,0
184,96,162497,1,0
416,240,164445,1,0
360,240,164835,1,0
304,216,165224,1,0
144,144,166393,1,0
96,184,166783,1,0
88,248,167173,1,0
344,216,169121,1,0
368,192,169511,1,0
376,160,169900,1,0
352,144,170290,1,0
264,144,171069,1,0
120,144,172238,1,0
384,176,174187,1,0
216,184,175356,1,0
216,136,177304,1,0
328,152,178083,1,0
200,280,179252,1,0
168,216,179642,1,0
232,152,180421,1,0
400,168,181590,1,0
336,208,181980,1,0
256,200,182369,1,0
184,168,182759,1,0
96,184,183538,1,0
88,216,183928,1,0
328,168,185487,1,0
168,184,186656,1,0
208,168,187045,1,0
376,136,188214,1,0
280,176,188994,1,0
488,224,190552,1,0
408,216,190942,1,0
248,152,192111,1,0
192,160,192501,1,0
144,200,192890,1,0
392,200,194449,1,0
312,176,194839,1,0
232,152,195228,1,0
152,120,195618,1,0
80,96,196008,1,0
80,168,196397,1,0
280,208,197956,1,0
112,64,199515,1,0
120,112,199904,1,0
256,216,201073,1,0
392,192,201852,1,0
456,160,202242,1,0
224,216,203801,1,0
