osu file format v13

[General]
AudioFilename: momoiro clover z- santa san .mp3
AudioLeadIn: 0
PreviewTime: 89002
Countdown: 0
SampleSet: Normal
StackLeniency: 0.7
Mode: 1
LetterboxInBreaks: 0
WidescreenStoryboard: 0

[Editor]
DistanceSpacing: 1
BeatDivisor: 4
GridSize: 4
TimelineZoom: 2

[Metadata]
Title:Santa-san
TitleUnicode:サンタさん
Artist:Momoiro Clover Z
ArtistUnicode:ももいろクローバーZ
Creator:cdhsausageboy
Version:Muzukashii
Source:
Tags:Christmas 労働讃歌 Rōdō Rodo Sanka Hymn to Labor 5th Fifth Dimension
BeatmapID:532974
BeatmapSetID:228965

[Difficulty]
HPDrainRate:5
CircleSize:5
OverallDifficulty:5
ApproachRate:5
SliderMultiplier:1.4
SliderTickRate:1

[Events]
//Background and Video events
0,0,"Anime-HD-Wallpaper-2014-Wallpaper-88.jpg",0,0
//Break Periods
//Storyboard Layer 0 (Background)
//Storyboard Layer 1 (Fail)
//Storyboard Layer 2 (Pass)
//Storyboard Layer 3 (Foreground)
//Storyboard Sound Samples
//Background Colour Transformations
3,100,163,162,255

[TimingPoints]
1845,315.789473684211,4,1,0,60,1,0
48581,-100,4,1,0,80,0,1
68792,-100,4,1,0,60,0,0
89002,-100,4,1,0,90,0,1
109213,-100,4,1,0,90,0,0
110318,-100,4,1,0,90,0,1
110476,-100,4,1,0,90,0,0
111108,-100,4,1,0,90,0,1
111739,-100,4,1,0,90,0,0
112845,-100,4,1,0,90,0,1
113002,-100,4,1,0,90,0,0
114266,-100,4,1,0,90,0,1
119318,-100,4,1,0,90,0,0
124371,-100,4,1,0,90,0,1
129423,-100,4,1,0,90,0,0
162266,-100,4,1,0,90,0,1
182476,-100,4,1,0,90,0,0
183581,-100,4,1,0,90,0,1
183739,-100,4,1,0,90,0,0
184371,-100,4,1,0,90,0,1
185002,-100,4,1,0,90,0,0
186108,-100,4,1,0,90,0,1
186266,-100,4,1,0,90,0,0
187529,-100,4,1,0,90,0,1
192581,-100,4,1,0,90,0,0
197634,-100,4,1,0,90,0,1
202687,-100,4,1,0,90,0,0

[HitObjects]
120,188,1845,5,0,0:0:0:0:
120,188,2160,1,0,0:0:0:0:
120,188,2476,1,0,0:0:0:0:
148,208,3108,1,0,0:0:0:0:
148,208,3423,1,0,0:0:0:0:
148,208,3739,1,0,0:0:0:0:
160,148,4371,1,0,0:0:0:0:
436,176,4687,1,8,0:0:0:0:
440,168,5002,1,0,0:0:0:0:
128,144,5476,1,0,0:0:0:0:
484,168,5634,1,8,0:0:0:0:
388,188,6897,1,8,0:0:0:0:
388,188,7213,1,8,0:0:0:0:
388,188,7529,1,8,0:0:0:0:
388,188,8002,1,8,0:0:0:0:
388,188,8160,1,8,0:0:0:0:
388,188,8476,1,8,0:0:0:0:
368,176,8792,1,0,0:0:0:0:
368,176,9108,1,0,0:0:0:0:
368,176,9266,1,0,0:0:0:0:
360,172,9423,1,8,0:0:0:0:
360,168,9739,1,8,0:0:0:0:
416,164,10055,1,0,0:0:0:0:
440,176,10371,1,8,0:0:0:0:
440,176,10687,1,0,0:0:0:0:
424,176,11950,1,8,0:0:0:0:
416,172,13213,1,0,0:0:0:0:
416,148,14476,1,8,0:0:0:0:
320,180,17002,1,8,0:0:0:0:
320,180,17318,1,8,0:0:0:0:
320,180,17634,1,8,0:0:0:0:
436,180,17792,1,0,0:0:0:0:
384,176,17950,1,8,0:0:0:0:
428,184,18266,1,0,0:0:0:0:
360,204,18423,1,0,0:0:0:0:
392,188,18581,1,8,0:0:0:0:
392,188,18739,1,8,0:0:0:0:
408,204,18897,1,0,0:0:0:0:
392,176,19213,1,8,0:0:0:0:
400,176,19529,1,0,0:0:0:0:
384,168,19687,1,8,0:0:0:0:
384,168,19845,1,8,0:0:0:0:
416,180,20002,1,0,0:0:0:0:
416,180,20160,1,0,0:0:0:0:
396,164,20476,1,8,0:0:0:0:
424,164,20792,1,0,0:0:0:0:
424,164,20950,1,0,0:0:0:0:
424,168,21108,1,8,0:0:0:0:
412,176,21423,1,0,0:0:0:0:
416,164,21581,1,8,0:0:0:0:
420,172,21739,1,0,0:0:0:0:
400,168,22055,1,8,0:0:0:0:
424,164,22371,1,0,0:0:0:0:
400,168,22687,1,8,0:0:0:0:
416,168,22845,1,0,0:0:0:0:
404,156,23002,1,8,0:0:0:0:
248,192,23318,1,0,0:0:0:0:
348,184,23634,1,8,0:0:0:0:
348,184,23792,1,8,0:0:0:0:
332,180,23950,1,0,0:0:0:0:
368,184,24266,1,8,0:0:0:0:
396,184,24581,1,0,0:0:0:0:
400,180,24897,1,0,0:0:0:0:
400,180,25055,1,0,0:0:0:0:
372,180,25213,1,8,0:0:0:0:
372,180,25529,1,8,0:0:0:0:
444,184,25845,1,8,0:0:0:0:
428,180,26002,1,0,0:0:0:0:
432,176,26160,1,8,0:0:0:0:
380,172,26476,1,0,0:0:0:0:
384,168,26634,1,8,0:0:0:0:
436,168,26792,1,0,0:0:0:0:
384,180,27108,1,8,0:0:0:0:
384,180,27423,1,0,0:0:0:0:
404,172,27739,1,8,0:0:0:0:
296,168,28371,1,0,0:0:0:0:
364,156,28687,1,0,0:0:0:0:
400,176,28845,1,0,0:0:0:0:
376,160,29002,1,8,0:0:0:0:
376,152,29160,1,0,0:0:0:0:
312,160,29476,1,0,0:0:0:0:
344,164,29792,1,0,0:0:0:0:
388,176,29950,1,8,0:0:0:0:
432,172,30266,1,0,0:0:0:0:
432,172,30423,1,0,0:0:0:0:
400,184,30581,1,8,0:0:0:0:
416,176,30897,1,0,0:0:0:0:
408,164,31213,1,8,0:0:0:0:
456,168,31529,1,0,0:0:0:0:
448,156,31845,1,8,0:0:0:0:
416,168,32002,1,0,0:0:0:0:
416,168,32318,1,0,0:0:0:0:
412,156,32476,1,8,0:0:0:0:
196,160,32792,1,0,0:0:0:0:
392,160,33108,1,12,0:0:0:0:
215,186,33423,1,0,0:0:0:0:
399,165,33739,1,8,0:0:0:0:
386,147,33897,1,0,0:0:0:0:
386,147,34055,1,0,0:0:0:0:
404,173,34213,1,8,0:0:0:0:
389,165,34529,1,0,0:0:0:0:
389,165,34845,1,0,0:0:0:0:
444,164,35002,1,8,0:0:0:0:
444,164,35160,1,8,0:0:0:0:
413,153,35318,1,0,0:0:0:0:
411,147,35476,1,8,0:0:0:0:
412,142,35634,1,8,0:0:0:0:
429,141,35950,1,8,0:0:0:0:
459,137,36266,1,0,0:0:0:0:
432,149,36581,1,8,0:0:0:0:
428,164,36897,1,0,0:0:0:0:
352,163,37055,1,8,0:0:0:0:
410,146,37371,1,0,0:0:0:0:
440,142,37529,1,8,0:0:0:0:
443,142,37845,1,0,0:0:0:0:
415,151,38160,1,12,0:0:0:0:
286,130,38476,1,0,0:0:0:0:
360,168,38634,1,8,0:0:0:0:
308,164,38792,1,8,0:0:0:0:
368,168,39108,1,0,0:0:0:0:
376,168,39266,1,0,0:0:0:0:
396,164,39423,1,8,0:0:0:0:
388,160,39581,1,0,0:0:0:0:
336,136,39739,1,0,0:0:0:0:
436,168,39897,1,8,0:0:0:0:
436,168,40055,1,8,0:0:0:0:
436,168,40372,1,8,0:0:0:0:
388,168,40530,1,0,0:0:0:0:
388,168,40688,1,0,0:0:0:0:
424,168,40845,1,8,0:0:0:0:
320,160,41160,1,0,0:0:0:0:
320,160,41318,1,0,0:0:0:0:
324,160,41476,1,0,0:0:0:0:
324,160,41634,1,0,0:0:0:0:
404,164,41792,1,8,0:0:0:0:
344,176,42108,1,0,0:0:0:0:
344,176,42266,1,0,0:0:0:0:
376,156,42423,1,8,0:0:0:0:
384,184,42581,1,8,0:0:0:0:
247,117,42897,1,0,0:0:0:0:
388,163,43055,5,12,0:0:0:0:
388,163,43213,1,12,0:0:0:0:
344,144,43687,1,8,0:0:0:0:
344,144,43845,1,8,0:0:0:0:
380,164,44002,1,0,0:0:0:0:
432,160,44160,1,8,0:0:0:0:
400,172,44318,1,0,0:0:0:0:
400,172,44476,1,0,0:0:0:0:
416,156,44792,1,8,0:0:0:0:
433,142,44950,1,0,0:0:0:0:
436,180,45108,1,8,0:0:0:0:
396,180,45266,1,0,0:0:0:0:
392,176,45423,1,8,0:0:0:0:
342,136,45739,1,0,0:0:0:0:
380,156,45897,1,8,0:0:0:0:
92,148,46055,5,0,0:0:0:0:
92,148,46687,1,0,0:0:0:0:
92,148,47318,1,0,0:0:0:0:
92,148,47476,1,0,0:0:0:0:
92,148,47555,1,0,0:0:0:0:
92,148,47634,1,0,0:0:0:0:
92,148,47950,1,0,0:0:0:0:
220,168,48266,1,12,0:0:0:0:
328,152,48581,1,0,0:0:0:0:
308,172,48897,1,8,0:0:0:0:
368,168,49055,1,0,0:0:0:0:
360,168,49371,1,0,0:0:0:0:
368,168,49529,1,8,0:0:0:0:
372,188,49845,1,0,0:0:0:0:
376,184,50002,1,0,0:0:0:0:
388,184,50160,1,8,0:0:0:0:
384,176,50318,1,0,0:0:0:0:
384,176,50634,1,0,0:0:0:0:
384,152,50792,1,8,0:0:0:0:
344,176,51108,1,0,0:0:0:0:
376,164,51423,1,8,0:0:0:0:
352,172,51581,1,0,0:0:0:0:
352,172,51897,1,0,0:0:0:0:
376,168,52055,1,8,0:0:0:0:
376,168,52213,1,8,0:0:0:0:
344,144,52371,1,0,0:0:0:0:
372,148,52687,1,8,0:0:0:0:
396,160,53002,1,0,0:0:0:0:
376,152,53318,1,8,0:0:0:0:
332,180,53634,1,0,0:0:0:0:
332,180,53792,1,0,0:0:0:0:
344,160,53950,1,8,0:0:0:0:
360,160,54108,1,0,0:0:0:0:
336,152,54423,1,0,0:0:0:0:
396,160,54581,1,8,0:0:0:0:
400,160,54739,1,8,0:0:0:0:
416,160,54897,1,0,0:0:0:0:
424,160,55213,1,8,0:0:0:0:
436,156,55371,1,0,0:0:0:0:
412,160,55687,1,0,0:0:0:0:
424,160,55845,1,8,0:0:0:0:
436,184,56160,1,0,0:0:0:0:
408,160,56476,1,8,0:0:0:0:
348,148,56792,1,0,0:0:0:0:
348,148,56950,1,0,0:0:0:0:
384,156,57108,1,8,0:0:0:0:
396,168,57423,1,8,0:0:0:0:
424,152,57739,1,0,0:0:0:0:
412,160,58055,1,8,0:0:0:0:
412,160,58213,1,8,0:0:0:0:
412,160,58371,1,8,0:0:0:0:
400,164,58529,1,0,0:0:0:0:
328,152,58687,1,0,0:0:0:0:
308,172,59002,1,8,0:0:0:0:
368,168,59160,1,0,0:0:0:0:
360,168,59476,1,0,0:0:0:0:
368,168,59634,1,8,0:0:0:0:
372,188,59950,1,0,0:0:0:0:
376,184,60108,1,0,0:0:0:0:
388,184,60266,1,8,0:0:0:0:
384,176,60423,1,0,0:0:0:0:
384,176,60739,1,0,0:0:0:0:
384,152,60897,1,8,0:0:0:0:
344,176,61213,1,0,0:0:0:0:
376,164,61529,1,8,0:0:0:0:
352,172,61687,1,0,0:0:0:0:
352,172,62002,1,0,0:0:0:0:
376,168,62160,1,8,0:0:0:0:
376,168,62318,1,8,0:0:0:0:
344,144,62476,1,0,0:0:0:0:
372,148,62792,1,8,0:0:0:0:
361,175,63108,1,0,0:0:0:0:
350,149,63423,1,8,0:0:0:0:
332,180,63739,1,0,0:0:0:0:
332,180,63897,1,0,0:0:0:0:
344,160,64055,1,8,0:0:0:0:
360,160,64213,1,0,0:0:0:0:
336,152,64529,1,0,0:0:0:0:
396,160,64687,1,8,0:0:0:0:
416,160,65002,1,0,0:0:0:0:
352,144,65160,1,8,0:0:0:0:
424,160,65476,1,0,0:0:0:0:
424,160,65792,1,8,0:0:0:0:
436,156,65950,1,0,0:0:0:0:
436,184,66266,1,0,0:0:0:0:
408,160,66581,1,8,0:0:0:0:
348,148,66897,1,0,0:0:0:0:
348,148,67055,1,0,0:0:0:0:
384,156,67213,1,8,0:0:0:0:
346,153,67529,1,8,0:0:0:0:
369,152,67845,1,0,0:0:0:0:
428,148,68160,1,8,0:0:0:0:
296,168,68792,1,0,0:0:0:0:
364,156,69108,1,0,0:0:0:0:
376,160,69266,1,8,0:0:0:0:
400,176,69423,1,0,0:0:0:0:
366,172,69739,1,8,0:0:0:0:
312,160,69897,1,0,0:0:0:0:
344,164,70213,1,0,0:0:0:0:
388,176,70371,1,8,0:0:0:0:
432,172,70687,1,0,0:0:0:0:
368,156,70845,1,12,0:0:0:0:
264,148,71002,1,12,0:0:0:0:
416,176,71318,1,0,0:0:0:0:
408,164,71634,1,8,0:0:0:0:
456,168,71950,1,0,0:0:0:0:
427,161,72108,5,0,0:0:0:0:
448,156,72266,1,8,0:0:0:0:
416,168,72423,1,0,0:0:0:0:
416,168,72739,1,0,0:0:0:0:
412,156,72897,1,8,0:0:0:0:
414,174,73213,1,0,0:0:0:0:
348,183,73371,1,12,0:0:0:0:
392,160,73529,1,12,0:0:0:0:
215,186,73845,1,0,0:0:0:0:
157,149,74002,1,0,0:0:0:0:
399,165,74160,1,8,0:0:0:0:
386,147,74318,1,0,0:0:0:0:
404,173,74476,1,8,0:0:0:0:
320,148,74792,1,8,0:0:0:0:
389,165,74950,1,0,0:0:0:0:
429,149,75266,1,0,0:0:0:0:
413,160,75423,1,8,0:0:0:0:
377,149,75581,1,0,0:0:0:0:
413,153,75739,1,0,0:0:0:0:
411,147,75897,1,12,0:0:0:0:
412,142,76055,1,12,0:0:0:0:
287,144,76371,1,0,0:0:0:0:
311,148,76687,1,8,0:0:0:0:
432,162,76845,1,0,0:0:0:0:
432,162,77002,1,0,0:0:0:0:
260,164,77318,1,8,0:0:0:0:
226,131,77634,1,0,0:0:0:0:
226,131,77792,1,0,0:0:0:0:
405,157,77950,1,8,0:0:0:0:
405,157,78266,1,8,0:0:0:0:
415,151,78581,1,0,0:0:0:0:
248,180,78897,5,8,0:0:0:0:
248,180,79529,1,8,0:0:0:0:
248,180,80002,1,8,0:0:0:0:
248,180,80160,1,8,0:0:0:0:
432,160,81108,1,0,0:0:0:0:
424,168,81423,1,8,0:0:0:0:
388,168,82055,1,8,0:0:0:0:
424,156,82687,1,0,0:0:0:0:
424,156,83634,1,0,0:0:0:0:
368,152,83950,1,8,0:0:0:0:
480,160,84897,1,0,0:0:0:0:
400,160,85213,1,8,0:0:0:0:
408,188,86160,1,8,0:0:0:0:
120,192,86476,2,0,L|180:184,14,35,0|0|0|0|0|0|0|0|0|0|0|0|0|0|0,0:0|0:0|0:0|0:0|0:0|0:0|0:0|0:0|0:0|0:0|0:0|0:0|0:0|0:0|0:0,0:0:0:0:
252,188,87739,1,0,0:0:0:0:
252,188,88055,1,0,0:0:0:0:
252,188,88371,1,0,0:0:0:0:
328,168,88687,1,12,0:0:0:0:
324,172,89002,1,0,0:0:0:0:
384,204,89318,1,8,0:0:0:0:
367,190,89476,1,0,0:0:0:0:
366,191,89792,1,0,0:0:0:0:
366,191,90108,1,0,0:0:0:0:
416,193,90423,1,0,0:0:0:0:
488,177,90581,1,8,0:0:0:0:
488,177,90739,1,8,0:0:0:0:
479,169,90897,1,0,0:0:0:0:
461,163,91055,1,8,0:0:0:0:
461,163,91213,1,8,0:0:0:0:
324,172,91529,1,0,0:0:0:0:
384,204,91845,1,8,0:0:0:0:
367,190,92002,1,0,0:0:0:0:
366,191,92318,1,0,0:0:0:0:
366,191,92634,1,0,0:0:0:0:
416,193,92950,1,0,0:0:0:0:
488,177,93108,1,8,0:0:0:0:
488,177,93266,1,8,0:0:0:0:
479,169,93423,1,0,0:0:0:0:
461,163,93581,1,0,0:0:0:0:
461,163,93739,1,8,0:0:0:0:
394,165,93897,1,8,0:0:0:0:
324,172,94055,1,0,0:0:0:0:
384,204,94371,1,8,0:0:0:0:
367,190,94529,1,0,0:0:0:0:
366,191,94845,1,0,0:0:0:0:
366,191,95160,1,0,0:0:0:0:
416,193,95476,1,0,0:0:0:0:
83,120,95634,1,0,0:0:0:0:
165,98,95792,1,0,0:0:0:0:
461,163,95950,1,8,0:0:0:0:
479,169,96108,1,0,0:0:0:0:
461,163,96266,1,8,0:0:0:0:
324,172,96581,1,0,0:0:0:0:
384,204,96897,1,8,0:0:0:0:
367,190,97055,1,0,0:0:0:0:
366,191,97371,1,0,0:0:0:0:
366,191,97687,1,8,0:0:0:0:
156,144,97845,1,0,0:0:0:0:
186,147,98160,1,0,0:0:0:0:
186,147,98476,1,0,0:0:0:0:
186,147,98792,1,0,0:0:0:0:
348,186,99108,1,0,0:0:0:0:
402,174,99423,1,8,0:0:0:0:
433,176,99581,1,0,0:0:0:0:
433,176,99897,1,0,0:0:0:0:
451,169,100055,1,0,0:0:0:0:
433,176,100213,1,0,0:0:0:0:
461,167,100529,1,8,0:0:0:0:
449,172,100845,1,0,0:0:0:0:
426,151,101160,1,0,0:0:0:0:
468,183,101318,1,8,0:0:0:0:
432,192,101476,1,0,0:0:0:0:
432,192,101634,1,0,0:0:0:0:
402,174,101950,1,8,0:0:0:0:
433,176,102108,1,0,0:0:0:0:
433,176,102423,1,0,0:0:0:0:
451,169,102581,1,0,0:0:0:0:
433,176,102739,1,8,0:0:0:0:
449,172,103055,5,0,0:0:0:0:
461,167,103371,1,8,0:0:0:0:
295,149,103529,1,0,0:0:0:0:
295,149,103687,1,0,0:0:0:0:
443,178,103845,1,8,0:0:0:0:
324,172,104160,5,0,0:0:0:0:
384,204,104476,1,8,0:0:0:0:
367,190,104634,1,0,0:0:0:0:
366,191,104950,1,0,0:0:0:0:
366,191,105266,1,0,0:0:0:0:
416,193,105581,5,0,0:0:0:0:
83,120,105739,1,0,0:0:0:0:
165,98,105897,1,0,0:0:0:0:
461,163,106055,1,8,0:0:0:0:
461,163,106213,1,8,0:0:0:0:
479,169,106371,1,0,0:0:0:0:
241,154,106687,5,0,0:0:0:0:
241,154,106845,1,0,0:0:0:0:
458,177,107002,1,8,0:0:0:0:
458,177,107160,1,8,0:0:0:0:
241,154,107318,5,0,0:0:0:0:
241,154,107476,1,0,0:0:0:0:
458,177,107634,1,8,0:0:0:0:
458,177,107792,1,8,0:0:0:0:
241,154,107950,5,0,0:0:0:0:
241,154,108108,1,0,0:0:0:0:
458,177,108266,1,8,0:0:0:0:
458,177,108423,1,8,0:0:0:0:
241,154,108581,5,0,0:0:0:0:
458,177,108739,1,8,0:0:0:0:
241,154,108897,1,0,0:0:0:0:
458,177,109055,1,8,0:0:0:0:
367,151,109213,5,4,0:0:0:0:
367,151,110318,1,4,0:0:0:0:
371,137,111108,1,12,0:0:0:0:
371,137,111423,1,12,0:0:0:0:
405,149,111739,1,4,0:0:0:0:
405,149,112845,1,4,0:0:0:0:
404,140,113634,1,12,0:0:0:0:
404,140,113950,1,12,0:0:0:0:
324,172,114266,1,0,0:0:0:0:
384,204,114581,1,8,0:0:0:0:
367,190,114739,1,0,0:0:0:0:
366,191,115055,1,0,0:0:0:0:
366,191,115371,1,0,0:0:0:0:
416,193,115687,1,0,0:0:0:0:
83,120,115845,1,0,0:0:0:0:
165,98,116002,1,0,0:0:0:0:
461,163,116160,1,8,0:0:0:0:
479,169,116318,1,0,0:0:0:0:
461,163,116476,1,8,0:0:0:0:
324,172,116792,1,0,0:0:0:0:
384,204,117108,1,8,0:0:0:0:
367,190,117266,1,0,0:0:0:0:
366,191,117581,1,0,0:0:0:0:
366,191,117897,1,8,0:0:0:0:
156,144,118055,1,0,0:0:0:0:
264,196,118213,1,0,0:0:0:0:
360,180,118371,1,8,0:0:0:0:
169,194,118687,1,0,0:0:0:0:
160,136,118845,1,0,0:0:0:0:
364,132,119002,1,8,0:0:0:0:
416,164,119160,1,0,0:0:0:0:
280,188,119476,1,0,0:0:0:0:
496,164,119634,1,8,0:0:0:0:
388,172,119792,1,0,0:0:0:0:
452,156,120108,1,8,0:0:0:0:
504,168,120266,1,0,0:0:0:0:
428,160,120423,1,8,0:0:0:0:
452,156,120739,1,8,0:0:0:0:
504,168,120897,1,0,0:0:0:0:
428,160,121055,1,8,0:0:0:0:
244,152,121371,1,0,0:0:0:0:
244,152,121529,1,0,0:0:0:0:
420,164,121687,1,8,0:0:0:0:
244,152,122002,1,0,0:0:0:0:
244,152,122160,1,0,0:0:0:0:
420,164,122318,1,8,0:0:0:0:
384,200,122634,1,8,0:0:0:0:
384,136,122950,1,8,0:0:0:0:
372,164,123108,1,0,0:0:0:0:
400,152,123266,1,0,0:0:0:0:
400,152,123423,1,0,0:0:0:0:
400,152,123581,1,0,0:0:0:0:
400,152,123739,1,0,0:0:0:0:
400,152,123897,1,0,0:0:0:0:
392,152,124055,1,12,0:0:0:0:
285,130,124371,1,0,0:0:0:0:
379,152,124687,1,8,0:0:0:0:
378,144,124845,1,0,0:0:0:0:
378,144,125160,1,0,0:0:0:0:
378,143,125476,1,0,0:0:0:0:
380,141,125792,5,0,0:0:0:0:
422,171,125950,1,8,0:0:0:0:
451,161,126108,1,0,0:0:0:0:
408,164,126266,1,8,0:0:0:0:
408,163,126423,1,8,0:0:0:0:
469,169,126581,1,0,0:0:0:0:
241,154,126897,5,0,0:0:0:0:
458,177,127055,1,8,0:0:0:0:
241,154,127213,1,0,0:0:0:0:
458,177,127371,1,8,0:0:0:0:
241,154,127529,5,0,0:0:0:0:
458,177,127687,1,8,0:0:0:0:
241,154,127845,1,0,0:0:0:0:
458,177,128002,1,8,0:0:0:0:
241,154,128160,5,0,0:0:0:0:
458,177,128318,5,8,0:0:0:0:
241,154,128476,1,0,0:0:0:0:
458,177,128634,1,8,0:0:0:0:
241,154,128792,5,0,0:0:0:0:
241,154,128950,1,0,0:0:0:0:
405,174,129108,1,8,0:0:0:0:
398,149,129266,1,8,0:0:0:0:
133,241,129423,5,0,0:0:0:0:
133,241,129739,1,0,0:0:0:0:
370,197,130055,1,8,0:0:0:0:
133,241,130687,1,0,0:0:0:0:
133,241,131002,1,0,0:0:0:0:
370,197,131318,1,8,0:0:0:0:
296,177,131950,1,0,0:0:0:0:
329,172,132266,1,8,0:0:0:0:
133,241,132581,1,0,0:0:0:0:
133,241,132897,1,0,0:0:0:0:
370,197,133213,1,8,0:0:0:0:
360,184,134476,1,4,0:0:0:0:
368,184,135739,1,4,0:0:0:0:
368,184,137002,1,4,0:0:0:0:
368,184,137318,1,4,0:0:0:0:
368,184,137634,1,4,0:0:0:0:
340,164,137950,1,12,0:0:0:0:
404,160,138266,1,8,0:0:0:0:
440,168,138581,1,0,0:0:0:0:
384,180,138739,1,8,0:0:0:0:
360,192,139055,1,0,0:0:0:0:
328,200,139213,1,8,0:0:0:0:
392,200,139371,1,0,0:0:0:0:
412,184,139529,1,8,0:0:0:0:
440,168,139845,1,0,0:0:0:0:
384,180,140002,1,8,0:0:0:0:
360,192,140318,1,0,0:0:0:0:
328,200,140476,1,8,0:0:0:0:
392,200,140634,1,0,0:0:0:0:
412,184,140792,1,8,0:0:0:0:
440,168,141108,1,0,0:0:0:0:
384,180,141266,1,8,0:0:0:0:
360,192,141581,1,0,0:0:0:0:
328,200,141739,1,8,0:0:0:0:
392,200,141897,1,0,0:0:0:0:
372,212,142371,1,12,0:0:0:0:
404,188,142687,1,4,0:0:0:0:
360,184,143318,1,4,0:0:0:0:
368,184,144581,1,12,0:0:0:0:
368,184,145845,1,4,0:0:0:0:
368,184,146160,1,4,0:0:0:0:
368,184,146476,1,4,0:0:0:0:
340,164,146792,1,12,0:0:0:0:
332,160,147108,1,8,0:0:0:0:
384,168,147266,1,0,0:0:0:0:
368,168,147423,1,0,0:0:0:0:
376,168,147581,1,8,0:0:0:0:
384,168,147897,1,0,0:0:0:0:
420,160,148055,1,8,0:0:0:0:
368,160,148213,1,0,0:0:0:0:
332,160,148371,1,8,0:0:0:0:
384,168,148529,1,0,0:0:0:0:
368,168,148687,1,0,0:0:0:0:
376,168,148845,1,8,0:0:0:0:
320,184,149160,1,0,0:0:0:0:
384,184,149318,1,8,0:0:0:0:
444,164,149476,1,0,0:0:0:0:
332,160,149634,1,8,0:0:0:0:
384,168,149792,1,0,0:0:0:0:
224,176,149871,1,0,0:0:0:0:
368,168,149950,1,0,0:0:0:0:
376,168,150108,1,8,0:0:0:0:
288,160,150423,1,0,0:0:0:0:
392,160,150581,1,8,0:0:0:0:
356,160,150739,1,0,0:0:0:0:
260,196,151213,1,12,0:0:0:0:
260,196,151529,1,4,0:0:0:0:
280,192,152160,1,0,0:0:0:0:
412,184,152476,1,8,0:0:0:0:
344,180,152634,1,0,0:0:0:0:
344,172,152950,1,0,0:0:0:0:
344,172,153108,1,0,0:0:0:0:
392,168,153266,1,8,0:0:0:0:
396,176,153423,1,0,0:0:0:0:
376,164,153739,1,8,0:0:0:0:
376,168,153897,1,0,0:0:0:0:
376,168,154213,1,0,0:0:0:0:
404,160,154371,1,8,0:0:0:0:
392,168,154687,1,0,0:0:0:0:
396,156,155002,1,8,0:0:0:0:
388,156,155160,1,0,0:0:0:0:
388,152,155476,1,0,0:0:0:0:
360,168,155634,1,8,0:0:0:0:
392,156,155950,1,0,0:0:0:0:
380,164,156266,1,8,0:0:0:0:
424,152,156581,1,0,0:0:0:0:
416,152,156739,1,0,0:0:0:0:
404,148,156897,1,8,0:0:0:0:
404,144,157055,1,8,0:0:0:0:
424,160,157213,1,0,0:0:0:0:
444,152,157529,1,8,0:0:0:0:
408,192,157687,1,0,0:0:0:0:
408,192,158002,1,0,0:0:0:0:
408,184,158160,1,8,0:0:0:0:
436,176,158476,1,0,0:0:0:0:
436,176,158634,1,0,0:0:0:0:
468,160,158792,1,8,0:0:0:0:
448,176,158950,1,0,0:0:0:0:
448,176,159266,1,0,0:0:0:0:
400,172,159423,1,8,0:0:0:0:
112,176,159739,6,4,L|152:172,12,35,4|4|4|4|4|4|4|4|4|4|4|4|4,0:0|0:0|0:0|0:0|0:0|0:0|0:0|0:0|0:0|0:0|0:0|0:0|0:0,0:0:0:0:
276,176,161002,5,0,0:0:0:0:
276,176,161318,1,0,0:0:0:0:
276,176,161634,1,0,0:0:0:0:
260,192,161950,1,12,0:0:0:0:
324,172,162266,1,0,0:0:0:0:
384,204,162581,1,8,0:0:0:0:
367,190,162739,1,0,0:0:0:0:
366,191,163055,1,0,0:0:0:0:
186,172,163213,1,0,0:0:0:0:
366,191,163371,1,8,0:0:0:0:
416,193,163687,1,0,0:0:0:0:
488,177,163845,1,8,0:0:0:0:
488,177,164002,1,8,0:0:0:0:
479,169,164160,1,0,0:0:0:0:
461,163,164476,1,8,0:0:0:0:
324,172,164792,1,0,0:0:0:0:
384,204,165108,1,8,0:0:0:0:
367,190,165266,1,0,0:0:0:0:
366,191,165581,1,0,0:0:0:0:
300,153,165739,1,0,0:0:0:0:
461,163,165897,1,8,0:0:0:0:
416,193,166213,1,0,0:0:0:0:
488,177,166371,1,8,0:0:0:0:
488,177,166529,1,8,0:0:0:0:
479,169,166687,1,0,0:0:0:0:
461,163,166845,1,0,0:0:0:0:
461,163,167002,1,8,0:0:0:0:
324,172,167318,1,0,0:0:0:0:
384,204,167634,1,8,0:0:0:0:
367,190,167792,1,0,0:0:0:0:
366,191,168108,1,0,0:0:0:0:
349,142,168266,1,0,0:0:0:0:
366,191,168423,1,8,0:0:0:0:
416,193,168739,1,0,0:0:0:0:
83,120,168897,1,8,0:0:0:0:
165,98,169055,1,0,0:0:0:0:
461,163,169213,1,8,0:0:0:0:
461,163,169529,1,8,0:0:0:0:
324,172,169845,1,0,0:0:0:0:
384,204,170160,1,8,0:0:0:0:
367,190,170318,1,0,0:0:0:0:
366,191,170634,1,0,0:0:0:0:
366,191,170950,1,8,0:0:0:0:
156,144,171108,1,0,0:0:0:0:
186,147,171423,1,8,0:0:0:0:
186,147,171739,1,0,0:0:0:0:
273,153,171897,1,0,0:0:0:0:
186,147,172055,1,8,0:0:0:0:
348,186,172371,1,0,0:0:0:0:
402,174,172687,1,8,0:0:0:0:
433,176,172845,1,0,0:0:0:0:
433,176,173160,1,0,0:0:0:0:
451,169,173318,1,0,0:0:0:0:
433,176,173476,1,8,0:0:0:0:
461,167,173792,1,8,0:0:0:0:
333,152,173950,1,8,0:0:0:0:
449,172,174108,1,0,0:0:0:0:
426,151,174423,1,0,0:0:0:0:
468,183,174581,1,8,0:0:0:0:
432,192,174897,1,0,0:0:0:0:
402,174,175213,1,8,0:0:0:0:
433,176,175371,1,0,0:0:0:0:
433,176,175687,1,0,0:0:0:0:
433,176,175845,1,8,0:0:0:0:
451,169,176002,1,0,0:0:0:0:
447,159,176318,1,8,0:0:0:0:
449,172,176476,5,0,0:0:0:0:
461,167,176634,1,8,0:0:0:0:
295,149,176950,1,0,0:0:0:0:
443,178,177108,1,8,0:0:0:0:
324,172,177423,5,0,0:0:0:0:
384,204,177739,1,8,0:0:0:0:
367,190,177897,1,0,0:0:0:0:
366,191,178213,1,0,0:0:0:0:
423,209,178371,5,0,0:0:0:0:
366,191,178529,1,0,0:0:0:0:
416,193,178845,5,0,0:0:0:0:
83,120,179002,1,0,0:0:0:0:
165,98,179160,1,0,0:0:0:0:
461,163,179318,1,8,0:0:0:0:
479,169,179634,1,0,0:0:0:0:
241,154,179950,5,0,0:0:0:0:
241,154,180108,1,0,0:0:0:0:
458,177,180266,1,8,0:0:0:0:
458,177,180423,1,8,0:0:0:0:
241,154,180581,5,0,0:0:0:0:
241,154,180739,1,0,0:0:0:0:
458,177,180897,1,8,0:0:0:0:
458,177,181055,1,8,0:0:0:0:
241,154,181213,5,0,0:0:0:0:
241,154,181371,5,0,0:0:0:0:
458,177,181529,1,8,0:0:0:0:
458,177,181687,1,8,0:0:0:0:
241,154,181845,5,0,0:0:0:0:
405,174,182002,1,8,0:0:0:0:
241,154,182160,1,0,0:0:0:0:
398,149,182318,1,8,0:0:0:0:
367,151,182476,5,4,0:0:0:0:
367,151,183581,1,4,0:0:0:0:
371,137,184371,1,12,0:0:0:0:
371,137,184687,1,12,0:0:0:0:
405,149,185002,1,4,0:0:0:0:
405,149,186108,1,4,0:0:0:0:
404,140,186897,1,12,0:0:0:0:
404,140,187213,1,12,0:0:0:0:
324,172,187529,1,0,0:0:0:0:
384,204,187845,1,8,0:0:0:0:
367,190,188002,1,0,0:0:0:0:
366,191,188318,1,0,0:0:0:0:
333,146,188476,1,0,0:0:0:0:
366,191,188634,1,0,0:0:0:0:
416,193,188950,1,0,0:0:0:0:
83,120,189108,1,0,0:0:0:0:
165,98,189266,1,0,0:0:0:0:
461,163,189423,1,8,0:0:0:0:
461,163,189739,1,8,0:0:0:0:
324,172,190055,1,0,0:0:0:0:
384,204,190371,1,8,0:0:0:0:
367,190,190529,1,0,0:0:0:0:
366,191,190845,1,0,0:0:0:0:
366,191,191160,1,8,0:0:0:0:
156,144,191318,1,0,0:0:0:0:
237,161,191476,1,0,0:0:0:0:
364,132,191634,1,8,0:0:0:0:
170,155,191950,1,0,0:0:0:0:
160,136,192108,1,0,0:0:0:0:
366,163,192266,1,8,0:0:0:0:
416,164,192423,1,0,0:0:0:0:
280,188,192739,1,0,0:0:0:0:
496,164,192897,1,8,0:0:0:0:
388,172,193055,1,0,0:0:0:0:
452,156,193371,1,8,0:0:0:0:
504,168,193529,1,0,0:0:0:0:
428,160,193687,1,8,0:0:0:0:
452,156,194002,1,8,0:0:0:0:
504,168,194160,1,0,0:0:0:0:
428,160,194318,1,8,0:0:0:0:
244,152,194634,1,0,0:0:0:0:
244,152,194792,1,0,0:0:0:0:
420,164,194950,1,8,0:0:0:0:
244,152,195266,1,0,0:0:0:0:
244,152,195423,1,0,0:0:0:0:
420,164,195581,1,8,0:0:0:0:
384,200,195897,1,0,0:0:0:0:
384,136,196213,1,8,0:0:0:0:
372,164,196371,1,0,0:0:0:0:
400,152,196529,1,0,0:0:0:0:
400,152,196687,1,0,0:0:0:0:
400,152,196845,1,0,0:0:0:0:
400,152,197002,1,0,0:0:0:0:
400,152,197160,1,0,0:0:0:0:
392,152,197318,1,12,0:0:0:0:
324,172,197634,5,0,0:0:0:0:
384,204,197950,1,8,0:0:0:0:
367,190,198108,1,0,0:0:0:0:
366,191,198423,1,0,0:0:0:0:
423,209,198581,5,0,0:0:0:0:
366,191,198739,1,0,0:0:0:0:
416,193,199055,5,0,0:0:0:0:
83,120,199213,1,0,0:0:0:0:
165,98,199371,1,0,0:0:0:0:
461,163,199529,1,8,0:0:0:0:
442,176,199687,1,8,0:0:0:0:
479,169,199845,1,0,0:0:0:0:
241,154,200160,5,0,0:0:0:0:
458,177,200318,1,8,0:0:0:0:
241,154,200476,1,0,0:0:0:0:
458,177,200634,1,8,0:0:0:0:
241,154,200792,5,0,0:0:0:0:
458,177,200950,1,8,0:0:0:0:
241,154,201108,1,0,0:0:0:0:
458,177,201266,1,8,0:0:0:0:
241,154,201423,5,0,0:0:0:0:
458,177,201581,1,8,0:0:0:0:
241,154,201739,1,0,0:0:0:0:
458,177,201897,1,8,0:0:0:0:
241,154,202055,5,0,0:0:0:0:
92,158,202134,1,0,0:0:0:0:
241,154,202213,1,0,0:0:0:0:
405,174,202371,1,8,0:0:0:0:
382,154,202450,1,8,0:0:0:0:
398,149,202529,1,8,0:0:0:0:
