osu file format v13

[General]
AudioFilename: momoiro clover z- santa san .mp3
AudioLeadIn: 0
PreviewTime: 89002
Countdown: 0
SampleSet: Normal
StackLeniency: 0.7
Mode: 1
LetterboxInBreaks: 0
WidescreenStoryboard: 0

[Editor]
DistanceSpacing: 1
BeatDivisor: 4
GridSize: 4
TimelineZoom: 1

[Metadata]
Title:Santa-san
TitleUnicode:サンタさん
Artist:Momoiro Clover Z
ArtistUnicode:ももいろクローバーZ
Creator:cdhsausageboy
Version:Kantan
Source:
Tags:Christmas 労働讃歌 Rōdō Rodo Sanka Hymn to Labor 5th Fifth Dimension
BeatmapID:532973
BeatmapSetID:228965

[Difficulty]
HPDrainRate:5
CircleSize:5
OverallDifficulty:5
ApproachRate:5
SliderMultiplier:1.4
SliderTickRate:1

[Events]
//Background and Video events
0,0,"Anime-HD-Wallpaper-2014-Wallpaper-88.jpg",0,0
//Break Periods
2,159939,161066
//Storyboard Layer 0 (Background)
//Storyboard Layer 1 (Fail)
//Storyboard Layer 2 (Pass)
//Storyboard Layer 3 (Foreground)
//Storyboard Sound Samples
//Background Colour Transformations
3,100,163,162,255

[TimingPoints]
1845,315.789473684211,4,1,0,60,1,0
48581,-100,4,1,0,80,0,1
68792,-100,4,1,0,60,0,0
89002,-100,4,1,0,90,0,1
109213,-100,4,1,0,90,0,0
110318,-100,4,1,0,90,0,1
110476,-100,4,1,0,90,0,0
111108,-100,4,1,0,90,0,1
111739,-100,4,1,0,90,0,0
112845,-100,4,1,0,90,0,1
113002,-100,4,1,0,90,0,0
114266,-100,4,1,0,90,0,1
119318,-100,4,1,0,90,0,0
124371,-100,4,1,0,90,0,1
129423,-100,4,1,0,90,0,0
162266,-100,4,1,0,90,0,1
182476,-100,4,1,0,90,0,0
183581,-100,4,1,0,90,0,1
183739,-100,4,1,0,90,0,0
184371,-100,4,1,0,90,0,1
185002,-100,4,1,0,90,0,0
186108,-100,4,1,0,90,0,1
186266,-100,4,1,0,90,0,0
187529,-100,4,1,0,90,0,1
192581,-100,4,1,0,90,0,0
197634,-100,4,1,0,90,0,1
202687,-100,4,1,0,90,0,0

[HitObjects]
220,176,1845,5,0,0:0:0:0:
220,152,3108,1,0,0:0:0:0:
248,116,4371,1,0,0:0:0:0:
248,116,5002,1,0,0:0:0:0:
240,120,5634,1,0,0:0:0:0:
260,196,6897,1,8,0:0:0:0:
260,196,8160,1,8,0:0:0:0:
248,168,9423,1,8,0:0:0:0:
248,168,10055,1,8,0:0:0:0:
248,160,10687,1,8,0:0:0:0:
328,164,11950,1,0,0:0:0:0:
292,144,13213,1,8,0:0:0:0:
300,156,14476,1,0,0:0:0:0:
236,196,18266,1,0,0:0:0:0:
236,196,18581,1,0,0:0:0:0:
236,188,18897,1,0,0:0:0:0:
236,188,19529,1,0,0:0:0:0:
236,188,19845,1,0,0:0:0:0:
236,188,20160,1,0,0:0:0:0:
236,188,20792,1,0,0:0:0:0:
236,188,21423,1,0,0:0:0:0:
236,188,22055,1,0,0:0:0:0:
272,168,23318,1,8,0:0:0:0:
272,168,23634,1,8,0:0:0:0:
272,168,23950,1,8,0:0:0:0:
272,168,24581,1,8,0:0:0:0:
272,168,24897,1,8,0:0:0:0:
272,168,25213,1,8,0:0:0:0:
272,168,25845,1,8,0:0:0:0:
272,168,26476,1,8,0:0:0:0:
272,168,27108,1,8,0:0:0:0:
144,168,28371,1,0,0:0:0:0:
224,160,29002,1,0,0:0:0:0:
408,168,29634,1,8,0:0:0:0:
272,160,30897,1,8,0:0:0:0:
288,140,31529,1,8,0:0:0:0:
264,128,32160,1,0,0:0:0:0:
312,136,33423,1,0,0:0:0:0:
356,160,34055,1,8,0:0:0:0:
352,144,34687,1,0,0:0:0:0:
380,148,35950,1,8,0:0:0:0:
360,144,36581,1,0,0:0:0:0:
376,152,37213,1,8,0:0:0:0:
440,160,37845,1,8,0:0:0:0:
444,152,38160,1,8,0:0:0:0:
404,136,38476,1,0,0:0:0:0:
316,144,39739,1,0,0:0:0:0:
316,144,40687,1,0,0:0:0:0:
316,144,41002,1,0,0:0:0:0:
336,200,42266,1,0,0:0:0:0:
344,160,42897,1,8,0:0:0:0:
368,184,43213,1,8,0:0:0:0:
376,180,43529,1,0,0:0:0:0:
316,208,44792,1,0,0:0:0:0:
316,208,45739,1,0,0:0:0:0:
316,208,46055,1,0,0:0:0:0:
316,208,46687,1,0,0:0:0:0:
304,156,47318,1,0,0:0:0:0:
304,156,47634,1,0,0:0:0:0:
304,156,47950,1,0,0:0:0:0:
364,200,48581,1,0,0:0:0:0:
372,192,48897,1,0,0:0:0:0:
372,192,49213,1,0,0:0:0:0:
332,168,49845,1,0,0:0:0:0:
332,168,50160,1,0,0:0:0:0:
332,168,50476,1,0,0:0:0:0:
332,168,51108,1,0,0:0:0:0:
332,168,51739,1,0,0:0:0:0:
332,168,52371,5,0,0:0:0:0:
216,180,53634,5,0,0:0:0:0:
372,188,54266,1,8,0:0:0:0:
344,176,54897,1,0,0:0:0:0:
292,188,56160,1,0,0:0:0:0:
308,176,56792,1,8,0:0:0:0:
308,176,57423,1,8,0:0:0:0:
308,176,58055,1,8,0:0:0:0:
364,200,58687,1,0,0:0:0:0:
372,192,59003,1,0,0:0:0:0:
372,192,59319,1,0,0:0:0:0:
332,168,59951,1,0,0:0:0:0:
332,168,60266,1,0,0:0:0:0:
332,168,60582,1,0,0:0:0:0:
332,168,61214,1,0,0:0:0:0:
332,168,61845,1,0,0:0:0:0:
332,168,62477,5,0,0:0:0:0:
256,156,63739,1,0,0:0:0:0:
256,156,64371,1,0,0:0:0:0:
320,148,65002,1,8,0:0:0:0:
324,160,66266,1,8,0:0:0:0:
324,160,66897,1,8,0:0:0:0:
392,168,67529,1,0,0:0:0:0:
332,160,67845,1,0,0:0:0:0:
332,160,68160,1,0,0:0:0:0:
288,156,68792,1,0,0:0:0:0:
288,104,69423,1,0,0:0:0:0:
352,128,70055,1,8,0:0:0:0:
360,124,71318,1,0,0:0:0:0:
412,148,71950,1,8,0:0:0:0:
392,152,72581,1,0,0:0:0:0:
376,112,73845,1,8,0:0:0:0:
424,144,74476,1,0,0:0:0:0:
424,144,75108,1,0,0:0:0:0:
440,144,76371,1,0,0:0:0:0:
352,152,77634,1,8,0:0:0:0:
356,148,77950,1,8,0:0:0:0:
356,148,78266,1,8,0:0:0:0:
352,136,78897,1,8,0:0:0:0:
352,136,81423,1,8,0:0:0:0:
352,136,83950,1,8,0:0:0:0:
352,136,85213,1,8,0:0:0:0:
96,168,86476,2,0,L|156:172,16,35,0|0|0|0|0|0|0|0|0|0|0|0|0|0|0|0|0,0:0|0:0|0:0|0:0|0:0|0:0|0:0|0:0|0:0|0:0|0:0|0:0|0:0|0:0|0:0|0:0|0:0,0:0:0:0:
180,164,89002,1,0,0:0:0:0:
196,164,89634,1,0,0:0:0:0:
196,164,90266,1,0,0:0:0:0:
344,172,90897,1,8,0:0:0:0:
344,172,91213,1,8,0:0:0:0:
288,160,91529,1,0,0:0:0:0:
304,180,92160,1,0,0:0:0:0:
304,176,92792,1,0,0:0:0:0:
288,160,93423,1,8,0:0:0:0:
288,160,93739,1,8,0:0:0:0:
364,156,94055,1,0,0:0:0:0:
364,156,94687,1,0,0:0:0:0:
328,156,95318,1,8,0:0:0:0:
336,152,95950,1,8,0:0:0:0:
388,172,96581,1,0,0:0:0:0:
396,168,97845,1,8,0:0:0:0:
280,148,99108,1,0,0:0:0:0:
368,160,99739,1,0,0:0:0:0:
376,160,100371,1,8,0:0:0:0:
316,172,101634,1,8,0:0:0:0:
312,176,102266,1,8,0:0:0:0:
360,164,102897,1,0,0:0:0:0:
268,144,104160,1,0,0:0:0:0:
268,144,104792,1,0,0:0:0:0:
268,144,105423,1,0,0:0:0:0:
436,152,106055,1,8,0:0:0:0:
256,192,106687,12,0,107950,0:0:0:0:
388,164,109213,5,0,0:0:0:0:
388,164,110318,1,0,0:0:0:0:
376,144,111108,1,0,0:0:0:0:
376,144,111423,1,0,0:0:0:0:
424,160,111739,1,8,0:0:0:0:
424,160,112845,1,8,0:0:0:0:
424,160,113634,1,8,0:0:0:0:
424,160,113950,1,8,0:0:0:0:
432,168,114266,1,0,0:0:0:0:
280,224,114897,1,0,0:0:0:0:
280,224,115529,1,0,0:0:0:0:
300,192,116160,1,0,0:0:0:0:
300,192,116476,1,0,0:0:0:0:
296,184,116792,1,8,0:0:0:0:
296,184,117423,1,8,0:0:0:0:
292,176,118055,1,8,0:0:0:0:
344,168,119318,1,0,0:0:0:0:
216,176,119634,1,0,0:0:0:0:
408,164,120897,1,0,0:0:0:0:
348,160,122160,1,8,0:0:0:0:
312,148,123108,1,0,0:0:0:0:
312,148,123739,1,0,0:0:0:0:
212,160,124371,1,0,0:0:0:0:
212,160,125002,1,0,0:0:0:0:
212,160,125634,1,0,0:0:0:0:
360,196,126266,1,8,0:0:0:0:
376,208,126581,1,8,0:0:0:0:
304,200,126897,1,0,0:0:0:0:
376,168,127529,1,8,0:0:0:0:
432,176,128160,5,0,0:0:0:0:
424,184,128792,1,8,0:0:0:0:
212,184,129423,5,0,0:0:0:0:
220,176,130687,1,0,0:0:0:0:
232,148,131950,1,0,0:0:0:0:
280,152,133213,1,0,0:0:0:0:
372,160,134476,1,4,0:0:0:0:
384,152,135739,1,4,0:0:0:0:
384,152,137002,1,4,0:0:0:0:
384,152,137634,1,4,0:0:0:0:
304,148,138266,1,0,0:0:0:0:
304,156,138897,1,8,0:0:0:0:
304,148,139529,1,0,0:0:0:0:
304,156,140160,1,8,0:0:0:0:
304,148,140792,1,0,0:0:0:0:
304,156,141423,1,8,0:0:0:0:
200,160,142055,1,0,0:0:0:0:
344,152,142371,1,8,0:0:0:0:
324,144,142687,1,0,0:0:0:0:
372,160,143318,1,4,0:0:0:0:
384,152,144581,1,12,0:0:0:0:
384,152,145844,1,4,0:0:0:0:
384,152,146476,1,12,0:0:0:0:
304,148,147108,1,8,0:0:0:0:
304,156,147739,1,8,0:0:0:0:
304,148,148371,1,8,0:0:0:0:
304,156,149002,1,8,0:0:0:0:
304,148,149634,1,8,0:0:0:0:
304,156,150265,1,8,0:0:0:0:
200,160,150897,1,0,0:0:0:0:
344,152,151213,1,8,0:0:0:0:
324,144,151529,1,8,0:0:0:0:
272,168,152160,1,0,0:0:0:0:
344,204,152792,1,8,0:0:0:0:
392,184,153423,1,8,0:0:0:0:
424,172,154687,1,0,0:0:0:0:
468,172,155318,1,8,0:0:0:0:
440,160,155950,1,0,0:0:0:0:
392,196,157213,1,0,0:0:0:0:
312,152,158476,1,0,0:0:0:0:
396,160,159739,1,8,0:0:0:0:
180,164,162266,5,0,0:0:0:0:
196,164,162898,1,0,0:0:0:0:
196,164,163530,1,0,0:0:0:0:
344,172,164161,1,8,0:0:0:0:
344,172,164477,1,8,0:0:0:0:
288,160,164793,1,0,0:0:0:0:
304,180,165424,1,0,0:0:0:0:
304,176,166056,1,0,0:0:0:0:
288,160,166687,1,8,0:0:0:0:
288,160,167003,1,8,0:0:0:0:
364,156,167319,1,0,0:0:0:0:
364,156,167951,1,0,0:0:0:0:
328,156,168582,1,8,0:0:0:0:
336,152,169214,1,8,0:0:0:0:
388,172,169845,1,0,0:0:0:0:
396,168,171109,1,8,0:0:0:0:
280,148,172372,1,0,0:0:0:0:
368,160,173003,1,0,0:0:0:0:
376,160,173635,1,8,0:0:0:0:
316,172,174898,1,8,0:0:0:0:
312,176,175530,1,8,0:0:0:0:
360,164,176161,1,0,0:0:0:0:
268,144,177424,1,0,0:0:0:0:
268,144,178056,1,0,0:0:0:0:
268,144,178687,1,0,0:0:0:0:
436,152,179319,1,8,0:0:0:0:
256,192,179951,12,0,181214,0:0:0:0:
388,164,182477,5,0,0:0:0:0:
388,164,183582,1,0,0:0:0:0:
376,144,184372,1,0,0:0:0:0:
376,144,184687,1,0,0:0:0:0:
424,160,185003,1,8,0:0:0:0:
424,160,186109,1,8,0:0:0:0:
424,160,186898,1,8,0:0:0:0:
424,160,187214,1,8,0:0:0:0:
432,168,187530,1,0,0:0:0:0:
280,224,188161,1,0,0:0:0:0:
280,224,188793,1,0,0:0:0:0:
300,192,189424,1,0,0:0:0:0:
300,192,189740,1,0,0:0:0:0:
296,184,190056,1,8,0:0:0:0:
296,184,190687,1,8,0:0:0:0:
292,176,191319,1,8,0:0:0:0:
344,168,192582,1,0,0:0:0:0:
216,176,192898,1,0,0:0:0:0:
408,164,194161,1,0,0:0:0:0:
348,160,195424,1,8,0:0:0:0:
312,148,196372,1,8,0:0:0:0:
336,192,196687,1,8,0:0:0:0:
312,148,197003,1,0,0:0:0:0:
212,160,197635,1,0,0:0:0:0:
212,160,198266,1,0,0:0:0:0:
212,160,198898,1,0,0:0:0:0:
360,196,199530,1,8,0:0:0:0:
376,208,199845,1,8,0:0:0:0:
304,200,200161,1,0,0:0:0:0:
376,168,200793,1,8,0:0:0:0:
432,176,201424,5,0,0:0:0:0:
424,184,202056,1,8,0:0:0:0:
