osu file format v12

[General]
AudioFilename: momoiro clover z- santa san .mp3
AudioLeadIn: 0
PreviewTime: 160888
Countdown: 0
SampleSet: Normal
StackLeniency: 0.7
Mode: 0
LetterboxInBreaks: 0
WidescreenStoryboard: 1

[Editor]
DistanceSpacing: 1
BeatDivisor: 4
GridSize: 4

[Metadata]
Title:Santa-san
TitleUnicode:サンタさん
Artist:Momoiro Clover Z
ArtistUnicode:ももいろクローバーZ
Creator:- N a n a k a -
Version:Normal
Source:
Tags:Christmas Nanaka PAN Momoclo Takagi Reni Momota Kanako Ariyasu Momoka Tamai Shiori Sasaki Ayaka
BeatmapID:327880
BeatmapSetID:128848

[Difficulty]
HPDrainRate:3
CircleSize:3
OverallDifficulty:4
ApproachRate:5
SliderMultiplier:0.9
SliderTickRate:1

[Events]
//Background and Video events
0,0,"BG.jpg",0,0
//Break Periods
2,38676,47381
2,79096,85276
2,134476,137066
2,142886,145908
//Storyboard Layer 0 (Background)
//Storyboard Layer 1 (Fail)
//Storyboard Layer 2 (Pass)
//Storyboard Layer 3 (Foreground)
//Storyboard Sound Samples
//Background Colour Transformations
3,100,163,162,255

[TimingPoints]
1845,315.789473684211,4,2,2,60,1,0
18266,-100,4,1,2,70,0,1
18345,-100,4,1,2,70,0,0
28371,-100,4,1,1,70,0,0
29002,-100,4,1,0,5,0,0
29318,-100,4,1,1,70,0,0
31529,-100,4,1,0,5,0,0
31845,-100,4,1,1,70,0,0
33108,-66.6666666666667,4,1,1,70,0,0
33423,-100,4,1,1,70,0,0
34055,-100,4,1,0,5,0,0
34371,-100,4,1,1,70,0,0
38160,-100,4,2,2,40,0,0
38318,-100,4,1,1,70,0,0
48581,-100,4,1,1,70,0,1
48739,-100,4,1,1,70,0,0
53002,-100,4,2,0,5,0,0
53318,-100,4,1,1,70,0,0
57739,-100,4,2,1,70,0,0
58055,-100,4,1,1,70,0,0
65634,-100,4,1,0,5,0,0
65950,-100,4,1,1,70,0,0
86476,-100,4,1,0,5,0,0
88371,-100,4,1,1,50,0,0
89002,-100,4,1,2,80,0,1
99029,-100,4,1,2,80,0,0
99108,-100,4,1,2,80,0,1
109134,-100,4,1,2,80,0,0
109213,-100,4,1,2,60,0,1
109292,-100,4,1,0,5,0,0
110318,-100,4,1,2,60,0,0
111739,-100,4,1,2,60,0,1
111897,-100,4,1,0,5,0,0
112845,-100,4,1,2,60,0,0
113950,-100,4,2,2,60,0,0
114266,-100,4,1,2,80,0,1
119160,-100,4,1,2,80,0,0
119634,-100,4,1,2,80,0,1
119713,-100,4,1,2,80,0,0
124371,-100,4,1,2,80,0,1
129423,-200,4,2,1,60,0,0
129739,-200,4,2,0,5,0,0
130055,-200,4,2,1,60,0,0
131002,-200,4,2,0,5,0,0
131318,-200,4,2,1,60,0,0
132266,-200,4,2,0,5,0,0
132581,-200,4,2,1,60,0,0
133213,-200,4,2,1,60,0,0
133529,-200,4,2,0,5,0,0
133845,-100,4,2,2,10,0,0
138266,-100,4,1,1,60,0,1
138423,-100,4,1,1,60,0,0
138897,-100,4,1,0,5,0,0
139213,-100,4,1,1,60,0,0
140160,-100,4,1,0,5,0,0
140476,-100,4,1,1,60,0,0
141423,-100,4,1,0,5,0,0
141739,-100,4,1,1,60,0,0
147108,-100,4,1,1,60,0,1
147266,-100,4,1,1,60,0,0
147739,-100,4,1,0,5,0,0
148055,-100,4,1,1,60,0,0
149002,-100,4,1,0,5,0,0
149318,-100,4,1,1,60,0,0
150266,-100,4,1,0,5,0,0
150581,-100,4,1,1,60,0,0
152160,-100,4,1,1,60,0,1
152318,-100,4,1,1,60,0,0
159739,-100,4,1,1,5,0,0
161634,-100,4,1,1,60,0,0
162266,-100,4,1,2,80,0,1
172292,-100,4,1,2,80,0,0
172371,-100,4,1,2,80,0,1
182397,-100,4,1,2,80,0,0
182476,-100,4,1,2,80,0,1
182555,-100,4,1,0,5,0,0
183581,-100,4,1,2,60,0,0
185002,-100,4,1,2,60,0,1
185160,-100,4,1,0,5,0,0
186108,-100,4,1,2,60,0,0
187213,-100,4,2,2,60,0,0
187529,-100,4,1,2,80,0,1
192502,-200,4,1,2,5,0,0
192897,-100,4,1,2,80,0,1
192976,-100,4,1,2,80,0,0
193213,-100,4,1,0,5,0,0
193529,-100,4,1,2,80,0,0
194476,-100,4,1,0,5,0,0
194792,-100,4,1,2,80,0,0
195739,-100,4,1,0,5,0,0
196055,-100,4,1,2,80,0,0
197002,-100,4,1,0,5,0,0
197318,-100,4,1,2,80,0,0
197634,-100,4,1,2,80,0,1
202687,-200,4,2,1,50,0,0
203002,-200,4,2,0,5,0,0
203318,-200,4,2,1,40,0,0
203634,-200,4,2,1,5,0,0
203950,-200,4,1,2,80,0,1
204029,-200,4,1,2,80,0,0

[Colours]
Combo1 : 255,255,128
Combo2 : 129,172,254
Combo3 : 128,255,255
Combo4 : 53,255,189

[HitObjects]
256,44,18266,6,0,P|192:56|124:144,1,180,6|2,0:0|0:0,0:0:0:0:
216,296,19529,2,0,P|280:284|348:196,1,180,2|2,0:0|0:0,0:0:0:0:
488,84,20792,6,0,L|488:264,2,180,6|2|6,0:0|0:0|0:0,0:0:0:0:
404,52,22371,1,8,0:0:0:0:
316,72,22687,1,6,0:0:0:0:
228,52,23002,1,8,0:0:0:0:
144,84,23318,6,0,P|128:128|192:236,1,180,6|2,0:0|0:0,0:0:0:0:
348,320,24581,2,0,P|364:276|300:168,1,180,6|2,0:0|0:0,0:0:0:0:
144,84,25845,6,0,P|184:60|312:72,1,180,6|6,0:0|0:0,0:0:0:0:
372,140,26792,1,8,0:0:0:0:
332,220,27108,2,0,B|300:236|312:276|276:288,2,90,6|4|6,0:0|0:0|0:0,0:0:0:0:
332,60,28371,6,0,L|468:60,2,135,2|2|8,0:0|0:0|0:0,0:0:0:0:
244,72,29634,2,0,P|216:100|208:148,1,90,2|8,0:0|0:0,0:0:0:0:
208,240,30266,2,0,P|213:283|243:316,1,90,0|8,0:0|0:0,0:0:0:0:
332,324,30897,6,0,L|468:324,2,135,2|2|8,0:0|0:0|0:0,1:0:0:0:
332,232,32160,2,0,L|424:232,1,90,2|8,0:0|0:0,0:0:0:0:
424,140,32792,2,0,L|332:140,1,90,0|8,0:0|0:0,0:0:0:0:
244,140,33423,6,0,P|196:160|160:236,2,135,0|2|8,0:0|0:0|0:0,0:0:0:0:
308,76,34687,2,0,P|352:56|396:56,1,90,2|8,0:0|0:0,0:0:0:0:
424,140,35318,2,0,P|380:160|336:160,1,90,0|8,0:0|0:0,0:0:0:0:
256,200,35950,6,0,P|288:260|388:304,2,180,2|2|10,0:0|0:0|0:0,0:0:0:0:
212,120,37529,1,10,0:0:0:0:
120,120,37845,2,0,P|96:128|56:180,2,90,10|4|2,0:0|0:0|0:0,0:0:0:0:
296,88,48581,6,0,L|388:88,2,90,6|8|0,0:0|0:0|0:0,0:0:0:0:
216,192,49845,6,0,L|124:192,2,90,6|8|0,0:0|0:0|0:0,0:0:0:0:
296,296,51108,6,0,L|388:296,2,90,6|8|0,0:0|0:0|0:0,0:0:0:0:
208,284,52055,1,8,0:0:0:0:
136,228,52371,2,0,P|104:76|268:52,1,360,6|2,0:0|0:0,0:0:0:0:
304,136,53950,6,0,P|332:156|388:172,1,90,8|0,0:0|0:0,0:0:0:0:
448,236,54581,1,8,0:0:0:0:
384,300,54897,2,0,P|312:280|212:304,1,180,2|0,0:0|0:0,0:0:0:0:
124,320,55845,1,8,0:0:0:0:
56,260,56160,6,0,L|56:80,1,180,2|0,0:0|0:0,0:0:0:0:
136,36,57108,1,8,0:0:0:0:
212,80,57423,2,0,L|212:260,1,180,2|2,0:0|0:0,0:0:0:0:
288,308,58371,1,8,0:0:0:0:
364,260,58687,6,0,L|364:80,1,180,6|0,0:0|0:0,0:0:0:0:
288,32,59634,1,8,0:0:0:0:
196,32,59950,2,0,P|112:44|64:120,1,180,6|0,0:0|0:0,0:0:0:0:
116,192,60897,1,8,0:0:0:0:
64,264,61213,6,0,P|109:338|195:351,1,180,6|0,0:0|0:0,0:0:0:0:
256,284,62160,1,8,0:0:0:0:
316,351,62476,2,0,P|402:338|448:264,1,180,6|0,0:0|0:0,0:0:0:0:
412,184,63423,1,8,0:0:0:0:
344,124,63739,6,0,P|256:108|168:124,1,180,2|0,0:0|0:0,0:0:0:0:
100,184,64687,1,8,0:0:0:0:
168,244,65002,2,0,B|184:292|244:292|264:336,2,135,2|2|8,0:0|0:0|0:0,0:0:0:0:
100,184,66266,6,0,B|86:159|32:176|20:148,2,90,2|8|0,0:0|0:0|0:0,0:0:0:0:
184,156,67213,1,8,0:0:0:0:
268,184,67529,2,0,B|282:209|336:192|348:220,2,90,6|6|6,0:0|0:0|0:0,0:0:0:0:
384,48,68792,6,0,P|436:64|488:172,1,180,2|2,0:0|0:0,0:0:0:0:
460,256,69739,1,8,0:0:0:0:
400,324,70055,2,0,P|348:308|296:200,1,180,2|2,0:0|0:0,0:0:0:0:
256,120,71002,1,8,0:0:0:0:
216,201,71318,6,0,P|190:285|112:324,1,180,2|2,0:0|0:0,0:0:0:0:
52,256,72266,1,8,0:0:0:0:
23,170,72581,2,0,P|49:86|128:48,1,180,2|2,0:0|0:0,0:0:0:0:
172,224,73845,6,0,P|256:252|340:224,1,180,2|2,0:0|0:0,0:0:0:0:
408,168,74792,1,8,0:0:0:0:
340,108,75108,2,0,P|256:80|172:108,1,180,2|2,0:0|0:0,0:0:0:0:
104,168,76055,1,8,0:0:0:0:
136,252,76371,6,0,P|124:300|12:352,2,180,2|2|2,0:0|0:0|0:0,0:0:0:0:
212,204,77950,1,10,0:0:0:0:
300,204,78266,1,2,0:0:0:0:
376,252,78581,2,0,P|388:300|420:336,1,90,8|2,0:0|0:2,0:0:0:0:
256,192,86476,12,2,88371,0:0:0:0:
184,124,89002,6,0,P|224:84|328:124,1,180,6|2,0:0|0:0,0:0:0:0:
384,192,89950,1,8,0:0:0:0:
328,260,90266,2,0,P|288:300|184:260,1,180,2|6,0:0|0:0,0:0:0:0:
128,192,91213,1,12,0:0:0:0:
76,116,91529,6,0,P|48:240|76:268,1,180,6|2,0:0|0:0,0:0:0:0:
128,340,92476,1,8,0:0:0:0:
180,268,92792,2,0,P|220:192|179:116,1,180,2|6,0:0|0:0,0:0:0:0:
128,44,93739,1,12,0:0:0:0:
216,28,94055,6,0,L|404:28,1,180,6|2,0:0|0:0,0:0:0:0:
464,88,95002,1,8,0:0:0:0:
460,180,95318,2,0,P|432:252|344:300,1,180,2|6,0:0|0:3,0:0:0:0:
256,284,96266,1,10,0:3:0:0:
166,299,96581,6,0,P|87:260|52:180,1,180,6|2,0:0|0:0,0:0:0:0:
48,88,97529,1,8,0:0:0:0:
124,40,97845,6,0,L|216:40,1,90,2|8,0:0|0:0,0:0:0:0:
216,132,98476,2,0,L|124:132,1,90,2|8,0:0|0:0,0:0:0:0:
172,212,99108,6,0,P|220:224|304:120,1,180,6|2,0:0|0:0,0:0:0:0:
360,68,100055,1,8,0:0:0:0:
416,140,100371,2,0,L|416:320,1,180,2|2,0:0|0:0,0:0:0:0:
332,352,101318,1,8,0:0:0:0:
248,320,101634,6,0,P|180:360|96:320,1,180,6|2,0:0|0:0,0:0:0:0:
172,272,102581,1,8,0:0:0:0:
96,224,102897,2,0,P|164:184|248:224,1,180,2|2,0:0|0:0,0:0:0:0:
328,272,103845,1,8,0:0:0:0:
392,336,104160,6,0,P|416:256|356:188,1,180,6|2,0:0|0:0,0:0:0:0:
328,272,105108,1,8,0:0:0:0:
268,204,105423,2,0,P|288:132|396:108,1,180,2|6,0:0|0:3,0:0:0:0:
356,188,106371,1,10,0:3:0:0:
328,272,106687,6,0,P|248:308|168:272,1,180,6|6,0:0|0:0,0:0:0:0:
120,196,107634,1,8,0:0:0:0:
168,120,107950,2,0,P|248:85|328:121,1,180,6|6,0:0|0:0,0:0:0:0:
376,196,108897,1,8,0:0:0:0:
400,284,109213,6,0,P|320:312|96:284,1,315,6|6,0:0|0:0,0:0:0:0:
172,68,111108,1,12,0:0:0:0:
256,32,111423,1,12,0:0:0:0:
340,68,111739,6,0,P|392:148|344:352,1,315,6|6,0:0|0:0,0:0:0:0:
132,280,113634,1,12,0:0:0:0:
108,192,113950,1,4,0:0:0:0:
132,104,114266,6,0,P|148:72|272:12,1,180,6|2,0:0|0:0,0:0:0:0:
352,52,115213,1,8,0:0:0:0:
300,128,115529,2,0,P|256:160|300:256,1,180,2|6,0:0|0:3,0:0:0:0:
352,332,116476,1,10,0:3:0:0:
271,373,116792,6,0,P|186:350|132:280,1,180,6|2,0:0|0:0,0:0:0:0:
108,192,117739,1,8,0:0:0:0:
200,192,118055,2,0,L|380:192,1,180,2|2,0:0|0:0,0:0:0:0:
424,116,119002,1,8,0:0:0:0:
256,52,119634,5,12,0:0:0:0:
120,192,120266,1,12,0:0:0:0:
256,332,120897,1,12,0:0:0:0:
392,192,121529,1,12,0:0:0:0:
188,120,122160,5,12,0:0:0:0:
188,264,122792,1,12,0:0:0:0:
324,264,123423,1,12,0:0:0:0:
324,120,124055,1,4,0:2:0:0:
368,40,124371,6,0,P|412:100|380:192,1,180,6|2,0:0|0:0,0:0:0:0:
324,264,125318,1,8,0:0:0:0:
272,188,125634,2,0,P|200:144|124:188,1,180,2|6,0:0|0:3,0:0:0:0:
72,260,126581,1,10,0:3:0:0:
140,320,126897,6,0,L|232:320,1,90,2|12,0:0|0:0,0:0:0:0:
320,320,127529,2,0,L|412:320,1,90,2|12,0:0|0:0,0:0:0:0:
436,232,128160,2,0,L|344:232,1,90,2|12,0:0|0:0,0:0:0:0:
256,232,128792,2,0,L|164:232,1,90,2|12,0:0|0:0,0:0:0:0:
76,152,129423,6,0,L|168:152,1,90,2|2,0:0|0:0,0:0:0:0:
256,64,130687,6,0,L|256:156,1,90,2|2,0:0|0:0,0:0:0:0:
348,240,131950,6,0,L|256:240,1,90,2|2,0:0|0:0,0:0:0:0:
172,332,133213,6,0,L|172:242,1,90,2|2,0:0|0:0,0:0:0:0:
208,64,138266,6,0,B|168:76|144:136|104:152,2,135,6|2|8,0:0|0:0|0:0,0:0:0:0:
304,64,139529,2,0,B|344:76|368:136|408:152,2,135,6|2|8,0:0|0:0|0:0,0:0:0:0:
256,140,140792,2,0,L|256:280,2,135,6|2|8,0:0|0:0|0:0,0:0:0:0:
76,160,142371,6,0,L|76:252,1,90,6|6,0:0|0:0,0:0:0:0:
304,320,147108,6,0,B|344:308|368:248|408:232,2,135,6|2|8,0:0|0:0|0:0,0:0:0:0:
208,320,148371,2,0,B|168:308|144:248|104:232,2,135,6|2|8,0:0|0:0|0:0,0:0:0:0:
256,244,149634,2,0,L|256:104,2,135,6|2|8,0:0|0:0|0:0,0:0:0:0:
436,224,151213,6,0,L|436:132,1,90,6|6,0:0|0:0,0:0:0:0:
288,32,152160,6,0,P|240:36|180:140,1,180,6|0,0:0|0:0,0:0:0:0:
268,120,153108,1,8,0:0:0:0:
356,100,153423,2,0,P|330:182|248:208,1,180,6|0,0:0|0:0,0:0:0:0:
160,228,154371,1,8,0:0:0:0:
88,176,154687,6,0,P|72:224|148:316,1,180,6|0,0:0|0:0,0:0:0:0:
236,320,155634,1,8,0:0:0:0:
328,316,155950,2,0,P|395:262|386:176,1,180,6|0,0:0|0:0,0:0:0:0:
328,108,156897,1,8,0:0:0:0:
236,108,157213,6,0,L|52:108,1,180,6|0,0:0|0:0,0:0:0:0:
0,192,158160,1,8,0:0:0:0:
56,260,158476,2,0,L|240:260,1,180,6|0,0:0|0:0,0:0:0:0:
328,260,159423,1,8,0:0:0:0:
256,192,159739,12,0,161634,0:0:0:0:
188,336,162266,6,0,P|148:312|108:192,1,180,6|2,0:0|0:0,0:0:0:0:
132,104,163213,1,8,0:0:0:0:
188,32,163529,2,0,P|256:84|324:32,1,180,2|6,0:0|0:0,0:0:0:0:
380,104,164476,1,12,0:0:0:0:
403,191,164792,6,0,P|390:278|324:336,1,180,6|2,0:0|0:0,0:0:0:0:
256,280,165739,1,8,0:0:0:0:
184,336,166055,2,0,P|156:268|60:236,1,180,2|6,0:0|0:0,0:0:0:0:
28,152,167002,1,12,0:0:0:0:
60,68,167318,6,0,P|144:40|228:68,1,180,6|2,0:0|0:0,0:0:0:0:
256,152,168266,1,8,0:0:0:0:
284,236,168581,2,0,P|367:263|451:235,1,180,2|6,0:0|0:3,0:0:0:0:
484,152,169529,1,10,0:3:0:0:
451,67,169845,6,0,P|368:40|284:67,1,180,6|2,0:0|0:0,0:0:0:0:
256,152,170792,1,8,0:0:0:0:
180,204,171108,2,0,P|244:244|336:200,1,180,2|2,0:0|0:0,0:0:0:0:
404,152,172055,1,8,0:0:0:0:
476,202,172371,6,0,P|489:288|426:347,1,180,6|2,0:0|0:0,0:0:0:0:
404,260,173318,1,8,0:0:0:0:
336,200,173634,2,0,P|296:172|176:200,1,180,2|2,0:0|0:0,0:0:0:0:
104,260,174581,1,8,0:0:0:0:
86,347,174897,6,0,P|23:289|44:192,1,180,6|2,0:0|0:0,0:0:0:0:
76,124,175845,1,8,0:0:0:0:
152,80,176160,2,0,P|232:52|320:80,1,180,2|2,0:0|0:0,0:0:0:0:
400,124,177108,1,8,0:0:0:0:
324,168,177423,6,0,P|240:200|148:204,1,180,6|0,0:0|0:0,0:0:0:0:
72,252,178371,1,8,0:0:0:0:
144,308,178687,2,0,P|208:324|320:308,1,180,2|6,0:0|0:3,0:0:0:0:
404,340,179634,1,10,0:3:0:0:
464,272,179950,6,0,L|464:92,1,180,6|6,0:0|0:0,0:0:0:0:
380,56,180897,1,8,0:0:0:0:
296,92,181213,2,0,L|296:272,1,180,6|6,0:0|0:0,0:0:0:0:
224,324,182160,1,8,0:0:0:0:
136,300,182476,6,0,P|56:212|140:60,1,315,6|6,0:0|0:0,0:0:0:0:
256,252,184371,1,12,0:0:0:0:
280,164,184687,1,12,0:0:0:0:
304,76,185002,6,0,P|380:75|478:263,1,315,6|6,0:0|0:0,0:0:0:0:
256,308,186897,1,12,0:0:0:0:
164,308,187213,1,4,0:2:0:0:
72,308,187529,6,0,L|76:120,1,180,6|2,0:0|0:0,0:0:0:0:
132,56,188476,1,8,0:0:0:0:
216,28,188792,2,0,P|292:20|352:96,1,180,2|6,0:0|0:3,0:0:0:0:
264,104,189739,1,10,0:3:0:0:
176,112,190055,6,0,P|225:182|311:178,1,180,6|2,0:0|0:0,0:0:0:0:
388,128,191002,1,8,0:0:0:0:
452,64,191318,2,0,P|476:136|452:236,1,180,2|2,0:0|0:0,0:0:0:0:
380,292,192266,1,8,0:0:0:0:
200,284,192897,6,0,P|132:248|128:152,1,180,12|12,0:0|0:0,0:0:0:0:
280,60,194160,2,0,P|348:96|352:192,1,180,12|12,0:0|0:0,0:0:0:0:
200,96,195423,6,0,L|288:256,1,180,12|12,0:0|0:0,0:0:0:0:
128,172,196687,2,0,P|92:196|100:320,1,180,12|4,0:0|0:2,0:0:0:0:
164,256,197634,6,0,L|344:256,1,180,6|2,0:0|0:0,0:0:0:0:
420,204,198581,1,8,0:0:0:0:
444,116,198897,2,0,P|416:80|292:80,1,180,2|6,0:0|0:3,0:0:0:0:
256,168,199845,1,10,0:3:0:0:
160,168,200160,6,0,P|116:188|92:220,1,90,2|12,0:0|0:0,0:0:0:0:
92,312,200792,2,0,P|122:344|164:360,1,90,2|12,0:0|0:0,0:0:0:0:
256,360,201423,2,0,P|296:342|328:308,1,90,2|12,0:0|0:0,0:0:0:0:
328,216,202055,2,0,P|297:183|256:168,1,90,2|12,0:0|0:0,0:0:0:0:
160,168,202687,6,0,L|160:268,2,90,2|2|6,0:0|0:0|0:0,0:0:0:0:
