osu file format v9

[General]
AudioFilename: Momoi Halko LUKA LUKANight Fever.mp3
AudioLeadIn: 982
PreviewTime: 51505
Countdown: 0
SampleSet: Normal
StackLeniency: 0.7
Mode: 0
LetterboxInBreaks: 1

[Editor]
DistanceSpacing: 0.8
BeatDivisor: 4
GridSize: 8

[Metadata]
Title:Luka Luka Night Fever
Artist:Momoi Haruko
Creator:Lunah
Version:Easy
Source:
Tags:Megurine LukaLuka Vocaloid Lissette Lizbeth

[Difficulty]
HPDrainRate:1
CircleSize:3
OverallDifficulty:1
ApproachRate:1
SliderMultiplier:1
SliderTickRate:2

[Events]
//Background and Video events
0,0,"f064e2bc3ec4238de376abbace222c2d.jpg"
//Break Periods
2,75330,82825
2,135330,145450
//Storyboard Layer 0 (Background)
//Storyboard Layer 1 (Fail)
//Storyboard Layer 2 (Pass)
//Storyboard Layer 3 (Foreground)
//Storyboard Sound Samples
//Background Colour Transformations
3,100,163,162,255

[TimingPoints]
505,375,4,1,0,75,1,0
3036,-100,4,1,2,75,0,0
3223,-100,4,1,0,75,0,0
51510,-100,4,1,0,75,0,1
63416,-100,4,1,0,75,0,0
63510,-100,4,1,0,75,0,1
75041,-100,4,1,0,75,0,0
75135,-100,4,1,2,75,0,1
75228,-100,4,1,0,75,0,0
111505,-100,4,1,0,75,0,1
123411,-100,4,1,0,75,0,0
123505,-100,4,1,0,75,0,1
135036,-100,4,1,0,75,0,0
135130,-100,4,1,2,75,0,1
135223,-100,4,1,0,75,0,0
159036,-100,4,1,0,61,0,0
159411,-100,4,1,0,39,0,0
181630,-100,4,1,0,39,0,0
182192,-100,4,1,0,25,0,0
182750,-100,4,1,0,25,0,1
182843,-100,4,1,0,25,0,0

[Colours]
Combo1 : 0,0,255
Combo2 : 255,23,139
Combo3 : 89,89,89
Combo4 : 255,128,255

[HitObjects]
144,64,1817,2,0,B|80:128|152:128|152:128|152:184,1,150
152,256,2755,1,0
232,272,3130,1,8
312,256,3505,6,0,B|376:256|376:176,1,100,0|8
384,112,4255,2,0,B|336:80|288:112,1,100
272,192,5005,2,0,B|224:240|176:192,1,100,0|8
112,160,5755,1,0
208,32,6505,6,0,B|320:32,1,100,0|8
376,72,7255,2,0,B|424:104|392:168,1,100
320,136,8005,2,0,B|272:184|336:232,1,100,0|8
400,256,8755,1,0
352,320,9130,1,0
272,320,9505,6,0,B|144:320|144:192,1,200,4|0
128,120,10630,1,8
168,48,11005,2,0,B|280:48,1,100
248,128,11755,2,0,B|360:128,1,100,0|8
400,64,12505,5,0
448,128,12880,1,0
464,208,13255,2,0,B|416:240|352:208,1,100,0|8
288,224,14005,2,0,B|240:192|176:224,1,100
208,296,14755,1,4
288,312,15130,1,4
368,328,15505,5,4
432,184,16255,1,0
312,72,17005,1,0
256,224,17755,2,0,B|336:304,1,100,6|2
384,352,18505,5,0
416,192,19255,1,0
288,96,20005,1,0
288,256,20755,1,2
208,256,21130,1,2
128,256,21505,5,0
64,112,22255,1,0
224,112,23005,1,0
384,112,23755,1,2
384,192,24130,2,0,B|320:184,1,50,2|0
288,192,24505,6,0,B|88:224,1,200,0|0
96,64,26005,1,0
256,64,26755,2,0,B|320:64|336:128,1,100,2|2
360,192,27505,5,4
232,288,28255,1,0
104,192,29005,1,0
192,56,29755,2,0,B|232:16|304:16,1,100,2|2
320,88,30505,5,0
416,216,31255,1,0
272,288,32005,1,0
112,272,32755,1,2
112,192,33130,1,2
112,112,33505,5,0
256,48,34255,1,0
400,112,35005,1,0
256,160,35755,1,2
304,224,36130,2,0,B|304:288,1,50,2|0
304,320,36505,6,0,B|208:352|96:320,1,200
48,176,38005,1,0
176,80,38755,2,0,B|224:48|224:112|288:64,1,100,2|2
352,88,39505,1,4
408,144,39880,1,0
400,224,40255,1,0
256,288,41005,6,0,B|192:288|176:224,1,100
128,176,41755,1,0
144,96,42130,1,0
288,32,42880,5,2
400,144,43630,1,2
304,272,44380,1,2
224,272,44755,1,2
144,272,45130,1,2
144,192,45505,5,4
240,64,46255,1,0
400,64,47005,1,0
400,224,47755,1,0
272,320,48505,6,0,B|160:336|112:224,1,200
56,120,49817,2,0,B|104:48|200:56,1,150,4|0
264,56,50755,1,4
376,176,51505,6,0,B|440:176|432:256,1,100,2|2
360,280,52255,2,0,B|240:280,1,100
184,280,53005,1,2
104,280,53380,1,0
144,208,53755,1,2
240,80,54505,6,0,B|336:32|456:88,1,200
464,152,55630,1,2
416,216,56005,2,0,B|344:304,1,100
312,224,56755,2,0,B|192:224,1,100,2|2
136,224,57505,5,4
264,136,58255,1,0
400,48,59005,1,0
400,208,59755,1,0
296,336,60505,6,0,B|248:360|160:336,1,100
216,264,61255,2,0,B|160:248|88:280,1,100
112,352,62005,2,0,B|64:352|24:320|16:272|32:216|80:192,1,200,0|2
120,152,63130,1,2
120,72,63505,6,0,B|160:72|184:88|200:144,1,100,6|2
200,208,64255,2,0,B|216:272|296:272,1,100
352,272,65005,1,2
416,224,65380,1,0
400,144,65755,1,2
264,56,66505,6,0,B|200:56|160:88,1,100
96,128,67255,1,2
96,128,67630,1,2
120,208,68005,2,0,B|176:208|240:152,1,100
280,136,68755,2,0,B|320:104|392:104,1,100,2|2
456,104,69505,5,4
456,264,70255,1,0
296,264,71005,1,0
136,264,71755,2,0,B|72:272|40:208,1,100,2|2
120,184,72505,6,0,B|176:56,1,100
200,24,73255,1,0
304,88,73817,2,0,B|304:184|432:88|432:88|432:168,1,250
432,248,75130,1,8
256,192,84505,12,0,86755
144,56,87505,5,0
80,200,88255,1,0
200,312,89005,1,0
256,160,89755,2,0,B|176:80,1,100,2|2
128,32,90505,5,0
96,192,91255,1,0
224,288,92005,1,0
224,128,92755,1,2
304,128,93130,1,2
384,128,93505,5,0
448,272,94255,1,0
288,272,95005,1,0
128,272,95755,1,2
128,192,96130,2,0,B|192:192,1,50,2|0
224,192,96505,6,0,B|432:192,1,200
416,352,98005,1,0
256,320,98755,2,0,B|192:320|176:256,1,100,2|2
152,192,99505,5,4
280,96,100255,1,0
408,192,101005,1,0
280,288,101755,1,0
200,288,102130,2,0,B|144:304|80:280,1,100
32,256,102880,5,2
160,160,103630,1,2
296,80,104380,1,2
376,88,104755,1,2
408,160,105130,1,2
392,240,105505,5,4
264,328,106255,1,0
128,240,107005,1,0
264,160,107755,1,0
200,112,108130,2,0,B|200:48,1,50
240,48,108505,6,0,B|336:16|448:48,1,200
368,144,109817,2,0,B|424:224|352:288,1,150,4|0
280,280,110755,1,4
136,208,111505,6,0,B|72:208|80:128,1,100,4|2
152,104,112255,2,0,B|272:104,1,100,0|2
328,104,113005,1,0
408,104,113380,1,2
368,176,113755,1,0
272,304,114505,6,0,B|176:352|56:296,1,200
48,232,115630,1,2
96,168,116005,2,0,B|168:80,1,100
200,160,116755,2,0,B|320:160,1,100,2|2
376,160,117505,5,4
248,248,118255,1,0
112,336,119005,1,0
112,176,119755,1,0
216,48,120505,6,0,B|264:24|352:48,1,100
296,120,121255,2,0,B|352:136|424:104,1,100
400,32,122005,2,0,B|448:32|488:64|496:112|480:168|432:192,1,200,0|2
392,232,123130,1,2
392,312,123505,6,0,B|352:312|328:296|312:240,1,100,4|2
312,176,124255,2,0,B|296:112|216:112,1,100,0|2
160,112,125005,1,2
96,160,125380,1,0
112,240,125755,1,2
264,336,126505,6,0,B|328:336|368:304,1,100
416,256,127255,1,2
416,256,127630,1,2
392,176,128005,2,0,B|336:176|272:232,1,100
232,248,128755,2,0,B|192:280|120:280,1,100,2|2
56,280,129505,5,4
56,120,130255,1,0
216,120,131005,1,0
376,120,131755,2,0,B|440:112|472:176,1,100,2|2
392,200,132505,6,0,B|336:328,1,100
312,360,133255,1,0
256,192,133630,12,8,135130
272,72,147130,6,0,B|216:72,2,50,2|0|2
352,72,147880,1,0
432,72,148255,1,0
432,152,148630,6,0,B|496:152,2,50,2|0|2
352,152,149380,1,0
272,152,149755,1,0
272,232,150130,6,0,B|216:232,1,50
144,232,150692,2,0,B|88:232,1,50,0|2
48,168,151255,1,0
72,88,151630,2,0,B|216:88,1,100,2|0
248,88,152380,1,2
248,168,152755,2,0,B|304:184|368:168,1,100,2|2
400,112,153505,5,4
400,272,154255,1,0
240,272,155005,1,0
80,272,155755,1,0
208,176,156505,5,0
344,88,157255,2,0,B|416:64|496:88,2,150
344,168,158755,1,4
456,288,159505,5,4
392,232,159880,1,0
312,232,160255,1,4
256,288,160630,1,0
176,288,161005,2,0,B|120:304|80:272,1,100,4|0
24,216,161755,1,0
160,128,162505,6,0,B|248:80,1,100,4|0
272,160,163255,2,0,B|392:160,1,100,4|0
376,80,164005,1,4
456,80,164380,1,0
456,160,164755,1,0
456,240,165130,1,0
376,240,165505,5,4
216,240,166255,1,0
56,240,167005,1,4
136,104,167755,1,0
296,104,168505,6,0,B|344:96|408:104,1,100,4|0
432,176,169255,2,0,B|384:184|320:176,1,100
256,176,170005,2,0,B|192:176|192:248,1,100,4|0
192,320,170755,1,2
120,280,171130,1,2
48,248,171505,6,0,B|48:136,1,100,4|0
120,184,172255,2,0,B|120:80,1,100
192,48,173005,1,0
240,112,173380,1,0
288,176,173755,1,0
328,24,174505,6,0,B|440:24,1,100
392,96,175255,2,0,B|504:96,1,100
496,176,176005,1,0
432,224,176380,1,0
368,272,176755,2,0,B|320:288|264:272,1,100
200,240,177505,5,4
48,184,178255,1,0
112,40,179005,1,0
272,40,179755,1,0
432,40,180505,6,0,B|432:152,1,100
432,224,181255,2,0,B|432:280|384:312,1,100
352,312,181817,2,0,B|224:312,1,100
208,312,182380,2,0,B|128:312,2,50
