osu file format v9

[General]
AudioFilename: egao hyakkei.mp3
AudioLeadIn: 0
PreviewTime: 50614
Countdown: 0
SampleSet: Normal
StackLeniency: 0.7
Mode: 0
LetterboxInBreaks: 1

[Editor]
DistanceSpacing: 1
BeatDivisor: 4
GridSize: 4

[Metadata]
Title:Nippon Egao Hyakkei (TV Size)
Artist:MomoKuro-tei Ichimon
Creator:Thite
Version:Normal
Source:Joshiraku
Tags:ending wring

[Difficulty]
HPDrainRate:3
CircleSize:4
OverallDifficulty:3
ApproachRate:3
SliderMultiplier:0.999999999999999
SliderTickRate:2

[Events]
//Background and Video events
0,0,"BG.jpg"
Video,0,"nippon.avi"
//Break Periods
//Storyboard Layer 0 (Background)
//Storyboard Layer 1 (Fail)
//Storyboard Layer 2 (Pass)
//Storyboard Layer 3 (Foreground)
//Storyboard Sound Samples
//Background Colour Transformations
3,100,163,162,255

[TimingPoints]
1489,375,4,1,0,50,1,0
5801,-100,4,1,0,10,0,0
7114,-100,4,1,0,50,0,0
49301,-100,4,1,0,10,0,0
50614,-100,4,1,0,50,0,0
50989,-100,4,1,0,60,0,1
62614,-100,4,1,0,30,0,1
62989,-100,4,1,0,60,0,1
69364,-100,4,1,0,45,0,1
70114,-100,4,1,0,60,0,1
73489,-100,4,1,0,30,0,1
73864,-100,4,1,0,40,0,1
74239,-100,4,1,0,50,0,1
74614,-100,4,1,0,60,0,1
74989,-100,4,1,0,60,0,0

[Colours]
Combo1 : 255,128,0
Combo2 : 255,128,128
Combo3 : 255,255,128

[HitObjects]
128,108,1489,1,0
76,192,1864,2,0,B|64:240|72:296,2,99.9999999999999
128,108,2989,2,0,B|196:80|276:88,1,150
324,92,3739,1,0
400,156,4114,1,0
376,252,4489,2,0,B|356:340|256:392|144:344|124:232,1,350
256,192,5895,12,0,7114
360,68,7489,6,0,B|364:116|356:168,1,99.9999999999999
436,232,8239,2,0,B|416:276|385:318,1,99.9999999999999
320,244,8989,1,0
256,320,9364,1,0
192,244,9739,2,0,B|148:260|92:252,1,99.9999999999999
32,172,10489,6,0,B|76:156|132:164,1,99.9999999999999
228,192,11239,1,0
296,116,11614,1,0
252,24,11989,2,0,B|160:64|56:44,1,200
8,132,13114,1,0
76,208,13489,6,0,B|88:256|76:308,2,99.9999999999999
8,132,14614,1,0
84,68,14989,6,0,B|132:48|184:60,1,99.9999999999999
272,12,15739,2,0,B|321:27|353:70,1,99.9999999999999
448,36,16489,2,0,B|508:124|456:228,1,200
364,192,17614,1,0
304,272,17989,5,0
204,252,18364,1,0
264,172,18739,1,0
364,192,19114,1,0
464,172,19489,6,0,B|480:124|472:68,2,99.9999999999999
364,192,20614,1,0
428,268,20989,2,0,B|444:316|436:372,2,99.9999999999999
364,192,22114,1,0
292,260,22489,6,0,B|252:288|192:276,1,99.9999999999999
96,260,23239,2,0,B|68:220|80:160,1,99.9999999999999
120,72,23989,1,0
204,124,24364,1,0
308,124,24739,1,0
392,72,25114,1,0
300,32,25489,6,0,B|228:20|176:128|240:184,1,200
316,224,26614,1,0
332,324,26989,2,0,B|404:336|456:228|392:172,1,200
324,120,28114,1,0
304,24,28489,6,0,B|256:16|204:24,1,99.9999999999999
108,40,29239,2,0,B|116:87|142:133,1,99.9999999999999
240,148,29989,2,0,B|252:220|156:272|92:212,1,200
36,144,31114,1,0
20,244,31489,6,0,B|56:352|172:352,1,200
256,296,32614,1,0
340,352,32989,2,0,B|456:352|492:244,1,200
480,148,34114,1,0
440,56,34489,6,0,B|388:44|340:44,1,99.9999999999999
296,132,35239,2,0,B|348:144|396:144,1,99.9999999999999
492,120,35989,5,0
504,220,36364,1,0
468,312,36739,1,0
372,340,37114,1,0
276,312,37489,1,0
260,264,37676,6,0,B|240:216|256:164,1,99.9999999999999
272,120,38239,1,0
356,68,38614,1,0
444,116,38989,2,0,B|460:164|448:216,2,99.9999999999999
356,160,40114,1,0
376,260,40489,6,0,B|332:280|276:268,1,99.9999999999999
260,368,41239,2,0,B|213:355|178:309,1,99.9999999999999
84,340,41989,2,0,B|32:240|96:152,1,200
160,76,43114,1,0
256,104,43489,6,0,B|244:152|256:208,1,99.9999999999999
328,272,44239,1,0
424,244,44614,1,0
508,300,44989,6,0,B|520:252|508:196,2,99.9999999999999
428,360,46114,1,0
328,352,46489,6,0,B|280:364|232:336,1,99.9999999999999
152,272,47239,2,0,B|140:224|168:176,1,99.9999999999999
264,148,47989,2,0,B|272:72|172:36|116:96,2,200
256,344,50614,5,0
356,340,50989,1,0
424,264,51364,1,0
428,164,51739,1,0
372,80,52114,6,0,B|328:56|276:64,2,99.9999999999999
428,164,53239,1,0
332,196,53614,6,0,B|344:244|328:296,1,99.9999999999999
228,288,54364,2,0,B|209:333|165:366,1,99.9999999999999,0|0
72,336,55114,1,0
28,248,55489,2,0,B|-8:128|96:80,1,200
188,116,56614,5,0
256,188,56989,1,0
324,116,57364,1,0
256,188,57739,1,0
164,232,58114,6,0,B|140:276|152:332,2,99.9999999999999
244,292,59239,1,0
328,236,59614,2,0,B|352:192|340:136,2,99.9999999999999
256,168,60739,2,0,B|212:144|156:156,1,99.9999999999999
68,192,61489,5,0
40,96,61864,1,0
116,28,62239,1,0
216,32,62614,5,0
292,96,62989,2,0,B|308:144|292:196,2,99.9999999999999
208,148,64114,5,0
124,200,64489,2,0,B|108:152|124:100,2,99.9999999999999
168,292,65614,5,0
256,340,65989,2,0,B|288:304|288:248,1,99.9999999999999
388,240,66739,2,0,B|389:191|353:148,1,99.9999999999999
432,88,67489,2,0,B|344:28|240:56,1,200
144,80,68614,5,0
100,172,68989,1,0
144,264,69364,2,0,B|192:284|244:272,1,99.9999999999999
304,192,70114,5,0
256,104,70489,2,0,B|208:84|156:96,1,99.9999999999999
72,148,71239,1,0
36,240,71614,5,0
72,332,71989,1,0
172,328,72364,1,0
256,380,72739,2,0,B|268:328|252:280,1,99.9999999999999
256,192,73489,12,0,74614
356,72,74989,5,0
432,136,75364,1,0
460,232,75739,2,0,B|464:280|452:332,1,99.9999999999999
356,356,76489,5,0
256,340,76864,1,0
156,356,77239,2,0,B|136:308|152:256,1,99.9999999999999
248,240,77989,5,0
248,140,78364,1,0
164,88,78739,1,0
68,116,79114,1,0
32,208,79489,2,0,B|40:324|156:344,1,200
256,348,80614,1,0
220,256,80989,5,0
244,160,81364,1,0
324,100,81739,2,0,B|368:88|424:100,1,99.9999999999999
376,188,82489,5,0
476,172,82864,1,0
508,76,83239,2,0,B|480:32|420:28,1,99.9999999999999
324,44,83989,6,0,B|280:72|276:132,2,99.9999999999999
364,136,85114,1,0
328,228,85489,2,0,B|312:288|256:312|192:288|180:224,1,200
256,168,86614,1,0
