osu file format v9

[General]
AudioFilename: egao hyakkei.mp3
AudioLeadIn: 0
PreviewTime: 50614
Countdown: 0
SampleSet: Normal
StackLeniency: 0.7
Mode: 0
LetterboxInBreaks: 1

[Editor]
DistanceSpacing: 1.5
BeatDivisor: 4
GridSize: 4

[Metadata]
Title:Nippon Egao Hyakkei (TV Size)
Artist:MomoKuro-tei Ichimon
Creator:Thite
Version:Insane
Source:Joshiraku
Tags:ending wring

[Difficulty]
HPDrainRate:8
CircleSize:4
OverallDifficulty:7
ApproachRate:8
SliderMultiplier:1.7
SliderTickRate:2

[Events]
//Background and Video events
0,0,"BG.jpg"
Video,0,"nippon.avi"
//Break Periods
//Storyboard Layer 0 (Background)
//Storyboard Layer 1 (Fail)
//Storyboard Layer 2 (Pass)
//Storyboard Layer 3 (Foreground)
//Storyboard Sound Samples
//Background Colour Transformations
3,100,163,162,255

[TimingPoints]
1489,375,4,1,1,50,1,0
5801,-100,4,1,1,10,0,0
7114,-100,4,1,1,50,0,0
49301,-100,4,1,1,10,0,0
50614,-100,4,1,1,50,0,0
50989,-100,4,1,1,60,0,1
62614,-100,4,1,1,30,0,1
62989,-100,4,1,1,60,0,1
69364,-100,4,1,1,45,0,1
70114,-100,4,1,1,60,0,1
73489,-100,4,1,1,30,0,1
73864,-100,4,1,1,40,0,1
74239,-100,4,1,1,50,0,1
74989,-100,4,1,1,60,0,0

[Colours]
Combo1 : 255,128,0
Combo2 : 255,128,128
Combo3 : 255,255,128

[HitObjects]
120,88,1489,1,0
180,248,1864,1,0
256,284,2051,1,0
332,248,2239,1,0
392,88,2614,1,0
436,252,2989,6,0,B|448:296|448:348,1,85
76,132,3551,2,0,B|64:88|64:36,1,85
256,192,4114,1,0
256,192,4489,1,0
256,192,4582,12,0,5801
256,192,5895,12,4,7114
152,96,7489,6,0,B|136:136|140:184,1,85
360,288,7864,2,0,B|376:248|372:200,1,85
360,120,8239,1,0
360,120,8332,1,0
360,120,8426,1,0
256,48,8614,1,0
384,40,8801,1,0
284,120,8989,5,0
156,104,9176,1,0
148,136,9270,1,0
152,168,9364,1,0
256,240,9551,1,0
420,192,9739,5,0
256,240,9926,1,0
420,284,10114,1,0
324,144,10301,1,0
320,316,10489,5,0
340,192,10676,1,0
212,176,10864,1,0
192,300,11051,1,0
356,256,11239,5,0
272,248,11426,1,0
376,176,11614,1,0
224,100,11801,1,0
60,152,11989,6,0,B|48:192|52:240,1,85
112,296,12364,2,0,B|114:337|134:381,1,85,0|0
212,348,12739,2,0,B|296:376|380:352,1,170
436,288,13301,1,0
352,48,13489,5,0
352,48,13864,1,0
428,148,14051,1,0
428,148,14145,1,0
428,148,14239,6,0,B|436:192|432:232,1,85
348,216,14614,2,0,B|346:260|355:299,1,85,0|0
476,336,14989,5,0
504,160,15270,1,0
504,160,15364,1,0
432,56,15551,1,0
432,56,15645,1,0
432,56,15739,6,0,B|344:52,1,85
284,164,16114,2,0,B|368:167,1,85
232,96,16489,2,0,B|184:116|176:168|184:208|224:236,2,170
256,352,17521,5,0
256,352,17614,2,0,B|300:348,3,42.5
340,340,17989,5,0
404,288,18176,1,0
172,44,18364,1,0
108,96,18551,1,0
232,120,18739,6,0,B|240:160|236:204,1,85
72,252,19114,2,0,B|64:212|68:168,1,85,0|0
152,188,19489,5,0
152,188,19676,1,0
264,248,19864,1,0
264,248,19957,1,0
264,248,20051,1,0
392,232,20239,6,0,B|408:192|400:148,1,85
312,56,20614,2,0,B|296:96|304:140,1,85,0|0
496,232,20989,5,0
396,312,21176,1,0
324,204,21364,1,0
424,124,21551,1,0
356,280,21739,6,0,B|272:296,1,85
156,104,22114,2,0,B|240:88,1,85
324,68,22489,5,0
256,16,22676,1,0
88,52,22864,1,0
28,212,23051,1,0
164,316,23239,6,0,B|204:328|252:324,1,85
348,68,23614,2,0,B|308:56|260:60,1,85
184,92,23989,5,0
328,292,24176,1,0
140,164,24364,1,0
372,220,24551,1,0
164,244,24739,1,0
348,140,24926,1,0
256,192,25114,5,0
48,48,25489,5,0
48,48,25864,1,0
68,216,26051,1,0
196,104,26239,1,0
296,332,26520,1,0
296,332,26614,2,0,B|316:296|312:248,1,85
216,52,26989,6,0,B|196:88|200:136,1,85
284,116,27364,1,0
132,44,27551,2,0,B|112:80|116:128,1,85
284,116,27926,1,0
284,116,28020,1,0
284,116,28114,1,0
444,172,28301,1,0
368,132,28489,6,0,B|392:168|392:216,1,85
372,44,28864,2,0,B|413:56|444:92,1,85
288,20,29239,1,0
180,88,29426,1,0
296,144,29614,1,0
441,90,29801,6,0,B|476:120|480:176|464:216|420:240,1,170
300,256,30364,1,0
71,294,30551,6,0,B|36:264|32:208|48:168|92:144,1,170
168,128,31114,1,0
168,128,31301,1,0
344,256,31489,5,0
344,256,31864,1,0
468,140,32051,1,0
304,88,32239,1,0
216,332,32520,1,0
216,332,32614,2,0,B|200:296|204:248,1,85
120,252,32989,6,0,B|109:163|154:85,1,170
212,24,33551,1,0
403,167,33739,2,0,B|372:86|296:40,1,170
96,20,34301,5,0
52,92,34489,2,0,B|44:136|56:176,1,85
116,336,34864,2,0,B|124:292|112:252,1,85
52,92,35239,1,0
16,256,35426,1,0
172,192,35614,1,0
172,192,35707,1,0
172,192,35801,1,0
172,276,35989,5,0
256,264,36176,1,0
340,276,36364,1,0
340,276,36551,1,0
360,192,36739,2,0,B|400:164|408:112|376:68|328:60,2,170
296,136,37676,5,0
276,164,37770,1,0
276,200,37864,1,0
360,192,38051,1,0
440,224,38239,5,0
304,324,38426,1,0
472,300,38614,1,0
312,244,38801,2,0,B|252:228|200:296|228:356,1,170
384,288,39364,1,0
384,288,39551,1,0
384,288,39739,5,0
60,192,40114,1,0
352,16,40489,5,0
424,64,40676,1,0
424,64,40770,1,0
424,64,40864,2,0,B|428:112|420:148,1,85
260,208,41239,2,0,B|256:160|264:124,2,85
192,256,41801,6,0,B|204:304|252:324|300:316|324:264,1,170
356,192,42364,1,0
256,112,42551,1,0
156,192,42739,1,0
456,36,43114,1,0
56,36,43489,1,0
224,56,43676,5,0
232,88,43770,1,0
228,120,43864,1,0
144,124,44051,2,0,B|92:124|64:172|68:228|120:256,1,170
180,200,44614,1,0
224,56,44801,1,0
56,76,44989,1,0
216,132,45176,5,0
328,192,45364,1,0
224,56,45551,2,0,B|176:40|132:64|116:108|136:156,1,170
160,236,46114,1,0
256,320,46301,1,0
352,236,46489,6,0,B|368:192|360:152,1,85
284,112,46864,2,0,B|268:156|276:196,1,85
432,264,47239,2,0,B|412:328|328:336|292:296,1,170
284,112,47801,1,0
200,88,47989,5,0
316,36,48176,1,0
256,148,48364,1,0
244,20,48551,1,0
328,116,48739,2,0,B|392:144|408:224|376:296|292:304,1,255
256,192,49489,12,0,50426
256,56,50614,6,0,B|264:96|260:148,1,85
116,232,50989,2,0,B|108:192|112:140,1,85,0|0
200,200,51364,1,0
200,200,51551,1,0
340,100,51739,1,0
172,104,51926,1,0
324,184,52114,6,0,B|364:200|412:192,1,85
256,112,52489,2,0,B|228:164|240:236,1,127.5
256,284,52864,1,0
340,340,53051,1,0
484,248,53239,1,0
452,80,53426,1,0
360,32,53614,6,0,B|352:76|360:120,1,85
452,80,53989,1,0
452,80,54176,1,0
232,12,54364,2,0,B|224:56|232:100,1,85,0|0
256,224,54739,1,0
304,108,54926,1,0
176,136,55114,1,0
256,224,55301,1,0
232,56,55489,6,0,B|144:64,1,85,0|0
316,48,55864,1,0
316,48,56051,1,0
276,144,56239,2,0,B|188:152,1,85,0|0
88,160,56614,6,0,B|80:204|88:256,1,85
132,336,56989,1,0
132,336,57082,1,0
132,336,57176,1,0
56,168,57364,6,0,B|56:216|86:244,1,85
200,304,57739,2,0,B|239:330|279:321,1,85,0|0
404,284,58114,6,0,B|448:266|463:227,1,85,0|0
416,24,58489,2,0,B|488:48|472:124,1,127.5
432,152,58864,1,0
312,192,59051,1,0
436,228,59239,1,0
360,128,59426,1,0
360,256,59614,5,0
504,168,59801,1,0
384,48,59989,2,0,B|264:24|348:84|216:56,1,170
220,56,60551,1,0
124,88,60739,6,0,B|140:132|184:148,1,85
388,88,61114,2,0,B|372:132|328:148,1,85
240,192,61489,5,0
300,80,61676,1,0
380,180,61864,1,0
224,112,62051,1,0
224,112,62145,1,0
224,112,62239,1,0
128,144,62426,1,0
120,272,62614,6,0,B|120:316,1,42.5
184,304,62801,2,0,B|196:344,1,42.5
256,324,62989,6,0,B|296:336|344:332,1,85
432,188,63364,2,0,B|392:176|344:180,1,85,0|0
260,232,63739,1,0
260,232,63832,1,0
260,232,63926,1,0
176,176,64114,6,0,B|156:216|164:260,1,85
204,352,64489,1,0
272,196,64676,1,0
124,280,64864,1,0
292,300,65051,1,0
176,176,65239,2,0,B|156:136,2,42.5
344,148,65614,6,0,B|356:192|348:240,1,85
440,276,65989,2,0,B|364:224|276:260,1,170
256,360,66551,1,0
348,124,66739,6,0,B|256:133|212:217,1,170,0|0
256,360,67301,1,0
352,324,67489,5,0
352,324,67864,1,0
256,184,68051,1,0
148,316,68239,1,0
244,280,68426,1,0
336,136,68614,6,0,B|376:144|420:144,1,85
492,72,68989,1,0
492,72,69364,5,0
500,104,69457,1,0
500,140,69551,1,0
484,172,69645,1,0
452,188,69739,1,0
420,188,69832,1,0
388,180,69926,1,0
384,76,70114,6,0,B|300:76,1,85
172,192,70489,2,0,B|312:192,1,127.5
352,192,70864,1,0
284,116,71051,1,0
212,272,71239,2,0,B|208:316,3,42.5
152,344,71614,6,0,B|64:328,1,85
212,272,71989,1,0
320,340,72176,1,0
272,220,72364,1,0
244,344,72551,1,0
340,260,72739,2,0,B|388:240|400:192|392:140|344:120,1,170
351,123,73301,1,0
256,60,73489,6,0,B|212:52,3,42.5
152,52,73864,2,0,B|112:64,3,42.5
52,84,74239,5,0
216,132,74426,1,0
96,12,74614,1,0
148,172,74801,1,0
188,8,74989,6,0,B|228:24|276:20,1,85
304,188,75364,2,0,B|320:148|316:100,1,85,0|0
256,264,75739,1,0
232,96,75926,1,0
388,164,76114,1,0
388,164,76207,1,0
388,164,76301,1,0
220,184,76489,6,0,B|184:196|136:192,1,85
16,72,76864,2,0,B|52:60|100:64,1,85,0|0
180,96,77239,1,0
180,96,77426,1,0
40,192,77614,1,0
256,328,77895,1,0
256,328,77989,6,0,B|296:340|344:336,1,85
308,248,78364,2,0,B|348:236|386:208,1,85,0|0
424,44,78739,1,0
340,136,78926,1,0
464,112,79114,1,0
348,60,79301,1,0
412,172,79489,5,0
464,112,79676,1,0
328,12,79864,1,0
164,52,80051,1,0
164,52,80239,1,0
256,192,80426,5,0
256,192,80614,1,0
40,328,80989,6,0,B|32:288|40:244,1,85
172,136,81364,2,0,B|180:176|172:220,1,85,0|0
140,52,81739,1,0
88,212,81926,1,0
256,192,82114,2,0,B|296:204,2,42.5
100,124,82489,6,0,B|20:100,1,85
176,32,82864,2,0,B|256:56,1,85,0|0
336,88,83239,1,0
336,88,83426,1,0
172,136,83614,1,0
352,332,83895,1,0
352,332,83989,6,0,B|376:296|372:248,1,85
368,164,84364,1,0
336,88,84551,2,0,B|400:64|468:120|436:200,1,170
300,268,85114,1,0
148,192,85301,1,0
256,124,85489,5,0
148,192,85676,1,0
200,76,85864,1,0
228,200,86051,1,0
132,116,86239,1,0
256,340,86614,5,0
