osu file format v9

[General]
AudioFilename: egao hyakkei.mp3
AudioLeadIn: 0
PreviewTime: 50614
Countdown: 0
SampleSet: Normal
StackLeniency: 0.7
Mode: 0
LetterboxInBreaks: 1

[Editor]
DistanceSpacing: 1
BeatDivisor: 4
GridSize: 4

[Metadata]
Title:Nippon Egao Hyakkei (TV Size)
Artist:MomoKuro-tei Ichimon
Creator:Thite
Version:Easy
Source:Joshiraku
Tags:ending wring

[Difficulty]
HPDrainRate:1
CircleSize:3
OverallDifficulty:1
ApproachRate:1
SliderMultiplier:0.799999999999999
SliderTickRate:2

[Events]
//Background and Video events
0,0,"BG.jpg"
Video,0,"nippon.avi"
//Break Periods
//Storyboard Layer 0 (Background)
//Storyboard Layer 1 (Fail)
//Storyboard Layer 2 (Pass)
//Storyboard Layer 3 (Foreground)
//Storyboard Sound Samples
//Background Colour Transformations
3,100,163,162,255

[TimingPoints]
1489,375,4,1,0,50,1,0
7114,-100,4,1,0,50,0,0
49301,-100,4,1,0,10,0,0
50614,-100,4,1,0,50,0,0
50989,-100,4,1,0,60,0,1
62614,-100,4,1,0,30,0,1
62989,-100,4,1,0,60,0,1
69364,-100,4,1,0,45,0,1
70114,-100,4,1,0,60,0,1
73489,-100,4,1,0,30,0,1
73864,-100,4,1,0,40,0,1
74239,-100,4,1,0,50,0,1
74614,-100,4,1,0,60,0,1
74989,-100,4,1,0,60,0,0

[Colours]
Combo1 : 255,128,0
Combo2 : 255,128,128
Combo3 : 255,255,128

[HitObjects]
108,88,1489,2,0,B|80:160|112:248,1,160
148,316,2614,1,0
228,332,2989,2,0,B|308:348|388:336,1,160
436,276,4114,1,0
464,200,4489,6,0,B|492:136|448:76|368:60|320:120,1,240
272,180,5989,2,0,B|208:208|148:164|132:84|192:36,1,240
256,80,7489,6,0,B|344:104|420:88,1,160
476,40,8614,1,0
492,120,8989,6,0,B|496:200|472:280,1,160
428,344,10114,1,0
356,312,10489,5,0
256,188,11239,1,0
156,312,11989,5,0
84,272,12364,1,0
96,192,12739,2,0,B|72:108,1,79.9999999999999
116,48,13489,6,0,B|196:68|276:52,1,160
352,28,14614,1,0
416,76,14989,6,0,B|436:152|420:244,1,160
372,300,16114,1,0
296,324,16489,2,0,B|264:340|216:336,2,79.9999999999999
312,244,17614,5,0
232,228,17989,2,0,B|192:156|208:72,1,160
256,12,19114,1,0
320,60,19489,6,0,B|396:88|484:80,1,160
500,160,20614,1,0
484,240,20989,6,0,B|408:212|320:220,1,160
256,260,22114,1,0
185,219,22489,6,0,B|152:232|108:232,1,79.9999999999999
108,152,23239,2,0,B|95:119|95:75,1,79.9999999999999
176,76,23989,2,0,B|256:56|336:68,1,160
412,96,25114,1,0
488,236,25864,5,0
372,344,26614,1,0
268,220,27364,1,0
384,112,28114,1,0
428,180,28489,6,0,B|440:220|432:260,2,79.9999999999999
348,192,29614,1,0
268,176,29989,2,0,B|256:136|264:96,2,79.9999999999999,0|0|0
284,256,31114,1,0
156,352,31864,5,0
44,236,32614,1,0
156,124,33364,1,0
268,240,34114,1,0
188,256,34489,6,0,B|180:296|192:336,1,79.9999999999999
272,324,35239,2,0,B|312:332|352:320,1,79.9999999999999,0|0
428,300,35989,2,0,B|464:224|440:140,1,160
412,68,37114,1,0
256,32,37864,5,0
180,56,38239,2,0,B|168:96|176:136,1,79.9999999999999
256,136,38989,2,0,B|272:208|256:296,1,160
200,352,40114,1,0
124,324,40489,6,0,B|88:332|44:324,2,79.9999999999999
176,264,41614,1,0
244,308,41989,2,0,B|272:232|256:148,1,160
240,72,43114,1,0
168,40,43489,6,0,B|128:28|84:32,2,79.9999999999999
152,120,44614,1,0
172,196,44989,6,0,B|212:208|256:204,1,79.9999999999999
268,284,45739,2,0,B|306:267|337:236,1,79.9999999999999
408,272,46489,6,0,B|440:192|416:112,2,160
352,328,48364,2,0,B|272:360|192:336,1,160,0|0
256,24,50614,5,0
180,52,50989,2,0,B|168:92|172:132,2,79.9999999999999
256,80,52114,5,0
312,136,52489,2,0,B|324:176|320:216,1,79.9999999999999
296,292,53239,1,0
256,364,53614,5,0
184,324,53989,2,0,B|104:304|12:340,2,160
312,224,56239,1,0
300,144,56614,5,0
256,76,56989,2,0,B|220:64|176:68,2,79.9999999999999
332,48,58114,5,0
408,72,58489,2,0,B|456:140|432:224,1,160
376,284,59614,1,0
308,328,59989,2,0,B|240:376|156:352,1,160
80,328,61114,1,0
52,252,61489,6,0,B|0:160|68:72|176:112,1,240
224,144,62989,5,0
288,192,63364,2,0,B|304:232|300:276,1,79.9999999999999
224,292,64114,2,0,B|208:332|212:376,2,79.9999999999999
300,270,65239,1,0
360,324,65614,5,0
432,288,65989,2,0,B|464:208|444:132,2,160
304,192,68239,1,0
224,192,68614,6,0,B|208:232|208:276,1,79.9999999999999
288,276,69364,2,0,B|328:292|372:292,1,79.9999999999999,0|0
400,220,70114,5,0
476,192,70489,2,0,B|484:100|412:44,1,160
344,20,71614,5,0
300,84,71989,2,0,B|220:100|140:76,1,160
84,20,73114,1,0
40,88,73489,6,0,B|8:164|24:256|96:304,1,240
176,308,74989,6,0,B|216:320|256:316,1,79.9999999999999
320,364,75739,2,0,B|358:347|386:318,1,79.9999999999999,0|0
456,284,76489,6,0,B|468:244|464:204,1,79.9999999999999
512,140,77239,2,0,B|495:101|466:73,1,79.9999999999999,0|0
392,52,77989,6,0,B|320:20|232:40,2,160
420,128,79864,1,0
428,208,80239,1,0
328,332,80989,6,0,B|292:344|248:340,1,79.9999999999999
172,360,81739,2,0,B|137:344|108:311,1,79.9999999999999,0|0
152,244,82489,6,0,B|140:208|144:164,1,79.9999999999999
124,88,83239,2,0,B|139:53|172:24,1,79.9999999999999,0|0
252,24,83989,6,0,B|288:100|256:184,2,160
172,24,85864,1,0
112,80,86239,1,0
132,156,86614,5,0
