osu file format v12

[General]
AudioFilename: YAYAYAYKAIYNAIOYBAUYBAUYB.mp3
AudioLeadIn: 0
PreviewTime: 26482
Countdown: 0
SampleSet: Normal
StackLeniency: 0.7
Mode: 1
LetterboxInBreaks: 0
WidescreenStoryboard: 0

[Editor]
DistanceSpacing: 1
BeatDivisor: 4
GridSize: 4
TimelineZoom: 1.8

[Metadata]
Title:Nippon Egao Hyakkei (TV Size)
TitleUnicode:ニッポン笑顔百景 (TV Size)
Artist:MomoKuro-tei Ichimon
ArtistUnicode:桃黒亭一門
Creator:Stefan
Version:Inner Oni
Source:Joshiraku
Tags:Ending Momoiro Clover Z Jugemu Jugemu Gokō-no surikire Kaijarisuigyo-no Suigyōmatsu Unraimatsu Fūraimatsu Kuunerutokoro-ni Sumutokoro Yaburakōji-no burakōji Paipopaipo Paipo-no-shūringan Shūringan-no Gūrindai Gūrindai-no Ponpokopī-no Ponpokonā-no Chōkyūmei-no Chōsuke Kenichi Maeyamada Rakugo Girls Koji Kumeta Yasu J.C. Staff Marii Buratei Kigurumi Harokitei Tetora Bohatei Gankyo Kurubiyutei Kukuru Anrakutei Ayane Sakura Kotori Koiwai Nozomi Yamamoto Yoshino Nanjo Saori Goto Tsutomu Mizushima Masaru Yokoyama MBS Gabe TheNutritiousGuy TNG Taiko
BeatmapID:261186
BeatmapSetID:97752

[Difficulty]
HPDrainRate:6
CircleSize:5
OverallDifficulty:6
ApproachRate:5
SliderMultiplier:1.6
SliderTickRate:1

[Events]
//Background and Video events
0,0,"Konachan.com - 145687 sample.jpg",0,-60
//Break Periods
//Storyboard Layer 0 (Background)
//Storyboard Layer 1 (Fail)
//Storyboard Layer 2 (Pass)
//Storyboard Layer 3 (Foreground)
//Storyboard Sound Samples
//Background Colour Transformations
3,100,163,162,255

[TimingPoints]
2482,375,4,1,0,100,1,0
51982,-100,4,1,0,100,0,1
75982,-66.6666666666667,4,1,0,100,0,0
78982,-100,4,1,0,100,0,0
81982,-66.6666666666667,4,1,0,100,0,0
84982,-100,4,1,0,100,0,0
87607,-66.6666666666667,4,1,0,100,0,0

[HitObjects]
256,192,2482,21,8,0:0:0:0:
256,192,2857,1,8,0:0:0:0:
256,192,3044,5,0,0:0:0:0:
256,192,3232,1,8,0:0:0:0:
256,192,3607,1,0,0:0:0:0:
256,192,3982,5,8,0:0:0:0:
256,192,4544,1,8,0:0:0:0:
256,192,4732,1,8,0:0:0:0:
256,192,5107,5,0,0:0:0:0:
256,192,5482,5,8,0:0:0:0:
256,192,5857,12,0,7732,0:0:0:0:
256,192,8107,5,12,0:0:0:0:
256,192,8482,1,0,0:0:0:0:
256,192,8575,1,0,0:0:0:0:
256,192,8669,5,8,0:0:0:0:
256,192,8857,1,8,0:0:0:0:
256,192,8950,5,8,0:0:0:0:
256,192,9044,1,0,0:0:0:0:
256,192,9232,5,8,0:0:0:0:
256,192,9325,5,0,0:0:0:0:
256,192,9513,1,0,0:0:0:0:
256,192,9607,5,8,0:0:0:0:
256,192,9794,5,8,0:0:0:0:
256,192,9982,1,0,0:0:0:0:
256,192,10075,1,0,0:0:0:0:
256,192,10169,5,8,0:0:0:0:
256,192,10263,5,8,0:0:0:0:
256,192,10357,5,0,0:0:0:0:
256,192,10450,1,0,0:0:0:0:
256,192,10544,1,8,0:0:0:0:
256,192,10732,5,8,0:0:0:0:
256,192,10825,5,0,0:0:0:0:
256,192,10919,5,8,0:0:0:0:
256,192,11013,1,8,0:0:0:0:
256,192,11107,5,0,0:0:0:0:
256,192,11294,5,8,0:0:0:0:
256,192,11482,5,0,0:0:0:0:
256,192,11669,5,8,0:0:0:0:
256,192,11763,5,8,0:0:0:0:
256,192,11857,1,8,0:0:0:0:
256,192,12044,5,0,0:0:0:0:
256,192,12231,5,8,0:0:0:0:
256,192,12325,5,8,0:0:0:0:
256,192,12419,1,0,0:0:0:0:
256,192,12607,1,8,0:0:0:0:
256,192,12794,5,8,0:0:0:0:
256,192,12982,1,0,0:0:0:0:
256,192,13075,1,0,0:0:0:0:
256,192,13169,1,0,0:0:0:0:
256,192,13263,5,0,0:0:0:0:
256,192,13357,1,8,0:0:0:0:
256,192,13450,1,8,0:0:0:0:
256,192,13544,1,0,0:0:0:0:
256,192,13638,1,8,0:0:0:0:
256,192,13732,5,0,0:0:0:0:
256,192,13825,5,8,0:0:0:0:
256,192,13919,5,0,0:0:0:0:
256,192,14013,1,0,0:0:0:0:
256,192,14107,5,8,0:0:0:0:
256,192,14294,5,8,0:0:0:0:
256,192,14482,5,0,0:0:0:0:
256,192,14575,1,0,0:0:0:0:
256,192,14669,5,8,0:0:0:0:
256,192,14857,5,0,0:0:0:0:
256,192,15044,5,8,0:0:0:0:
256,192,15138,1,0,0:0:0:0:
256,192,15232,1,8,0:0:0:0:
256,192,15419,5,0,0:0:0:0:
256,192,15607,5,8,0:0:0:0:
256,192,15795,5,0,0:0:0:0:
256,192,15982,5,8,0:0:0:0:
256,192,16076,5,0,0:0:0:0:
256,192,16169,5,0,0:0:0:0:
256,192,16264,5,8,0:0:0:0:
256,192,16357,1,0,0:0:0:0:
256,192,16544,5,8,0:0:0:0:
256,192,16732,5,8,0:0:0:0:
256,192,16826,5,0,0:0:0:0:
256,192,16920,5,8,0:0:0:0:
256,192,17014,5,8,0:0:0:0:
256,192,17107,1,0,0:0:0:0:
256,192,17294,5,8,0:0:0:0:
256,192,17482,5,0,0:0:0:0:
256,192,17669,5,8,0:0:0:0:
256,192,17763,5,8,0:0:0:0:
256,192,17857,1,8,0:0:0:0:
256,192,18044,5,0,0:0:0:0:
256,192,18231,5,8,0:0:0:0:
256,192,18419,5,0,0:0:0:0:
256,192,18607,5,12,0:0:0:0:
256,192,18794,5,0,0:0:0:0:
256,192,18982,5,8,0:0:0:0:
256,192,19075,5,0,0:0:0:0:
256,192,19169,1,0,0:0:0:0:
256,192,19263,1,0,0:0:0:0:
256,192,19357,5,8,0:0:0:0:
256,192,19450,1,8,0:0:0:0:
256,192,19544,1,8,0:0:0:0:
256,192,19638,1,8,0:0:0:0:
256,192,19732,5,0,0:0:0:0:
256,192,19825,5,8,0:0:0:0:
256,192,19919,5,0,0:0:0:0:
256,192,20013,5,8,0:0:0:0:
256,192,20107,5,8,0:0:0:0:
256,192,20294,5,8,0:0:0:0:
256,192,20482,5,0,0:0:0:0:
256,192,20669,5,8,0:0:0:0:
256,192,20763,5,0,0:0:0:0:
256,192,20857,5,8,0:0:0:0:
256,192,21044,5,0,0:0:0:0:
256,192,21232,1,0,0:0:0:0:
256,192,21419,5,8,0:0:0:0:
256,192,21513,5,0,0:0:0:0:
256,192,21607,1,8,0:0:0:0:
256,192,21794,1,8,0:0:0:0:
256,192,21982,5,0,0:0:0:0:
256,192,22169,1,0,0:0:0:0:
256,192,22263,1,0,0:0:0:0:
256,192,22357,5,8,0:0:0:0:
256,192,22544,1,0,0:0:0:0:
256,192,22732,1,8,0:0:0:0:
256,192,22919,5,0,0:0:0:0:
256,192,23013,1,0,0:0:0:0:
256,192,23107,5,8,0:0:0:0:
256,192,23294,5,8,0:0:0:0:
256,192,23482,1,0,0:0:0:0:
256,192,23669,1,0,0:0:0:0:
256,192,23763,1,8,0:0:0:0:
256,192,23857,5,8,0:0:0:0:
256,192,24044,5,8,0:0:0:0:
256,192,24232,1,0,0:0:0:0:
256,192,24325,1,0,0:0:0:0:
256,192,24419,5,8,0:0:0:0:
256,192,24513,5,0,0:0:0:0:
256,192,24607,5,8,0:0:0:0:
256,192,24700,5,8,0:0:0:0:
256,192,24794,1,0,0:0:0:0:
256,192,24888,5,0,0:0:0:0:
256,192,24982,1,8,0:0:0:0:
256,192,25169,5,0,0:0:0:0:
256,192,25357,1,0,0:0:0:0:
256,192,25544,5,8,0:0:0:0:
256,192,25732,5,0,0:0:0:0:
256,192,25919,5,12,0:0:0:0:
256,192,26107,1,12,0:0:0:0:
256,192,26294,1,12,0:0:0:0:
256,192,26482,5,4,0:0:0:0:
256,192,26669,5,8,0:0:0:0:
256,192,26763,5,8,0:0:0:0:
256,192,26857,1,0,0:0:0:0:
256,192,27044,5,8,0:0:0:0:
256,192,27232,5,8,0:0:0:0:
256,192,27325,5,8,0:0:0:0:
256,192,27419,5,0,0:0:0:0:
256,192,27513,5,0,0:0:0:0:
256,192,27607,5,8,0:0:0:0:
256,192,27794,5,0,0:0:0:0:
256,192,27982,5,8,0:0:0:0:
256,192,28169,5,8,0:0:0:0:
256,192,28263,1,8,0:0:0:0:
256,192,28357,1,8,0:0:0:0:
256,192,28544,1,0,0:0:0:0:
256,192,28732,5,8,0:0:0:0:
256,192,29107,5,8,0:0:0:0:
256,192,29482,5,0,0:0:0:0:
256,192,29669,5,8,0:0:0:0:
256,192,29763,1,8,0:0:0:0:
256,192,29857,5,0,0:0:0:0:
256,192,30044,5,8,0:0:0:0:
256,192,30232,5,0,0:0:0:0:
256,192,30325,5,0,0:0:0:0:
256,192,30419,5,8,0:0:0:0:
256,192,30513,1,8,0:0:0:0:
256,192,30607,5,0,0:0:0:0:
256,192,30700,1,0,0:0:0:0:
256,192,30794,5,8,0:0:0:0:
256,192,30982,5,0,0:0:0:0:
256,192,31169,5,8,0:0:0:0:
256,192,31263,5,0,0:0:0:0:
256,192,31357,5,0,0:0:0:0:
256,192,31544,5,8,0:0:0:0:
256,192,31732,1,0,0:0:0:0:
256,192,31825,5,0,0:0:0:0:
256,192,31919,5,8,0:0:0:0:
256,192,32107,5,8,0:0:0:0:
256,192,32294,5,0,0:0:0:0:
256,192,32482,5,4,0:0:0:0:
256,192,32669,5,8,0:0:0:0:
256,192,32763,5,8,0:0:0:0:
256,192,32857,1,0,0:0:0:0:
256,192,33044,5,8,0:0:0:0:
256,192,33232,5,8,0:0:0:0:
256,192,33325,5,8,0:0:0:0:
256,192,33419,5,0,0:0:0:0:
256,192,33513,5,0,0:0:0:0:
256,192,33607,5,8,0:0:0:0:
256,192,33794,5,0,0:0:0:0:
256,192,33982,5,8,0:0:0:0:
256,192,34169,5,8,0:0:0:0:
256,192,34263,1,8,0:0:0:0:
256,192,34357,1,8,0:0:0:0:
256,192,34544,1,0,0:0:0:0:
256,192,34732,5,8,0:0:0:0:
256,192,35107,5,8,0:0:0:0:
256,192,35482,12,0,36607,0:0:0:0:
256,192,36982,5,8,0:0:0:0:
256,192,37169,1,0,0:0:0:0:
256,192,37357,5,8,0:0:0:0:
256,192,37544,1,8,0:0:0:0:
256,192,37732,5,0,0:0:0:0:
256,192,38107,5,12,0:0:0:0:
256,192,38482,5,4,0:0:0:0:
256,192,38669,1,0,0:0:0:0:
256,192,38763,1,0,0:0:0:0:
256,192,38857,5,8,0:0:0:0:
256,192,39044,5,0,0:0:0:0:
256,192,39232,1,8,0:0:0:0:
256,192,39325,1,0,0:0:0:0:
256,192,39419,1,0,0:0:0:0:
256,192,39513,1,8,0:0:0:0:
256,192,39607,5,0,0:0:0:0:
256,192,39794,1,8,0:0:0:0:
256,192,39982,5,0,0:0:0:0:
256,192,40169,5,8,0:0:0:0:
256,192,40263,5,0,0:0:0:0:
256,192,40357,5,0,0:0:0:0:
256,192,40450,5,8,0:0:0:0:
256,192,40544,5,0,0:0:0:0:
256,192,40732,5,8,0:0:0:0:
256,192,41107,1,12,0:0:0:0:
256,192,41482,5,0,0:0:0:0:
256,192,41669,1,8,0:0:0:0:
256,192,41763,1,0,0:0:0:0:
256,192,41857,5,8,0:0:0:0:
256,192,41950,5,8,0:0:0:0:
256,192,42044,5,0,0:0:0:0:
256,192,42138,5,0,0:0:0:0:
256,192,42232,5,8,0:0:0:0:
256,192,42325,1,8,0:0:0:0:
256,192,42419,1,0,0:0:0:0:
256,192,42513,5,8,0:0:0:0:
256,192,42607,5,0,0:0:0:0:
256,192,42794,1,8,0:0:0:0:
256,192,42982,5,0,0:0:0:0:
256,192,43169,5,8,0:0:0:0:
256,192,43263,5,8,0:0:0:0:
256,192,43357,5,0,0:0:0:0:
256,192,43544,5,8,0:0:0:0:
256,192,43732,5,0,0:0:0:0:
256,192,44107,1,12,0:0:0:0:
256,192,44482,5,0,0:0:0:0:
256,192,44669,1,0,0:0:0:0:
256,192,44763,1,0,0:0:0:0:
256,192,44857,5,8,0:0:0:0:
256,192,45044,5,0,0:0:0:0:
256,192,45232,1,8,0:0:0:0:
256,192,45419,1,0,0:0:0:0:
256,192,45513,1,0,0:0:0:0:
256,192,45607,5,8,0:0:0:0:
256,192,45794,1,8,0:0:0:0:
256,192,45982,5,0,0:0:0:0:
256,192,46169,5,0,0:0:0:0:
256,192,46263,5,0,0:0:0:0:
256,192,46357,5,8,0:0:0:0:
256,192,46544,1,8,0:0:0:0:
256,192,46638,1,0,0:0:0:0:
256,192,46732,5,8,0:0:0:0:
256,192,46825,5,8,0:0:0:0:
256,192,46919,5,0,0:0:0:0:
256,192,47013,5,0,0:0:0:0:
256,192,47107,1,8,0:0:0:0:
256,192,47200,5,0,0:0:0:0:
256,192,47294,1,8,0:0:0:0:
256,192,47482,5,0,0:0:0:0:
252,192,47669,5,8,0:0:0:0:
252,192,47857,5,0,0:0:0:0:
252,192,48044,1,0,0:0:0:0:
252,192,48232,5,8,0:0:0:0:
252,192,48607,1,8,0:0:0:0:
252,192,48794,1,8,0:0:0:0:
252,192,48982,1,0,0:0:0:0:
252,192,49169,5,0,0:0:0:0:
252,192,49357,5,8,0:0:0:0:
256,192,49544,12,0,51232,0:0:0:0:
252,192,51607,5,8,0:0:0:0:
252,192,51794,1,8,0:0:0:0:
252,192,51982,5,4,0:0:0:0:
252,192,52169,1,0,0:0:0:0:
252,192,52263,5,8,0:0:0:0:
252,192,52357,1,8,0:0:0:0:
252,192,52544,1,8,0:0:0:0:
252,192,52732,5,0,0:0:0:0:
252,192,52920,1,0,0:0:0:0:
252,192,53013,5,8,0:0:0:0:
256,192,53107,5,8,0:0:0:0:
256,192,53294,1,8,0:0:0:0:
256,192,53482,1,8,0:0:0:0:
256,192,53575,5,0,0:0:0:0:
256,192,53669,1,0,0:0:0:0:
256,192,53763,1,0,0:0:0:0:
256,192,53857,5,8,0:0:0:0:
256,192,53950,1,8,0:0:0:0:
256,192,54044,1,0,0:0:0:0:
256,192,54138,5,0,0:0:0:0:
256,192,54232,5,8,0:0:0:0:
256,192,54419,5,0,0:0:0:0:
256,192,54512,1,0,0:0:0:0:
256,192,54606,5,8,0:0:0:0:
256,192,54700,5,0,0:0:0:0:
256,192,54794,5,8,0:0:0:0:
256,192,54982,5,0,0:0:0:0:
256,192,55169,1,0,0:0:0:0:
256,192,55263,5,8,0:0:0:0:
256,192,55357,1,8,0:0:0:0:
256,192,55544,1,8,0:0:0:0:
256,192,55732,1,0,0:0:0:0:
256,192,55919,5,0,0:0:0:0:
256,192,56013,5,8,0:0:0:0:
256,192,56107,1,8,0:0:0:0:
256,192,56294,1,8,0:0:0:0:
256,192,56482,1,8,0:0:0:0:
256,192,56575,1,0,0:0:0:0:
256,192,56669,1,8,0:0:0:0:
256,192,56763,1,8,0:0:0:0:
256,192,56857,5,0,0:0:0:0:
256,192,56950,5,0,0:0:0:0:
256,192,57044,5,8,0:0:0:0:
256,192,57138,5,8,0:0:0:0:
256,192,57232,5,8,0:0:0:0:
256,192,57419,5,0,0:0:0:0:
256,192,57607,1,8,0:0:0:0:
256,192,57700,5,0,0:0:0:0:
256,192,57794,5,8,0:0:0:0:
256,192,57982,5,0,0:0:0:0:
256,192,58357,5,12,0:0:0:0:
256,192,58544,5,0,0:0:0:0:
256,192,58732,5,12,0:0:0:0:
252,192,58919,1,0,0:0:0:0:
256,192,59107,5,8,0:0:0:0:
252,192,59294,5,8,0:0:0:0:
252,192,59482,5,4,0:0:0:0:
252,192,59669,5,8,0:0:0:0:
252,192,59763,1,8,0:0:0:0:
252,192,59857,1,8,0:0:0:0:
252,192,60044,1,8,0:0:0:0:
252,192,60232,5,0,0:0:0:0:
252,192,60513,5,0,0:0:0:0:
256,192,60607,5,8,0:0:0:0:
256,192,60794,5,8,0:0:0:0:
256,192,60982,1,8,0:0:0:0:
256,192,61169,1,0,0:0:0:0:
256,192,61357,5,8,0:0:0:0:
256,192,61544,5,8,0:0:0:0:
256,192,61638,1,8,0:0:0:0:
256,192,61732,1,8,0:0:0:0:
252,192,61919,5,0,0:0:0:0:
252,192,62107,5,8,0:0:0:0:
252,192,62294,1,8,0:0:0:0:
256,192,62482,1,12,0:0:0:0:
256,192,62669,1,12,0:0:0:0:
256,192,62857,1,12,0:0:0:0:
256,192,63044,1,8,0:0:0:0:
256,192,63138,1,8,0:0:0:0:
256,192,63232,5,0,0:0:0:0:
256,192,63325,5,8,0:0:0:0:
256,192,63419,1,8,0:0:0:0:
256,192,63607,1,12,0:0:0:0:
256,192,63794,1,12,0:0:0:0:
256,192,63982,5,4,0:0:0:0:
256,192,64169,1,0,0:0:0:0:
256,192,64263,5,8,0:0:0:0:
256,192,64357,1,8,0:0:0:0:
256,192,64544,1,8,0:0:0:0:
256,192,64732,1,0,0:0:0:0:
256,192,64919,5,0,0:0:0:0:
256,192,65013,5,8,0:0:0:0:
256,192,65107,1,8,0:0:0:0:
256,192,65294,1,8,0:0:0:0:
256,192,65482,1,8,0:0:0:0:
256,192,65575,5,0,0:0:0:0:
256,192,65669,5,0,0:0:0:0:
256,192,65763,5,0,0:0:0:0:
256,192,65857,5,8,0:0:0:0:
256,192,65950,5,0,0:0:0:0:
256,192,66044,1,8,0:0:0:0:
256,192,66138,5,0,0:0:0:0:
256,192,66232,1,8,0:0:0:0:
256,192,66419,5,0,0:0:0:0:
256,192,66512,1,0,0:0:0:0:
256,192,66606,5,8,0:0:0:0:
256,192,66700,5,0,0:0:0:0:
256,192,66794,5,8,0:0:0:0:
256,192,66982,5,0,0:0:0:0:
256,192,67169,1,0,0:0:0:0:
256,192,67263,5,8,0:0:0:0:
256,192,67357,1,8,0:0:0:0:
256,192,67544,1,8,0:0:0:0:
256,192,67732,1,0,0:0:0:0:
256,192,67919,5,0,0:0:0:0:
256,192,68013,5,8,0:0:0:0:
256,192,68107,1,8,0:0:0:0:
256,192,68294,1,8,0:0:0:0:
256,192,68482,5,0,0:0:0:0:
256,192,68857,5,8,0:0:0:0:
256,192,69232,1,8,0:0:0:0:
256,192,69513,1,8,0:0:0:0:
256,192,69607,1,8,0:0:0:0:
256,192,69794,1,0,0:0:0:0:
256,192,69982,1,8,0:0:0:0:
256,192,70357,1,8,0:0:0:0:
256,192,70450,5,0,0:0:0:0:
256,192,70544,5,0,0:0:0:0:
256,192,70638,5,0,0:0:0:0:
256,192,70732,5,8,0:0:0:0:
256,192,71107,1,8,0:0:0:0:
256,192,71200,1,0,0:0:0:0:
256,192,71294,5,0,0:0:0:0:
256,192,71482,1,4,0:0:0:0:
256,192,71669,5,8,0:0:0:0:
256,192,71763,5,0,0:0:0:0:
256,192,71857,5,8,0:0:0:0:
256,192,72044,5,0,0:0:0:0:
256,192,72232,5,8,0:0:0:0:
256,192,72419,1,8,0:0:0:0:
256,192,72513,1,8,0:0:0:0:
256,192,72607,5,0,0:0:0:0:
256,192,72794,5,8,0:0:0:0:
256,192,72982,1,8,0:0:0:0:
256,192,73169,5,0,0:0:0:0:
256,192,73357,5,8,0:0:0:0:
256,192,73450,1,8,0:0:0:0:
256,192,73544,5,0,0:0:0:0:
256,192,73732,5,8,0:0:0:0:
256,192,73919,1,8,0:0:0:0:
256,192,74107,5,0,0:0:0:0:
256,192,74294,5,8,0:0:0:0:
256,192,74482,5,0,0:0:0:0:
256,192,74575,1,0,0:0:0:0:
256,192,74669,5,8,0:0:0:0:
256,192,74763,5,0,0:0:0:0:
256,192,74857,5,8,0:0:0:0:
256,192,74950,1,8,0:0:0:0:
256,192,75044,1,8,0:0:0:0:
256,192,75138,1,8,0:0:0:0:
256,192,75231,5,0,0:0:0:0:
256,192,75325,1,0,0:0:0:0:
256,192,75419,5,8,0:0:0:0:
256,192,75513,5,0,0:0:0:0:
256,192,75606,5,8,0:0:0:0:
256,192,75982,5,4,0:0:0:0:
256,192,76169,1,4,0:0:0:0:
256,192,76357,1,4,0:0:0:0:
256,192,76732,5,8,0:0:0:0:
256,192,76919,5,0,0:0:0:0:
256,192,77106,5,8,0:0:0:0:
256,192,77482,5,4,0:0:0:0:
256,192,77669,1,4,0:0:0:0:
256,192,77857,1,4,0:0:0:0:
256,192,78232,5,8,0:0:0:0:
256,192,78419,5,0,0:0:0:0:
256,192,78606,5,8,0:0:0:0:
256,192,78982,5,4,0:0:0:0:
256,192,79169,1,0,0:0:0:0:
256,192,79357,5,8,0:0:0:0:
256,192,79544,1,8,0:0:0:0:
256,192,79732,5,0,0:0:0:0:
256,192,79919,1,0,0:0:0:0:
256,192,80013,1,0,0:0:0:0:
256,192,80107,5,8,0:0:0:0:
256,192,80294,1,8,0:0:0:0:
256,192,80482,5,0,0:0:0:0:
256,192,80575,1,0,0:0:0:0:
256,192,80669,5,8,0:0:0:0:
256,192,80763,5,0,0:0:0:0:
256,192,80857,5,8,0:0:0:0:
256,192,80950,1,8,0:0:0:0:
256,192,81044,1,0,0:0:0:0:
256,192,81138,5,8,0:0:0:0:
256,192,81232,1,0,0:0:0:0:
256,192,81419,5,8,0:0:0:0:
256,192,81607,1,8,0:0:0:0:
256,192,81982,5,4,0:0:0:0:
256,192,82169,1,4,0:0:0:0:
256,192,82357,1,4,0:0:0:0:
256,192,82732,5,8,0:0:0:0:
256,192,82919,5,0,0:0:0:0:
256,192,83106,5,8,0:0:0:0:
256,192,83482,5,4,0:0:0:0:
256,192,83669,1,4,0:0:0:0:
256,192,83857,1,4,0:0:0:0:
256,192,84232,5,8,0:0:0:0:
256,192,84419,5,0,0:0:0:0:
256,192,84606,5,8,0:0:0:0:
256,192,84982,5,4,0:0:0:0:
256,192,85169,1,0,0:0:0:0:
256,192,85263,5,8,0:0:0:0:
256,192,85357,5,0,0:0:0:0:
256,192,85544,5,8,0:0:0:0:
256,192,85732,5,0,0:0:0:0:
256,192,85919,5,8,0:0:0:0:
256,192,86107,5,0,0:0:0:0:
256,192,86294,5,8,0:0:0:0:
256,192,86482,5,8,0:0:0:0:
256,192,86575,1,0,0:0:0:0:
256,192,86669,5,8,0:0:0:0:
256,192,86763,5,0,0:0:0:0:
256,192,86857,5,8,0:0:0:0:
256,192,86950,1,8,0:0:0:0:
256,192,87044,1,0,0:0:0:0:
256,192,87138,5,8,0:0:0:0:
256,192,87232,5,0,0:0:0:0:
256,192,87607,1,12,0:0:0:0:
