osu file format v12

[General]
AudioFilename: YAYAYAYKAIYNAIOYBAUYBAUYB.mp3
AudioLeadIn: 0
PreviewTime: 26482
Countdown: 0
SampleSet: Normal
StackLeniency: 0.7
Mode: 1
LetterboxInBreaks: 0
WidescreenStoryboard: 0

[Editor]
DistanceSpacing: 1
BeatDivisor: 1
GridSize: 4
TimelineZoom: 1

[Metadata]
Title:Nippon Egao Hyakkei (TV Size)
TitleUnicode:ニッポン笑顔百景 (TV Size)
Artist:MomoKuro-tei Ichimon
ArtistUnicode:桃黒亭一門
Creator:Stefan
Version:Gabe's Kantan
Source:Joshiraku
Tags:Ending Momoiro Clover Z Jugemu Jugemu Gokō-no surikire Kaijarisuigyo-no Suigyōmatsu Unraimatsu Fūraimatsu Kuunerutokoro-ni Sumutokoro Yaburakōji-no burakōji Paipopaipo Paipo-no-shūringan Shūringan-no Gūrindai Gūrindai-no Ponpokopī-no Ponpokonā-no Chōkyūmei-no Chōsuke Kenichi Maeyamada Rakugo Girls Koji Kumeta Yasu J.C. Staff Marii Buratei Kigurumi Harokitei Tetora Bohatei Gankyo Kurubiyutei Kukuru Anrakutei Ayane Sakura Kotori Koiwai Nozomi Yamamoto Yoshino Nanjo Saori Goto Tsutomu Mizushima Masaru Yokoyama MBS Gabe TheNutritiousGuy TNG Taiko
BeatmapID:261184
BeatmapSetID:97752

[Difficulty]
HPDrainRate:3
CircleSize:5
OverallDifficulty:3
ApproachRate:5
SliderMultiplier:1.2
SliderTickRate:1

[Events]
//Background and Video events
0,0,"Konachan.com - 145687 sample.jpg",0,-60
//Break Periods
//Storyboard Layer 0 (Background)
//Storyboard Layer 1 (Fail)
//Storyboard Layer 2 (Pass)
//Storyboard Layer 3 (Foreground)
//Storyboard Sound Samples
//Background Colour Transformations
3,100,163,162,255

[TimingPoints]
2482,375,4,1,0,100,1,0
51982,-100,4,1,0,100,0,1
75982,-100,4,1,0,100,0,0

[HitObjects]
256,200,2482,5,8,0:0:0:0:
256,200,3232,1,0,0:0:0:0:
256,200,3982,5,0,0:0:0:0:
256,200,4732,5,0,0:0:0:0:
256,200,5107,1,8,0:0:0:0:
256,192,5482,12,0,8107,0:0:0:0:
256,192,8482,5,0,0:0:0:0:
256,192,9232,1,8,0:0:0:0:
256,192,9982,1,0,0:0:0:0:
256,192,10732,1,0,0:0:0:0:
256,192,11107,1,0,0:0:0:0:
256,192,11482,1,0,0:0:0:0:
256,192,12232,1,8,0:0:0:0:
256,192,12982,1,0,0:0:0:0:
256,192,13732,1,0,0:0:0:0:
256,192,14482,1,0,0:0:0:0:
256,192,15232,1,8,0:0:0:0:
256,192,15982,1,0,0:0:0:0:
256,192,16732,1,0,0:0:0:0:
256,192,17107,1,0,0:0:0:0:
256,192,17482,1,0,0:0:0:0:
256,192,18232,1,8,0:0:0:0:
256,192,18982,1,0,0:0:0:0:
256,192,20107,1,8,0:0:0:0:
256,192,20482,1,0,0:0:0:0:
256,192,21232,1,8,0:0:0:0:
256,192,21982,1,0,0:0:0:0:
256,192,22732,1,0,0:0:0:0:
256,192,23107,1,8,0:0:0:0:
256,192,23482,1,0,0:0:0:0:
256,192,24232,1,0,0:0:0:0:
256,192,24982,1,8,0:0:0:0:
256,192,25732,1,8,0:0:0:0:
256,192,26482,1,4,0:0:0:0:
256,192,27607,1,0,0:0:0:0:
256,192,27982,1,8,0:0:0:0:
256,192,28732,1,0,0:0:0:0:
256,192,29482,1,8,0:0:0:0:
256,192,30982,1,0,0:0:0:0:
256,192,31732,1,0,0:0:0:0:
256,192,32482,1,4,0:0:0:0:
256,192,33607,1,0,0:0:0:0:
256,192,33982,1,8,0:0:0:0:
256,192,34732,1,0,0:0:0:0:
256,192,35482,1,0,0:0:0:0:
256,192,36982,1,0,0:0:0:0:
256,192,37732,1,0,0:0:0:0:
256,192,38107,1,8,0:0:0:0:
256,192,38482,1,0,0:0:0:0:
256,192,39232,1,0,0:0:0:0:
256,192,39982,1,0,0:0:0:0:
256,192,40732,1,0,0:0:0:0:
256,192,41107,1,8,0:0:0:0:
256,192,41482,1,0,0:0:0:0:
256,192,42232,1,8,0:0:0:0:
256,192,42982,1,0,0:0:0:0:
256,192,43732,1,0,0:0:0:0:
256,192,44107,1,8,0:0:0:0:
256,192,44482,1,0,0:0:0:0:
256,192,45232,1,0,0:0:0:0:
256,192,45982,1,0,0:0:0:0:
256,192,46732,1,0,0:0:0:0:
256,192,47482,1,8,0:0:0:0:
256,192,48982,12,0,50482,0:0:0:0:
256,192,51607,5,8,0:0:0:0:
256,192,51982,1,4,0:0:0:0:
256,192,52732,1,0,0:0:0:0:
256,192,53482,1,0,0:0:0:0:
256,192,54232,1,8,0:0:0:0:
256,192,54607,1,0,0:0:0:0:
256,192,54982,1,0,0:0:0:0:
256,192,55732,1,0,0:0:0:0:
256,192,56482,1,0,0:0:0:0:
256,192,57232,1,8,0:0:0:0:
256,192,57607,1,0,0:0:0:0:
256,192,57982,1,0,0:0:0:0:
256,192,59482,1,0,0:0:0:0:
256,192,60232,1,0,0:0:0:0:
256,192,60982,1,8,0:0:0:0:
256,192,62482,5,8,0:0:0:0:
256,192,63232,1,8,0:0:0:0:
256,192,63982,1,4,0:0:0:0:
256,192,65482,1,0,0:0:0:0:
256,192,66232,1,8,0:0:0:0:
256,192,66607,1,0,0:0:0:0:
256,192,66982,1,0,0:0:0:0:
256,192,67732,1,0,0:0:0:0:
256,192,68482,1,0,0:0:0:0:
256,192,69232,1,8,0:0:0:0:
256,192,69607,1,0,0:0:0:0:
256,192,69982,1,0,0:0:0:0:
256,192,71482,1,0,0:0:0:0:
256,192,72232,1,0,0:0:0:0:
256,192,72982,1,8,0:0:0:0:
256,192,73732,1,0,0:0:0:0:
256,192,74482,1,0,0:0:0:0:
256,192,75607,1,8,0:0:0:0:
256,192,75982,1,0,0:0:0:0:
256,192,77482,1,0,0:0:0:0:
256,192,78982,1,0,0:0:0:0:
256,192,79732,1,8,0:0:0:0:
256,192,80482,1,0,0:0:0:0:
256,192,81232,1,8,0:0:0:0:
256,192,81607,1,0,0:0:0:0:
256,192,81982,1,0,0:0:0:0:
256,192,83482,1,0,0:0:0:0:
256,192,84982,1,0,0:0:0:0:
256,192,85732,1,8,0:0:0:0:
256,192,86482,1,0,0:0:0:0:
256,192,87232,1,0,0:0:0:0:
256,192,87607,1,8,0:0:0:0:
