osu file format v12

[General]
AudioFilename: thissongmakesmehappy.mp3
AudioLeadIn: 1000
PreviewTime: 51607
Countdown: 0
SampleSet: Soft
StackLeniency: 0.7
Mode: 0
LetterboxInBreaks: 0

[Editor]
DistanceSpacing: 1
BeatDivisor: 4
GridSize: 4

[Metadata]
Title:Nippon Egao Hyakkei (TV Size)
TitleUnicode:ニッポン笑顔百景 (TV Size)
Artist:MomoKuro-tei Ichimon
ArtistUnicode:桃黒亭一門
Creator:CXu
Version:Insane
Source:Joshiraku
Tags:Ending Momoiro Clover Z Jugemu Jugemu Gokō-no surikire Kaijarisuigyo-no Suigyōmatsu Unraimatsu Fūraimatsu Kuunerutokoro-ni Sumutokoro Yaburakōji-no burakōji Paipopaipo Paipo-no-shūringan Shūringan-no Gūrindai Gūrindai-no Ponpokopī-no Ponpokonā-no Chōkyūmei-no Chōsuke KinomiCandy Love Kenichi Maeyamada
BeatmapID:211395
BeatmapSetID:74301

[Difficulty]
HPDrainRate:7
CircleSize:4
OverallDifficulty:7
ApproachRate:8
SliderMultiplier:1.8
SliderTickRate:2

[Events]
//Background and Video events
0,0,"Joshiraku.full.1216942.jpg",0,0
Video,0,"joshirakued.avi"
//Break Periods
//Storyboard Layer 0 (Background)
//Storyboard Layer 1 (Fail)
//Storyboard Layer 2 (Pass)
//Storyboard Layer 3 (Foreground)
//Storyboard Sound Samples
//Background Colour Transformations
3,100,163,162,255

[TimingPoints]
2482,375,4,2,1,60,1,0
14107,-66.6666666666667,4,2,1,60,0,0
14294,-100,4,2,1,60,0,0
18607,-66.6666666666667,4,2,1,60,0,0
18888,-100,4,2,1,60,0,0
18982,-100,4,2,1,30,0,0
20482,-100,4,2,1,60,0,0
24982,-66.6666666666667,4,2,1,80,0,0
26013,-66.6666666666667,4,2,1,30,0,0
26482,-100,4,2,1,60,0,0
44107,-66.6666666666667,4,2,1,60,0,0
44294,-100,4,2,1,60,0,0
47482,-100,4,2,1,40,0,0
51607,-100,4,2,1,20,0,0
51794,-100,4,2,1,80,0,0
51982,-83.3333333333333,4,2,1,100,0,1
58357,-50,4,2,1,100,0,1
58919,-83.3333333333333,4,2,1,100,0,1
63888,-83.3333333333333,4,2,1,100,0,0
63982,-83.3333333333333,4,2,1,100,0,1
69982,-200,4,2,1,60,0,1
71107,-83.3333333333333,4,2,1,100,0,1
75888,-100,4,2,1,70,0,0
75982,-100,4,2,1,100,0,1
76732,-100,4,2,1,70,0,0
77482,-100,4,2,1,100,0,1
78232,-100,4,2,1,70,0,0
78982,-100,4,2,1,100,0,1
81419,-100,4,2,1,70,0,0
81982,-100,4,2,1,100,0,1
82732,-100,4,2,1,70,0,0
83482,-100,4,2,1,100,0,1
84232,-100,4,2,1,70,0,0
84982,-100,4,2,1,100,0,1
87232,-100,4,2,1,100,0,0
87607,-100,4,2,1,100,0,1
87700,-100,4,2,1,5,0,1
87982,-100,4,2,1,5,0,0

[Colours]
Combo1 : 131,106,196
Combo2 : 0,189,151
Combo3 : 255,233,104
Combo4 : 225,83,86
Combo5 : 191,91,141

[HitObjects]
256,56,2482,1,4,0:0:0:0:
184,248,2857,1,0,0:0:0:0:
256,328,3044,1,0,0:0:0:0:
328,248,3232,1,0,0:0:0:0:
68,56,3607,1,4,0:0:0:0:
444,56,3982,1,4,0:0:0:0:
444,56,4544,1,0,0:0:0:0:
444,164,4732,1,0,0:0:0:0:
68,164,5107,1,4,0:0:0:0:
256,328,5482,1,0,0:0:0:0:
256,192,6794,12,2,8107,0:1:0:0:
96,320,8482,5,0,0:0:0:0:
104,288,8575,1,0,0:0:0:0:
112,256,8669,1,0,0:0:0:0:
164,64,8857,1,8,0:0:0:0:
172,96,8950,1,0,0:0:0:0:
180,128,9044,1,0,0:0:0:0:
256,244,9232,1,0,0:0:0:0:
256,244,9325,2,0,P|288:256|352:252,1,90
384,232,9607,2,0,L|412:204,1,30,8|0,0:0|0:0,0:0:0:0:
460,160,9763,2,0,L|480:188,1,30
488,280,9982,6,0,P|480:332|440:352,1,90
420,348,10263,1,0,0:0:0:0:
388,344,10357,1,8,0:0:0:0:
92,348,10544,1,0,0:0:0:0:
124,344,10638,1,0,0:0:0:0:
156,340,10732,1,0,0:0:0:0:
328,292,10919,1,0,0:0:0:0:
184,236,11107,1,8,0:0:0:0:
328,184,11294,1,0,0:0:0:0:
184,84,11482,6,0,P|128:72|80:84,1,90
68,92,11763,1,0,0:0:0:0:
44,116,11857,1,8,0:0:0:0:
132,180,12044,1,0,0:0:0:0:
52,252,12232,6,0,L|116:328,1,90
109,320,12513,1,0,0:0:0:0:
109,320,12607,1,8,0:0:0:0:
212,360,12794,1,0,0:0:0:0:
316,332,12982,6,0,P|360:308|376:276,1,75
380,256,13232,1,0,0:0:0:0:
384,224,13325,1,8,0:0:0:0:
380,192,13419,1,0,0:0:0:0:
372,160,13513,1,0,0:0:0:0:
352,136,13607,1,0,0:0:0:0:
324,120,13700,6,0,L|256:104,1,60,8|0,0:0|0:0,0:0:0:0:
236,100,13919,1,0,0:0:0:0:
204,96,14013,1,0,0:0:0:0:
168,92,14107,6,0,P|112:96|48:148,1,135.000005149842,8|0,0:0|0:0,0:0:0:0:
72,272,14482,5,0,0:0:0:0:
72,272,14575,1,0,0:0:0:0:
72,272,14669,1,0,0:0:0:0:
156,204,14857,1,8,0:0:0:0:
240,272,15044,1,0,0:0:0:0:
268,260,15138,1,0,0:0:0:0:
296,248,15232,1,0,0:0:0:0:
392,204,15419,2,0,P|452:228|464:272,2,90,0|8|0,0:0|0:0|0:0,0:0:0:0:
320,336,15982,6,0,P|256:356|164:312,1,135
161,306,16357,2,0,P|209:298|240:272,1,90,8|0,0:0|0:0,0:0:0:0:
292,196,16732,2,0,P|228:216|136:171,1,135
126,171,17107,1,8,0:0:0:0:
52,92,17294,1,0,0:0:0:0:
148,40,17482,6,0,P|212:36|256:96,1,135
254,140,17857,2,0,P|318:144|360:93,1,135,8|0,0:0|0:0,0:0:0:0:
360,39,18232,2,0,P|424:35|468:95,1,135,0|0,0:0|0:0,0:0:0:0:
496,160,18607,6,0,B|480:260|480:260|396:324,1,202.500007724762,8|0,0:0|0:0,0:0:0:0:
332,364,18982,6,0,L|276:350,1,45,0|0,1:0|1:0,1:0:0:0:
200,369,19169,2,0,L|221:316,1,45,0|0,1:0|1:0,1:0:0:0:
281,266,19357,2,0,L|225:252,1,45,0|0,1:0|1:0,1:0:0:0:
150,272,19544,2,0,L|171:219,1,45,0|0,1:0|1:0,1:0:0:0:
231,169,19732,2,0,L|175:155,1,45,0|0,1:0|1:0,1:0:0:0:
100,174,19919,2,0,L|121:121,1,45,0|0,1:0|1:0,1:0:0:0:
182,71,20107,6,0,P|124:44|32:120,1,180,12|0,0:1|0:0,0:0:0:0:
32,204,20669,1,0,0:0:0:0:
80,292,20857,1,8,0:0:0:0:
172,328,21044,1,0,0:0:0:0:
256,272,21232,1,0,0:0:0:0:
340,328,21419,2,0,P|372:340|404:332,2,45,0|0|8,0:0|0:0|0:0,0:0:0:0:
348,228,21794,6,0,P|388:188|436:188,1,90
440,280,22169,1,0,0:0:0:0:
400,96,22357,1,8,0:0:0:0:
492,128,22544,1,0,0:0:0:0:
316,136,22732,6,0,P|268:124|244:88,1,90
240,60,23013,1,0,0:0:0:0:
240,28,23107,1,8,0:0:0:0:
152,128,23294,1,0,0:0:0:0:
60,64,23482,6,0,P|28:112|32:148,1,90
44,172,23763,1,0,0:0:0:0:
60,200,23857,1,8,0:0:0:0:
136,276,24044,1,0,0:0:0:0:
228,220,24232,6,0,L|312:264,1,90
336,272,24513,1,0,0:0:0:0:
368,260,24607,2,0,L|447:218,1,90,8|0,0:0|0:0,0:0:0:0:
452,128,24982,6,0,L|336:60,1,135.000005149842
316,152,25357,2,0,L|200:84,1,135.000005149842,8|0,0:0|0:0,0:0:0:0:
180,176,25732,2,0,L|64:108,1,135.000005149842,0|0,0:0|0:0,0:0:0:0:
63,107,26013,1,2,0:1:0:0:
63,107,26107,1,2,0:1:0:0:
40,228,26294,1,2,0:1:0:0:
120,312,26482,6,0,P|176:340|272:288,1,180,4|0,0:3|0:0,0:0:0:0:
268,200,27044,1,0,0:0:0:0:
208,132,27232,2,0,L|20:112,2,180,0|8|0,0:0|0:0|0:0,0:0:0:0:
276,72,28169,1,0,0:0:0:0:
440,144,28544,1,0,0:0:0:0:
484,224,28732,2,0,P|488:280|360:332,1,180,0|8,0:0|0:0,0:0:0:0:
308,316,29294,1,0,0:0:0:0:
208,272,29482,6,0,P|144:268|92:288,1,90,4|0,0:3|0:0,0:0:0:0:
24,328,29857,2,0,P|0:260|72:184,1,180,0|0,0:0|0:0,0:0:0:0:
156,200,30419,1,0,0:0:0:0:
128,112,30607,1,8,0:0:0:0:
188,44,30794,6,0,P|240:40|280:52,1,90,0|4,0:0|0:3,0:0:0:0:
360,144,31169,2,0,P|308:140|268:152,1,90,0|8,0:0|0:0,0:0:0:0:
188,244,31544,2,0,P|240:240|280:252,1,90,0|4,0:0|0:3,0:0:0:0:
320,328,31919,1,0,0:0:0:0:
400,288,32107,2,0,L|456:272,2,45,8|0|0,0:0|0:0|0:0,0:0:0:0:
220,328,32482,6,0,P|136:324|92:236,1,180,4|0,0:3|0:0,0:0:0:0:
160,188,33044,1,0,0:0:0:0:
92,128,33232,1,0,0:0:0:0:
256,32,33607,1,8,0:0:0:0:
420,128,33982,1,0,0:0:0:0:
420,128,34169,2,0,B|420:224|420:224|480:288,1,180
400,336,34732,2,0,L|332:272,1,90
272,340,35107,2,0,L|172:332,1,90,8|0,0:0|0:0,0:0:0:0:
92,320,35482,6,0,P|36:248|64:160,1,180,4|0,0:3|0:0,0:0:0:0:
184,52,36232,1,0,0:0:0:0:
164,140,36419,1,0,0:0:0:0:
140,228,36607,1,8,0:0:0:0:
256,192,36982,12,2,38107,0:1:0:0:
432,164,38482,5,4,0:0:0:0:
480,240,38669,1,0,0:0:0:0:
483,272,38763,1,0,0:0:0:0:
478,304,38857,1,8,0:0:0:0:
462,332,38950,1,0,0:0:0:0:
436,352,39044,1,0,0:0:0:0:
406,361,39138,1,0,0:0:0:0:
376,348,39232,2,0,P|284:312|208:332,1,180,0|8,0:0|0:0,0:0:0:0:
124,356,39794,1,0,0:0:0:0:
56,244,39982,5,0,0:0:0:0:
40,156,40169,1,0,0:0:0:0:
38,123,40263,1,0,0:0:0:0:
48,92,40357,1,8,0:0:0:0:
64,68,40450,1,0,0:0:0:0:
92,52,40544,1,0,0:0:0:0:
124,44,40638,1,0,0:0:0:0:
156,48,40732,1,0,0:0:0:0:
256,192,41107,1,8,0:0:0:0:
356,48,41482,5,4,0:0:0:0:
384,168,41669,1,0,0:0:0:0:
392,200,41763,1,0,0:0:0:0:
400,232,41857,1,8,0:0:0:0:
408,260,41950,1,0,0:0:0:0:
416,292,42044,1,0,0:0:0:0:
424,324,42138,1,0,0:0:0:0:
432,356,42232,1,0,0:0:0:0:
316,312,42419,5,0,0:0:0:0:
308,280,42513,1,0,0:0:0:0:
300,248,42607,1,8,0:0:0:0:
292,220,42700,1,0,0:0:0:0:
284,188,42794,1,0,0:0:0:0:
276,156,42888,1,0,0:0:0:0:
268,124,42982,1,0,0:0:0:0:
152,80,43169,5,0,0:0:0:0:
160,112,43263,1,0,0:0:0:0:
168,144,43357,1,8,0:0:0:0:
176,176,43451,1,0,0:0:0:0:
184,204,43544,1,0,0:0:0:0:
192,236,43638,1,0,0:0:0:0:
200,268,43732,1,0,0:0:0:0:
104,340,44107,6,0,L|68:200,1,135.000005149842,8|0,0:0|0:0,0:0:0:0:
80,100,44482,5,4,0:0:0:0:
168,144,44669,1,0,0:0:0:0:
200,152,44763,1,0,0:0:0:0:
232,152,44857,1,8,0:0:0:0:
264,148,44950,1,0,0:0:0:0:
292,136,45044,1,0,0:0:0:0:
316,116,45138,1,0,0:0:0:0:
332,88,45232,1,0,0:0:0:0:
332,88,45607,1,8,0:0:0:0:
440,276,45982,5,0,0:0:0:0:
352,232,46169,1,0,0:0:0:0:
320,224,46263,1,0,0:0:0:0:
288,224,46357,1,8,0:0:0:0:
256,228,46450,1,0,0:0:0:0:
228,240,46544,1,0,0:0:0:0:
204,260,46638,1,0,0:0:0:0:
188,288,46732,1,0,0:0:0:0:
188,288,47107,1,8,0:0:0:0:
256,192,47482,12,8,50107,0:0:0:0:
256,328,51607,5,0,1:0:0:0:
256,328,51794,1,0,0:0:0:0:
172,288,51982,2,0,P|116:272|60:276,1,107.999996704102,4|2,0:0|0:0,0:0:0:0:
340,288,52357,2,0,P|396:272|452:276,1,107.999996704102,8|2,0:0|0:0,0:0:0:0:
212,184,52732,2,0,P|171:142|121:117,1,107.999996704102,0|2,0:0|0:0,0:0:0:0:
300,184,53107,2,0,P|340:142|390:117,1,107.999996704102,8|2,0:0|0:0,0:0:0:0:
256,252,53482,6,0,P|188:308|112:280,1,161.999995056153
92,264,53857,1,8,0:0:0:0:
256,148,54044,1,2,0:0:0:0:
76,56,54232,2,0,P|96:108|156:128,1,107.999996704102,0|2,0:0|0:0,0:0:0:0:
256,40,54607,5,8,0:0:0:0:
256,40,54794,1,2,0:0:0:0:
352,76,54982,2,0,L|456:120,1,107.999996704102,0|2,0:0|0:0,0:0:0:0:
256,148,55357,1,8,0:0:0:0:
256,148,55544,1,2,0:0:0:0:
352,184,55732,2,0,L|456:228,1,107.999996704102,0|2,0:0|0:0,0:0:0:0:
360,320,56107,2,0,B|296:296|296:296|260:328,1,107.999996704102,8|2,0:0|0:0,0:0:0:0:
104,328,56482,6,0,L|188:256,1,107.999996704102,0|2,0:0|0:0,0:0:0:0:
72,216,56857,2,0,L|156:144,1,107.999996704102,8|2,0:0|0:0,0:0:0:0:
256,52,57232,2,0,P|340:56|372:172,1,215.999993408203,0|8,0:0|0:0,0:0:0:0:
256,160,57794,1,2,0:0:0:0:
256,272,57982,1,0,0:0:0:0:
256,272,58357,6,0,P|176:220|216:160,1,180,8|0,0:0|0:0,0:0:0:0:
308,192,58732,2,0,P|388:244|348:304,1,180,8|0,0:0|0:0,0:0:0:0:
240,356,59107,5,0,0:0:0:0:
140,316,59294,1,2,0:0:0:0:
76,228,59482,2,0,P|76:144|152:80,1,161.999995056153
164,80,59857,1,8,0:0:0:0:
256,168,60044,1,2,0:0:0:0:
384,140,60232,2,0,P|432:192|424:248,1,107.999996704102,0|2,0:0|0:0,0:0:0:0:
292,300,60607,2,0,P|313:232|365:211,1,107.999996704102,8|2,0:0|0:0,0:0:0:0:
388,308,60982,5,0,0:0:0:0:
388,308,61169,1,2,0:0:0:0:
184,248,61357,1,8,0:0:0:0:
184,248,61544,1,2,0:0:0:0:
328,92,61732,1,0,0:0:0:0:
200,76,61919,1,2,0:0:0:0:
200,76,62013,1,0,0:0:0:0:
200,76,62107,1,8,0:0:0:0:
256,192,62294,1,2,0:0:0:0:
344,156,62482,5,2,0:1:0:0:
168,228,62669,1,2,0:1:0:0:
388,264,62857,1,2,0:1:0:0:
124,120,63044,1,2,0:1:0:0:
124,120,63138,1,2,0:1:0:0:
124,120,63232,1,2,0:1:0:0:
212,336,63419,1,2,0:1:0:0:
300,48,63607,1,2,0:1:0:0:
256,192,63794,1,2,0:1:0:0:
388,264,63982,6,0,P|464:236|464:104,1,215.999993408203,4|8,0:0|0:0,0:0:0:0:
384,56,64544,1,2,0:0:0:0:
328,148,64732,2,0,P|256:128|224:80,1,107.999996704102,0|2,0:0|0:0,0:0:0:0:
156,32,65107,1,8,0:0:0:0:
76,112,65294,1,2,0:0:0:0:
128,236,65482,6,0,B|184:324|184:324|240:340,1,161.999995056153
276,348,65857,1,8,0:0:0:0:
376,268,66044,1,2,0:0:0:0:
272,188,66232,2,0,L|272:68,1,107.999996704102,0|2,0:0|0:0,0:0:0:0:
400,32,66607,6,0,L|400:148,1,107.999996704102,8|2,0:0|0:0,0:0:0:0:
144,256,66982,2,0,L|144:140,1,107.999996704102,0|2,0:0|0:0,0:0:0:0:
80,60,67357,1,8,0:0:0:0:
80,60,67544,1,2,0:0:0:0:
252,256,67732,2,0,L|252:140,1,107.999996704102,0|2,0:0|0:0,0:0:0:0:
188,60,68107,1,8,0:0:0:0:
188,60,68294,1,2,0:0:0:0:
308,60,68482,6,0,P|368:72|400:120,1,107.999996704102,0|2,0:0|0:0,0:0:0:0:
376,266,68857,2,0,P|344:248|320:184,1,107.999996704102,8|2,0:0|0:0,0:0:0:0:
444,180,69232,2,0,P|480:300|424:368,1,215.999993408203,0|8,0:0|0:0,0:0:0:0:
328,328,69794,1,2,0:0:0:0:
228,308,69982,6,0,P|184:312|140:352,1,90,0|8,0:0|0:0,0:0:0:0:
132,338,70450,1,0,0:0:0:0:
116,338,70544,1,0,0:0:0:0:
100,338,70638,1,0,0:0:0:0:
84,338,70732,1,8,0:0:0:0:
16,204,71107,6,0,P|36:140|92:108,1,107.999996704102,4|2,0:0|0:0,0:0:0:0:
184,56,71482,2,0,L|344:120,1,161.999995056153,4|0,0:0|0:0,0:0:0:0:
368,132,71857,1,8,0:0:0:0:
260,204,72044,1,2,0:0:0:0:
332,312,72232,2,0,P|284:348|224:344,1,107.999996704102,0|2,0:0|0:0,0:0:0:0:
120,296,72607,5,8,0:0:0:0:
120,296,72794,1,2,0:0:0:0:
116,152,72982,2,0,P|152:88|184:68,1,107.999996704102,0|2,0:0|0:0,0:0:0:0:
396,232,73357,2,0,P|360:296|328:316,1,107.999996704102,8|2,0:0|0:0,0:0:0:0:
216,228,73732,1,0,0:0:0:0:
308,136,73919,1,2,0:0:0:0:
320,100,74013,1,0,0:0:0:0:
308,64,74107,1,8,0:0:0:0:
184,24,74294,1,2,0:0:0:0:
96,120,74482,6,0,L|40:224,1,107.999996704102,0|2,0:0|0:0,0:0:0:0:
208,344,74857,2,0,L|156:248,1,107.999996704102,8|2,0:0|0:0,0:0:0:0:
304,120,75232,2,0,L|356:216,1,107.999996704102,0|2,0:0|0:0,0:0:0:0:
416,344,75607,2,0,L|472:240,1,107.999996704102,8|2,0:0|0:0,0:0:0:0:
448,140,75982,5,4,0:0:0:0:
352,88,76169,1,0,0:0:0:0:
256,36,76357,1,8,0:0:0:0:
360,176,76732,5,0,0:0:0:0:
312,148,76919,1,0,0:0:0:0:
265,119,77107,1,8,0:0:0:0:
64,140,77482,5,4,0:0:0:0:
160,88,77669,1,0,0:0:0:0:
256,36,77857,1,8,0:0:0:0:
152,176,78232,5,0,0:0:0:0:
200,148,78419,1,0,0:0:0:0:
247,119,78607,1,8,0:0:0:0:
256,260,78982,6,0,P|280:316|360:320,1,135,4|0,0:0|0:0,0:0:0:0:
376,316,79357,1,8,0:0:0:0:
448,236,79544,1,0,0:0:0:0:
404,136,79732,2,0,P|372:100|328:92,1,90
181,140,80107,2,0,P|200:160|260:172,1,90,8|0,0:0|0:0,0:0:0:0:
224,52,80482,1,4,0:0:0:0:
84,132,80669,1,0,0:0:0:0:
224,52,80857,1,8,0:0:0:0:
84,132,81044,1,0,0:0:0:0:
116,292,81232,1,0,0:0:0:0:
396,292,81419,5,2,0:1:0:0:
396,292,81607,1,2,0:1:0:0:
64,244,81982,5,4,0:0:0:0:
160,296,82169,1,0,0:0:0:0:
256,348,82357,1,8,0:0:0:0:
360,208,82732,5,0,0:0:0:0:
312,236,82919,1,0,0:0:0:0:
265,265,83107,1,8,0:0:0:0:
448,244,83482,5,4,0:0:0:0:
352,296,83669,1,0,0:0:0:0:
256,348,83857,1,8,0:0:0:0:
152,208,84232,5,0,0:0:0:0:
200,236,84419,1,0,0:0:0:0:
247,265,84607,1,8,0:0:0:0:
256,48,84982,5,4,0:0:0:0:
136,120,85169,1,0,0:0:0:0:
376,120,85357,1,8,0:0:0:0:
196,192,85544,2,0,P|256:248|316:192,1,180,0|0,0:0|0:0,0:0:0:0:
196,192,86107,2,0,P|152:236|144:268,1,90,8|0,0:0|0:0,0:0:0:0:
316,356,86482,2,0,P|360:312|368:280,1,90,4|0,0:0|0:0,0:0:0:0:
316,192,86857,1,8,0:0:0:0:
256,280,87044,1,0,0:0:0:0:
196,192,87232,1,4,0:0:0:0:
168,64,87607,6,0,L|360:64,1,180,2|0,0:1|0:0,0:0:0:0:
