osu file format v12

[General]
AudioFilename: thissongmakesmehappy.mp3
AudioLeadIn: 1000
PreviewTime: 51607
Countdown: 0
SampleSet: Soft
StackLeniency: 0.7
Mode: 0
LetterboxInBreaks: 0

[Editor]
DistanceSpacing: 1
BeatDivisor: 4
GridSize: 4

[Metadata]
Title:Nippon Egao Hyakkei (TV Size)
TitleUnicode:ニッポン笑顔百景 (TV Size)
Artist:MomoKuro-tei Ichimon
ArtistUnicode:桃黒亭一門
Creator:CXu
Version:Hard
Source:Joshiraku
Tags:Ending Momoiro Clover Z Jugemu Jugemu Gokō-no surikire Kaijarisuigyo-no Suigyōmatsu Unraimatsu Fūraimatsu Kuunerutokoro-ni Sumutokoro Yaburakōji-no burakōji Paipopaipo Paipo-no-shūringan Shūringan-no Gūrindai Gūrindai-no Ponpokopī-no Ponpokonā-no Chōkyūmei-no Chōsuke KinomiCandy Love Kenichi Maeyamada
BeatmapID:221771
BeatmapSetID:74301

[Difficulty]
HPDrainRate:5
CircleSize:4
OverallDifficulty:6
ApproachRate:7
SliderMultiplier:1.6
SliderTickRate:2

[Events]
//Background and Video events
0,0,"Joshiraku.full.1216942.jpg",0,0
Video,0,"joshirakued.avi"
//Break Periods
//Storyboard Layer 0 (Background)
//Storyboard Layer 1 (Fail)
//Storyboard Layer 2 (Pass)
//Storyboard Layer 3 (Foreground)
//Storyboard Sound Samples
//Background Colour Transformations
3,100,163,162,255

[TimingPoints]
2482,375,4,2,1,60,1,0
18982,-100,4,2,1,30,0,0
20482,-100,4,2,1,60,0,0
24982,-100,4,2,1,80,0,0
26013,-100,4,2,1,30,0,0
26482,-100,4,2,1,60,0,0
47482,-100,4,2,1,40,0,0
51607,-100,4,2,1,20,0,0
51794,-100,4,2,1,80,0,0
51982,-83.3333333333333,4,2,1,100,0,1
58357,-66.6666666666667,4,2,1,100,0,1
58919,-83.3333333333333,4,2,1,100,0,1
63888,-83.3333333333333,4,2,1,100,0,0
63982,-83.3333333333333,4,2,1,100,0,1
69982,-200,4,2,1,60,0,1
71107,-83.3333333333333,4,2,1,100,0,1
75888,-100,4,2,1,70,0,0
75982,-100,4,2,1,100,0,1
76732,-100,4,2,1,70,0,0
77482,-100,4,2,1,100,0,1
78232,-100,4,2,1,70,0,0
78982,-100,4,2,1,100,0,1
81419,-100,4,2,1,70,0,0
81982,-100,4,2,1,100,0,1
82732,-100,4,2,1,70,0,0
83482,-100,4,2,1,100,0,1
84232,-100,4,2,1,70,0,0
84982,-100,4,2,1,100,0,1
87232,-100,4,2,1,100,0,0
87607,-100,4,2,1,100,0,1
87700,-100,4,2,1,5,0,1
87982,-100,4,2,1,5,0,0

[Colours]
Combo1 : 131,106,196
Combo2 : 0,189,151
Combo3 : 255,233,104
Combo4 : 225,83,86
Combo5 : 191,91,141

[HitObjects]
100,192,2482,1,4,0:0:0:0:
204,316,2857,1,0,0:0:0:0:
256,256,3044,1,0,0:0:0:0:
308,316,3232,1,0,0:0:0:0:
412,192,3607,1,4,0:0:0:0:
256,148,3982,1,4,0:0:0:0:
256,148,4544,1,0,0:0:0:0:
256,68,4732,1,0,0:0:0:0:
176,204,5107,1,4,0:0:0:0:
336,204,5482,1,0,0:0:0:0:
256,192,6794,12,2,8107,0:1:0:0:
136,316,8482,5,0,0:0:0:0:
136,316,8575,1,0,0:0:0:0:
136,316,8669,1,0,0:0:0:0:
100,236,8857,1,8,0:0:0:0:
100,236,8950,1,0,0:0:0:0:
100,236,9044,1,0,0:0:0:0:
176,188,9232,1,0,0:0:0:0:
176,188,9325,2,0,P|180:140|148:88,1,80
132,84,9607,2,0,L|168:48,3,40,8|0|0|0,0:0|0:0|0:0|0:0,0:0:0:0:
204,44,9982,6,0,P|244:52|288:44,1,80
324,32,10263,1,0,0:0:0:0:
368,56,10357,2,0,P|406:61|446:53,1,80,8|0,0:0|0:0,0:0:0:0:
446,53,10638,1,0,0:0:0:0:
446,53,10732,2,0,L|448:140,1,80
384,184,11107,2,0,L|384:280,1,80,8|0,0:0|0:0,0:0:0:0:
324,328,11482,6,0,P|272:336|236:320,1,80
168,288,11857,1,8,0:0:0:0:
124,212,12044,1,0,0:0:0:0:
212,212,12232,6,0,P|204:160|220:128,1,80
251,55,12607,1,8,0:0:0:0:
328,12,12794,1,0,0:0:0:0:
392,72,12982,6,0,P|360:96|356:128,1,66.6666666666667
356,144,13232,1,0,0:0:0:0:
352,164,13325,1,8,0:0:0:0:
336,180,13419,1,0,0:0:0:0:
316,188,13512,1,0,0:0:0:0:
292,188,13606,1,0,0:0:0:0:
272,180,13700,6,0,L|252:120,1,53.3333333333333,8|0,0:0|0:0,0:0:0:0:
248,112,13919,1,0,0:0:0:0:
240,96,14013,1,0,0:0:0:0:
232,80,14107,2,0,P|196:76|152:92,1,80,8|0,0:0|0:0,0:0:0:0:
64,140,14482,5,0,0:0:0:0:
60,164,14575,1,0,0:0:0:0:
56,188,14669,1,0,0:0:0:0:
76,264,14857,2,0,P|112:312|112:344,1,80,8|0,0:0|0:0,0:0:0:0:
192,308,15232,2,0,L|220:252,2,40
260,348,15607,2,0,B|312:348|312:348|344:328,1,80,8|0,0:0|0:0,0:0:0:0:
396,280,15982,6,0,L|440:360,1,80
452,216,16357,2,0,L|496:296,1,80,8|0,0:0|0:0,0:0:0:0:
376,204,16732,2,0,P|404:152|496:152,1,160,0|8,0:0|0:0,0:0:0:0:
496,152,17294,1,0,0:0:0:0:
508,72,17482,6,0,P|444:60|344:100,1,160,0|8,0:0|0:0,0:0:0:0:
256,128,18044,1,0,0:0:0:0:
155,90,18232,2,0,P|68:60|4:72,1,160,0|8,0:0|0:0,0:0:0:0:
64,252,18982,6,0,L|136:304,1,80,0|0,1:0|1:0,0:0:0:0:
204,240,19357,2,0,L|212:324,1,80,0|0,1:0|1:0,0:0:0:0:
300,319,19732,2,0,L|308:240,1,80,0|0,1:0|1:0,0:0:0:0:
383,298,20107,2,0,L|448:252,1,80,12|0,0:1|0:0,0:0:0:0:
460,164,20482,5,0,0:0:0:0:
380,200,20669,1,0,0:0:0:0:
388,112,20857,1,8,0:0:0:0:
460,164,21044,2,0,P|460:224|440:256,1,80
383,298,21419,1,0,0:0:0:0:
308,248,21607,1,8,0:0:0:0:
264,76,21982,6,0,P|208:80|180:64,1,80
100,68,22357,1,8,0:0:0:0:
76,152,22544,1,0,0:0:0:0:
132,220,22732,6,0,L|188:288,1,80
182,281,23013,1,0,0:0:0:0:
182,281,23107,1,8,0:0:0:0:
256,232,23294,1,0,0:0:0:0:
328,288,23482,2,0,L|379:227,1,80
379,227,23763,1,0,0:0:0:0:
379,227,23857,1,8,0:0:0:0:
324,156,24044,1,0,0:0:0:0:
256,96,24232,6,0,L|172:96,1,80
120,164,24607,2,0,L|24:164,1,80,8|0,0:0|0:0,0:0:0:0:
44,296,24982,6,0,P|96:328|196:292,1,160,0|8,0:0|0:0,0:0:0:0:
468,296,25732,2,0,P|416:328|316:292,1,160,0|2,0:0|0:1,0:0:0:0:
256,248,26294,1,2,0:1:0:0:
256,160,26482,5,4,0:3:0:0:
64,120,26857,2,0,P|76:88|112:60,1,80
196,44,27232,1,0,0:0:0:0:
100,192,27607,1,8,0:0:0:0:
196,340,27982,1,0,0:0:0:0:
196,340,28169,1,0,0:0:0:0:
316,212,28544,1,0,0:0:0:0:
316,212,28732,1,0,0:0:0:0:
196,84,29107,2,0,P|296:80|328:132,1,160,8|4,0:0|0:3,0:0:0:0:
244,156,29669,5,0,0:0:0:0:
240,244,29857,2,0,P|272:284|312:292,1,80
384,268,30232,1,0,0:0:0:0:
352,352,30419,2,0,P|316:368|248:356,1,80,0|8,0:0|0:0,0:0:0:0:
196,332,30794,6,0,L|104:348,1,80,0|4,0:0|0:3,0:0:0:0:
52,284,31169,2,0,L|136:268,1,80,0|8,0:0|0:0,0:0:0:0:
168,188,31544,2,0,L|76:204,1,80,0|4,0:0|0:3,0:0:0:0:
24,140,31919,2,0,L|108:124,1,80,0|8,0:0|0:0,0:0:0:0:
188,112,32294,1,0,0:0:0:0:
256,56,32482,6,0,P|332:64|360:144,1,160,4|0,0:3|0:0,0:0:0:0:
304,200,33044,1,0,0:0:0:0:
240,260,33232,2,0,P|269:330|345:338,1,160,0|8,0:0|0:0,0:0:0:0:
440,192,33982,5,0,0:0:0:0:
440,192,34169,2,0,B|408:160|408:160|292:160,1,160
220,192,34732,2,0,B|105:192|105:192|73:160,1,160,0|8,0:0|0:0,0:0:0:0:
40,88,35294,5,0,0:0:0:0:
40,88,35482,1,4,0:3:0:0:
256,40,35857,1,0,0:0:0:0:
472,88,36232,1,0,0:0:0:0:
472,88,36420,1,0,0:0:0:0:
472,88,36607,1,8,0:0:0:0:
256,192,36982,12,2,38107,0:1:0:0:
132,192,38482,5,4,0:0:0:0:
132,192,38669,1,0,0:0:0:0:
156,108,38857,2,0,P|184:84|240:72,1,80,8|0,0:0|0:0,0:0:0:0:
220,160,39232,1,0,0:0:0:0:
300,120,39419,1,0,0:0:0:0:
296,208,39607,1,8,0:0:0:0:
376,168,39794,2,0,B|412:212|412:212|412:320,1,160
332,356,40357,1,8,0:0:0:0:
256,312,40544,1,0,0:0:0:0:
180,356,40732,1,0,0:0:0:0:
28,192,41107,5,8,0:0:0:0:
180,28,41482,6,0,L|180:108,1,80,4|0,0:0|0:0,0:0:0:0:
180,196,41857,2,0,B|232:196|232:196|264:180,1,80,8|0,0:0|0:0,0:0:0:0:
316,116,42232,1,0,0:0:0:0:
368,188,42419,2,0,P|404:128|360:36,2,160
288,224,43357,1,8,0:0:0:0:
352,284,43544,1,0,0:0:0:0:
432,252,43732,1,0,0:0:0:0:
256,344,44107,6,0,L|176:344,1,80,8|0,0:0|0:0,0:0:0:0:
100,296,44482,5,4,0:0:0:0:
140,216,44669,2,0,P|144:184|128:136,1,80,0|8,0:0|0:0,0:0:0:0:
140,216,45044,2,0,P|212:240|288:192,1,160
308,116,45607,1,8,0:0:0:0:
260,44,45794,1,0,0:0:0:0:
216,120,45982,5,0,0:0:0:0:
132,92,46169,2,0,P|104:64|92:24,1,80,0|8,0:0|0:0,0:0:0:0:
132,92,46544,2,0,P|140:168|80:240,1,160
8,260,47107,1,8,0:0:0:0:
72,320,47294,1,0,0:0:0:0:
256,192,47482,12,8,50107,0:0:0:0:
256,72,51607,5,0,1:0:0:0:
256,72,51794,1,0,0:0:0:0:
180,144,51982,2,0,P|168:196|184:240,1,95.9999970703126,4|2,0:0|0:0,0:0:0:0:
332,328,52357,2,0,P|344:276|328:232,1,95.9999970703126,8|2,0:0|0:0,0:0:0:0:
180,144,52732,2,0,L|80:76,1,95.9999970703126,0|2,0:0|0:0,0:0:0:0:
332,144,53107,2,0,L|432:76,1,95.9999970703126,8|2,0:0|0:0,0:0:0:0:
476,176,53482,6,0,P|500:264|456:324,1,143.999995605469
432,332,53857,1,8,0:0:0:0:
344,272,54044,1,2,0:0:0:0:
256,332,54232,2,0,P|164:308|144:216,1,191.999994140625,0|8,0:0|0:0,0:0:0:0:
252,232,54794,5,2,0:0:0:0:
200,140,54982,2,0,P|148:128|92:140,1,95.9999970703126,0|2,0:0|0:0,0:0:0:0:
312,140,55357,2,0,P|364:128|420:140,1,95.9999970703126,8|2,0:0|0:0,0:0:0:0:
496,192,55732,2,0,P|504:260|412:324,1,191.999994140625,0|8,0:0|0:0,0:0:0:0:
316,280,56294,1,2,0:0:0:0:
256,192,56482,6,0,L|168:260,1,95.9999970703126,0|2,0:0|0:0,0:0:0:0:
256,100,56857,2,0,L|344:168,1,95.9999970703126,8|2,0:0|0:0,0:0:0:0:
256,16,57232,2,0,P|184:44|184:148,1,191.999994140625,0|8,0:0|0:0,0:0:0:0:
256,192,57794,1,2,0:0:0:0:
256,192,57982,1,0,0:0:0:0:
84,256,58357,6,0,P|136:276|196:256,1,120.000004577637,8|0,0:0|0:0,0:0:0:0:
317,256,58732,2,0,P|376:276|428:256,1,120.000004577637,8|0,0:0|0:0,0:0:0:0:
508,184,59107,5,0,0:0:0:0:
456,92,59294,1,2,0:0:0:0:
352,64,59482,2,0,P|284:84|196:52,1,143.999995605469
176,28,59857,1,8,0:0:0:0:
80,68,60044,1,2,0:0:0:0:
160,140,60232,2,0,P|128:168|72:172,1,95.9999970703126,0|2,0:0|0:0,0:0:0:0:
20,272,60607,5,8,0:0:0:0:
116,320,60794,1,2,0:0:0:0:
212,276,60982,2,0,P|256:260|300:276,1,95.9999970703126,0|2,0:0|0:0,0:0:0:0:
212,276,61357,2,0,P|196:232|212:188,1,95.9999970703126,8|2,0:0|0:0,0:0:0:0:
304,136,61732,1,0,0:0:0:0:
392,192,61919,2,0,L|392:252,2,47.9999985351563,2|0|8,0:0|0:0|0:0,0:0:0:0:
480,136,62294,1,2,0:0:0:0:
392,44,62482,5,2,0:1:0:0:
256,44,62669,1,2,0:1:0:0:
120,44,62857,1,2,0:1:0:0:
176,152,63044,1,2,0:1:0:0:
176,152,63138,1,2,0:1:0:0:
176,152,63232,1,2,0:1:0:0:
256,44,63419,1,2,0:1:0:0:
336,152,63607,1,2,0:1:0:0:
256,248,63794,1,2,0:1:0:0:
176,152,63982,6,0,P|136:192|128:256,1,95.9999970703126,4|2,0:0|0:0,0:0:0:0:
336,152,64357,2,0,P|376:192|384:256,1,95.9999970703126,8|2,0:0|0:0,0:0:0:0:
256,344,64732,2,0,L|256:224,1,95.9999970703126,0|2,0:0|0:0,0:0:0:0:
176,152,65107,1,8,0:0:0:0:
336,152,65294,1,2,0:0:0:0:
256,88,65482,6,0,P|324:52|396:76,1,143.999995605469
424,104,65857,1,8,0:0:0:0:
484,192,66044,1,2,0:0:0:0:
448,292,66232,1,0,0:0:0:0:
256,356,66607,5,8,0:0:0:0:
256,356,66794,1,2,0:0:0:0:
208,260,66982,2,0,P|164:240|104:252,1,95.9999970703126,0|2,0:0|0:0,0:0:0:0:
12,236,67357,2,0,P|52:172|104:156,1,95.9999970703126,8|2,0:0|0:0,0:0:0:0:
172,152,67732,2,0,P|144:96|84:68,1,95.9999970703126,0|2,0:0|0:0,0:0:0:0:
16,44,68107,1,8,0:0:0:0:
16,44,68294,1,2,0:0:0:0:
208,44,68482,6,0,L|308:44,1,95.9999970703126,0|2,0:0|0:0,0:0:0:0:
280,148,68857,2,0,L|380:148,1,95.9999970703126,8|2,0:0|0:0,0:0:0:0:
352,252,69232,2,0,L|452:252,1,95.9999970703126,0|2,0:0|0:0,0:0:0:0:
496,344,69607,1,8,0:0:0:0:
496,344,69794,1,2,0:0:0:0:
412,344,69982,6,0,L|324:344,2,80,0|8|8,0:0|0:0|0:0,0:0:0:0:
256,344,71107,6,0,P|208:336|168:288,1,95.9999970703126,4|2,0:0|0:0,0:0:0:0:
160,200,71482,2,0,P|121:140|53:124,1,143.999995605469,4|0,0:0|0:0,0:0:0:0:
23,165,71857,1,8,0:0:0:0:
71,261,72044,1,2,0:0:0:0:
160,200,72232,1,0,0:0:0:0:
256,344,72607,5,8,0:0:0:0:
256,344,72794,1,2,0:0:0:0:
352,296,72982,2,0,P|392:264|400:212,1,95.9999970703126,0|2,0:0|0:0,0:0:0:0:
280,140,73357,2,0,P|287:190|319:219,1,95.9999970703126,8|2,0:0|0:0,0:0:0:0:
372,140,73732,2,0,P|364:92|324:60,1,95.9999970703126,0|2,0:0|0:0,0:0:0:0:
307,54,74013,1,0,0:0:0:0:
282,53,74107,1,8,0:0:0:0:
172,120,74294,1,2,0:0:0:0:
100,220,74482,6,0,L|100:328,1,95.9999970703126,0|2,0:0|0:0,0:0:0:0:
204,352,74857,2,0,L|204:248,1,95.9999970703126,8|2,0:0|0:0,0:0:0:0:
308,220,75232,2,0,L|308:328,1,95.9999970703126,0|2,0:0|0:0,0:0:0:0:
412,352,75607,2,0,L|412:248,1,95.9999970703126,8|2,0:0|0:0,0:0:0:0:
412,168,75982,5,4,0:0:0:0:
412,80,76169,1,0,0:0:0:0:
324,60,76357,1,8,0:0:0:0:
324,152,76732,6,0,L|324:240,2,80,0|0|8,0:0|0:0|0:0,0:0:0:0:
188,60,77482,5,4,0:0:0:0:
100,80,77670,1,0,0:0:0:0:
100,168,77857,1,8,0:0:0:0:
188,152,78232,6,0,L|188:240,2,80,0|0|8,0:0|0:0|0:0,0:0:0:0:
200,328,78982,6,0,P|256:348|312:328,1,120,4|0,0:0|0:0,0:0:0:0:
320,284,79357,2,0,L|328:200,1,80,8|0,0:0|0:0,0:0:0:0:
240,220,79732,2,0,L|248:136,1,80
160,156,80107,2,0,L|168:72,1,80,8|0,0:0|0:0,0:0:0:0:
80,92,80482,2,0,L|88:8,2,80,4|0|8,0:0|0:0|0:0,0:0:0:0:
68,180,81044,1,0,0:0:0:0:
56,268,81232,1,0,0:0:0:0:
112,336,81419,5,2,0:1:0:0:
112,336,81607,1,2,0:1:0:0:
324,324,81982,5,4,0:0:0:0:
412,304,82170,1,0,0:0:0:0:
412,216,82357,1,8,0:0:0:0:
188,152,82732,6,0,L|188:232,2,80,0|0|8,0:0|0:0|0:0,0:0:0:0:
100,216,83482,5,4,0:0:0:0:
100,304,83669,1,0,0:0:0:0:
188,324,83857,1,8,0:0:0:0:
324,232,84232,6,0,L|324:152,2,80,0|0|8,0:0|0:0|0:0,0:0:0:0:
320,55,84982,5,4,0:0:0:0:
256,116,85170,1,0,0:0:0:0:
192,55,85357,1,8,0:0:0:0:
180,144,85544,2,0,P|248:196|316:168,1,160
380,116,86107,2,0,P|412:148|416:196,1,80,8|0,0:0|0:0,0:0:0:0:
364,252,86482,6,0,B|340:272|340:272|340:340,1,80,4|0,0:0|0:0,0:0:0:0:
148,252,86857,2,0,B|172:272|172:272|172:320,1,80,8|0,0:0|0:0,0:0:0:0:
256,352,87232,1,4,0:0:0:0:
208,192,87607,6,0,B|256:128|256:128|304:192,1,160,2|0,0:1|0:0,0:0:0:0:
