osu file format v12

[General]
AudioFilename: thissongmakesmehappy.mp3
AudioLeadIn: 1000
PreviewTime: 51607
Countdown: 0
SampleSet: Soft
StackLeniency: 0.7
Mode: 0
LetterboxInBreaks: 0

[Editor]
DistanceSpacing: 0.9
BeatDivisor: 4
GridSize: 4

[Metadata]
Title:Nippon Egao Hyakkei (TV Size)
TitleUnicode:ニッポン笑顔百景 (TV Size)
Artist:MomoKuro-tei Ichimon
ArtistUnicode:桃黒亭一門
Creator:CXu
Version:Easy
Source:Joshiraku
Tags:Ending Momoiro Clover Z Jugemu Jugemu Gokō-no surikire Kaijarisuigyo-no Suigyōmatsu Unraimatsu Fūraimatsu Kuunerutokoro-ni Sumutokoro Yaburakōji-no burakōji Paipopaipo Paipo-no-shūringan Shūringan-no Gūrindai Gūrindai-no Ponpokopī-no Ponpokonā-no Chōkyūmei-no Chōsuke KinomiCandy Love Kenichi Maeyamada
BeatmapID:222425
BeatmapSetID:74301

[Difficulty]
HPDrainRate:2
CircleSize:2
OverallDifficulty:2
ApproachRate:2
SliderMultiplier:1.2
SliderTickRate:2

[Events]
//Background and Video events
0,0,"Joshiraku.full.1216942.jpg",0,0
Video,0,"joshirakued.avi"
//Break Periods
//Storyboard Layer 0 (Background)
//Storyboard Layer 1 (Fail)
//Storyboard Layer 2 (Pass)
//Storyboard Layer 3 (Foreground)
//Storyboard Sound Samples
//Background Colour Transformations
3,100,163,162,255

[TimingPoints]
2482,375,4,2,1,60,1,0
18982,-100,4,2,1,30,0,0
20482,-100,4,2,1,60,0,0
24982,-100,4,2,1,80,0,0
26013,-100,4,2,1,30,0,0
26482,-100,4,2,1,60,0,0
47482,-100,4,2,1,40,0,0
51607,-83.3333333333333,4,2,1,20,0,0
51982,-83.3333333333333,4,2,1,100,0,1
63888,-83.3333333333333,4,2,1,100,0,0
63982,-83.3333333333333,4,2,1,100,0,1
69982,-200,4,2,1,60,0,1
71107,-83.3333333333333,4,2,1,100,0,1
75888,-100,4,2,1,70,0,0
75982,-100,4,2,1,100,0,1
76732,-100,4,2,1,70,0,0
77482,-100,4,2,1,100,0,1
78232,-100,4,2,1,70,0,0
78982,-100,4,2,1,100,0,1
81419,-100,4,2,1,70,0,0
81982,-100,4,2,1,100,0,1
82732,-100,4,2,1,70,0,0
83482,-100,4,2,1,100,0,1
84232,-100,4,2,1,70,0,0
84982,-100,4,2,1,100,0,1
87232,-100,4,2,1,100,0,0
87607,-100,4,2,1,100,0,1
87700,-100,4,2,1,5,0,1
87982,-100,4,2,1,5,0,0

[Colours]
Combo1 : 131,106,196
Combo2 : 0,189,151
Combo3 : 255,233,104
Combo4 : 225,83,86
Combo5 : 191,91,141

[HitObjects]
256,192,2482,1,4,0:0:0:0:
312,284,2857,2,0,P|256:308|204:288,1,120
152,192,3607,1,4,0:0:0:0:
204,100,3982,2,0,P|284:88|356:164,2,180,4|0|4,0:0|0:0|0:0,0:0:0:0:
152,192,5482,1,0,0:0:0:0:
256,192,6794,12,0,8482,0:1:0:0:
120,92,9232,6,0,P|80:184|172:276,1,240
272,260,10357,2,0,L|400:308,1,120,8|0,0:0|0:0,0:0:0:0:
492,284,11107,2,0,P|496:196|476:156,1,120,8|0,0:0|0:0,0:0:0:0:
380,192,11857,5,8,0:0:0:0:
308,112,12232,2,0,P|244:112|188:148,1,120,0|8,0:0|0:0,0:0:0:0:
196,248,12982,2,0,P|243:274|312:276,1,120,0|8,0:0|0:0,0:0:0:0:
416,280,13732,1,0,0:0:0:0:
480,192,14107,1,8,0:0:0:0:
416,104,14482,6,0,P|380:72|296:68,1,120,0|8,0:0|0:0,0:0:0:0:
201,63,15232,2,0,P|132:72|96:104,1,120,0|8,0:0|0:0,0:0:0:0:
44,200,15982,6,0,P|68:296|204:296,1,240
256,216,17107,1,8,0:0:0:0:
319,305,17482,2,0,P|444:296|468:200,1,240
408,112,18607,1,8,0:0:0:0:
316,56,18982,6,0,B|236:56|236:56|192:84,1,120,0|0,1:0|1:0,0:0:0:0:
202,185,19732,2,0,B|284:184|284:184|315:206,1,120,0|12,1:0|1:1,0:0:0:0:
256,296,20482,6,0,P|328:336|368:328,1,120,0|8,0:0|0:0,0:0:0:0:
464,300,21232,1,0,0:0:0:0:
492,196,21607,1,8,0:0:0:0:
488,88,21982,2,0,B|460:52|460:52|384:52,1,120,0|8,0:0|0:0,0:0:0:0:
276,52,22732,6,0,P|212:76|180:140,1,120,0|8,0:0|0:0,0:0:0:0:
192,224,23482,2,0,P|256:248|288:312,1,120,0|8,0:0|0:0,0:0:0:0:
204,364,24232,1,0,0:0:0:0:
96,364,24607,1,8,0:0:0:0:
4,308,24982,6,0,L|128:248,1,120,0|8,0:0|0:0,0:0:0:0:
72,156,25732,2,0,L|200:96,1,120,0|2,0:0|0:1,0:0:0:0:
280,68,26482,6,0,P|368:64|424:200,1,240,4|0,0:3|0:0,0:0:0:0:
368,276,27607,1,8,0:0:0:0:
368,276,27982,2,0,B|256:320|256:320|144:276,1,240
83,186,29107,1,8,0:0:0:0:
83,186,29482,6,0,P|144:64|232:68,1,240,4|0,0:3|0:0,0:0:0:0:
256,172,30607,1,8,0:0:0:0:
224,276,30982,2,0,P|160:336|36:280,1,240,4|4,0:3|0:3,0:0:0:0:
44,176,32107,1,8,0:0:0:0:
44,176,32482,6,0,B|96:56|96:56|208:32,1,240,4|0,0:3|0:0,0:0:0:0:
256,128,33607,1,8,0:0:0:0:
309,32,33982,2,0,B|416:56|416:56|468:176,1,240
468,280,35107,1,8,0:0:0:0:
384,348,35482,5,4,0:3:0:0:
128,348,36232,1,0,0:0:0:0:
256,192,36982,12,2,38107,0:1:0:0:
160,140,38857,6,0,P|255:79|352:140,1,240,8|8,0:0|0:0,0:0:0:0:
352,244,39982,2,0,P|255:305|160:244,1,240
256,192,41107,1,8,0:0:0:0:
352,244,41482,6,0,L|460:316,2,120,4|8|0,0:0|0:0|0:0,0:0:0:0:
328,136,42607,2,0,L|216:56,2,120,8|0|8,0:0|0:0|0:0,0:0:0:0:
400,56,43732,1,0,0:0:0:0:
428,272,44482,6,0,B|412:328|412:328|336:364,1,120,4|8,0:0|0:0,0:0:0:0:
256,316,45232,1,0,0:0:0:0:
84,184,45982,6,0,B|100:128|100:128|176:92,1,120,4|8,0:0|0:0,0:0:0:0:
256,140,46732,1,0,0:0:0:0:
256,192,47482,12,8,50107,0:0:0:0:
328,352,51607,6,0,L|180:352,1,143.999995605469,0|4,1:0|0:0,0:0:0:0:
108,264,52357,1,8,0:0:0:0:
184,180,52732,2,0,L|336:180,1,143.999995605469,0|8,0:0|0:0,0:0:0:0:
400,272,53482,2,0,P|436:216|312:64,1,287.999991210938
256,160,54607,6,0,P|164:144|140:84,2,143.999995605469,8|0|8,0:0|0:0|0:0,0:0:0:0:
256,276,55732,2,0,P|348:260|372:200,2,143.999995605469,0|8|0,0:0|0:0|0:0,0:0:0:0:
148,236,56857,1,8,0:0:0:0:
144,352,57232,1,0,0:0:0:0:
44,288,57607,6,0,P|28:224|56:148,1,143.999995605469,8|0,0:0|0:0,0:0:0:0:
152,92,58357,1,8,0:0:0:0:
256,140,58732,1,8,0:0:0:0:
360,92,59107,1,0,0:0:0:0:
464,144,59482,6,0,B|464:292|464:292|328:352,1,287.999991210938,4|0,0:0|0:0,0:0:0:0:
256,264,60607,1,8,0:0:0:0:
176,348,60982,6,0,P|109:325|80:262,1,143.999995605469,0|8,0:0|0:0,0:0:0:0:
88,148,61732,1,0,0:0:0:0:
192,192,62107,1,8,0:0:0:0:
284,120,62482,6,0,P|360:100|424:160,1,143.999995605469,2|2,0:1|0:1,0:0:0:0:
408,248,63232,2,0,P|358:282|282:262,1,143.999995605469,2|2,0:1|0:1,0:0:0:0:
192,192,63982,6,0,L|32:192,1,143.999995605469,4|8,0:0|0:0,0:0:0:0:
96,88,64732,2,0,L|256:88,1,143.999995605469,0|8,0:0|0:0,0:0:0:0:
348,128,65482,2,0,P|404:240|320:364,1,287.999991210938
208,338,66607,6,0,P|148:323|80:264,1,143.999995605469,8|0,0:0|0:0,0:0:0:0:
19,160,67357,2,0,P|62:116|148:84,1,143.999995605469,8|0,0:0|0:0,0:0:0:0:
266,82,68107,2,0,P|283:143|270:221,1,143.999995605469,8|0,0:0|0:0,0:0:0:0:
163,192,68857,1,8,0:0:0:0:
163,192,69232,1,0,0:0:0:0:
188,304,69607,5,8,0:0:0:0:
270,221,69982,2,0,L|451:221,1,180,0|4,0:0|0:0,0:0:0:0:
496,116,71482,6,0,P|464:52|276:64,1,287.999991210938,4|0,0:0|0:0,0:0:0:0:
184,136,72607,2,0,P|100:124|76:60,2,143.999995605469,8|0|8,0:0|0:0|0:0,0:0:0:0:
184,251,73732,2,0,P|100:263|76:328,2,143.999995605469,0|8|0,0:0|0:0|0:0,0:0:0:0:
288,296,74857,1,8,0:0:0:0:
396,252,75232,1,0,0:0:0:0:
396,136,75607,1,8,0:0:0:0:
288,88,75982,6,0,L|164:88,1,120,4|8,0:0|0:0,0:0:0:0:
60,104,76732,2,0,P|32:160|44:232,1,120,0|8,0:0|0:0,0:0:0:0:
136,180,77482,6,0,L|260:180,1,120,4|8,0:0|0:0,0:0:0:0:
364,196,78232,2,0,P|392:252|380:324,1,120,0|8,0:0|0:0,0:0:0:0:
296,364,78982,5,4,0:0:0:0:
188,364,79357,1,8,0:0:0:0:
84,336,79732,2,0,P|48:296|56:212,1,120,0|8,0:0|0:0,0:0:0:0:
153,232,80482,2,0,P|189:192|180:108,1,120,4|8,0:0|0:0,0:0:0:0:
83,128,81232,2,0,L|12:128,2,60,0|0|2,0:0|0:0|0:1,0:0:0:0:
148,44,81982,5,4,0:0:0:0:
363,44,82732,1,0,0:0:0:0:
488,192,83482,5,4,0:0:0:0:
273,192,84232,1,0,0:0:0:0:
148,340,84982,6,0,L|352:340,2,180,4|0|8,0:0|0:0|0:0,0:0:0:0:
104,256,86482,2,0,P|116:196|104:136,1,120,4|8,0:0|0:0,0:0:0:0:
40,68,87232,1,4,0:0:0:0:
132,48,87607,1,2,0:1:0:0:
