osu file format v9

[General]
AudioFilename: nippon egao hyaku kei.mp3
AudioLeadIn: 1004
PreviewTime: 50477
Countdown: 0
SampleSet: Soft
StackLeniency: 0.5
Mode: 0
LetterboxInBreaks: 1

[Editor]
DistanceSpacing: 0.8
BeatDivisor: 4
GridSize: 8

[Metadata]
Title:Nippon Egao Hyaku Kei
Artist:Momo kuro tei ichi mon
Creator:kuronotsubasa
Version:+_+ Nor.
Source:Joshiraku
Tags:Joshiraku Nippon Egao Hyaku Kei

[Difficulty]
HPDrainRate:3
CircleSize:4
OverallDifficulty:4
ApproachRate:4
SliderMultiplier:1.00000000596046
SliderTickRate:1

[Events]
//Background and Video events
Video,0,"Nippon Egao Hyaku Kei.avi"
0,0,"origin.jpg"
//Break Periods
//Storyboard Layer 0 (Background)
//Storyboard Layer 1 (Fail)
//Storyboard Layer 2 (Pass)
//Storyboard Layer 3 (Foreground)
//Storyboard Sound Samples
//Background Colour Transformations
3,100,163,162,255

[TimingPoints]
1352.97696144416,375,4,2,1,100,1,0
5759,-200,4,2,1,50,0,0
7352,-100,4,2,1,100,0,0
9415,-200,4,2,1,60,0,0
10165,-100,4,2,1,80,0,0
10915,-66.6666666666667,4,2,1,100,0,0
13165,-100,4,2,1,100,0,0
16259,-200,4,2,1,100,0,0
17196,-100,4,2,1,100,0,0
17665,-100,4,2,1,5,0,0
18977,-100,4,2,1,100,0,0
23759,-100,4,2,1,40,0,0
24040,-100,4,2,1,60,0,0
24415,-100,4,2,1,80,0,0
24790,-100,4,2,1,100,0,0
28352,-200,4,2,1,70,0,0
29290,-100,4,2,1,70,0,0
30200,-200,4,2,1,70,0,0
31352,-100,4,2,1,100,0,0
34165,-100,4,2,1,90,0,0
35852,-100,4,2,1,5,0,0
36977,-100,4,2,1,90,0,0
37352,-66.6666666666667,4,2,1,100,0,0
38571,-100,4,2,1,100,0,0
39134,-66.6666666666667,4,2,1,100,0,0
39884,-66.6666666666667,4,2,1,75,0,0
40071,-66.6666666666667,4,2,1,100,0,0
41196,-100,4,2,1,100,0,0
41759,-66.6666666666667,4,2,1,100,0,0
42884,-66.6666666666667,4,2,1,75,0,0
43259,-66.6666666666667,4,2,1,50,0,0
44852,-66.6666666666667,4,2,1,75,0,0
46259,-200,4,2,1,25,0,0
46634,-100,4,2,1,50,0,0
47009,-100,4,2,1,75,0,0
47384,-100,4,2,1,100,0,0
47759,-66.6666666666667,4,2,1,100,0,0
48321,-200,4,2,1,20,0,0
49071,-66.6666666666667,4,2,1,5,0,0
50477,-66.6666666666667,4,2,1,100,0,0
50852,-100,4,2,1,100,0,1
51556,-66.6666666666667,4,2,1,100,0,1
57134,-66.6666666666667,4,2,1,50,0,1
57509,-100,4,2,1,75,0,1
57884,-200,4,2,1,100,0,1
59219,-100,4,2,1,100,0,1
62759,-200,4,2,1,25,0,1
63134,-100,4,2,1,50,0,1
63509,-66.6666666666667,4,2,1,75,0,1
63884,-66.6666666666667,4,2,1,100,0,1
64259,-200,4,2,1,20,0,1
64634,-100,4,2,1,40,0,1
65009,-66.6666666666667,4,2,1,60,0,1
65384,-66.6666666666667,4,2,1,80,0,1
65759,-66.6666666666667,4,2,1,100,0,1
67259,-200,4,2,1,100,0,1
68384,-100,4,2,1,100,0,1
68759,-66.6666666666667,4,2,1,100,0,1
71196,-200,4,2,1,100,0,1
71571,-66.6666666666667,4,2,1,100,0,1
72509,-100,4,2,1,50,0,1
72884,-66.6666666666667,4,2,1,75,0,1
73259,-66.6666666666667,4,2,1,100,0,1
74852,-100,4,2,1,100,0,0
75415,-200,4,2,1,50,0,0
76165,-100,4,2,1,100,0,0
76915,-100,4,2,1,50,0,0
77571,-200,4,2,1,16,0,0
78321,-100,4,2,1,34,0,0
78509,-100,4,2,1,40,0,0
78696,-100,4,2,1,46,0,0
78884,-100,4,2,1,52,0,0
79071,-100,4,2,1,58,0,0
79259,-100,4,2,1,64,0,0
79821,-100,4,2,1,82,0,0
80009,-66.6666666666667,4,2,1,88,0,0
80196,-66.6666666666667,4,2,1,94,0,0
80384,-66.6666666666667,4,2,1,100,0,0
80571,-100,4,2,1,100,0,0
81415,-100,4,2,1,50,0,0
82165,-100,4,2,1,100,0,0
82915,-100,4,2,1,50,0,0
83665,-100,4,2,1,25,0,0
83946,-100,4,2,1,23,0,0
84134,-100,4,2,1,50,0,0
84321,-100,4,2,1,45,0,0
84509,-100,4,2,1,75,0,0
84696,-100,4,2,1,67,0,0
84884,-100,4,2,1,100,0,0
85071,-100,4,2,1,89,0,0
85259,-100,4,2,1,5,0,0
86477,-100,4,2,1,100,0,0

[Colours]
Combo1 : 0,255,0
Combo2 : 0,255,255
Combo3 : 255,128,0
Combo4 : 255,255,0

[HitObjects]
256,192,1352,1,2
184,168,1727,2,0,B|200:128|224:104|248:96,1,100.000000596046
328,72,2477,1,0
360,144,2852,2,0,B|424:128|448:184,1,100.000000596046,2|0
384,232,3602,2,0,B|448:216|456:280|456:280,1,100.000000596046
256,192,4352,12,8,5477
184,192,5852,6,0,B|208:168|240:208|272:176|312:200|328:176,1,150.000000894069,2|12
280,112,7352,5,2
200,128,7727,1,0
152,192,8102,2,0,B|136:176|136:144,4,50.000000298023,0|0|0|0|2
160,272,9227,1,0
192,296,9602,2,0,B|216:288|240:280|232:272,1,50.000000298023
280,208,10352,6,0,B|304:240|304:264|320:288|336:288,1,100.000000596046,2|0
216,320,11102,2,0,B|288:344|320:328|328:312|344:280,1,150.000006616115
448,344,11852,1,2
488,232,12227,1,0
368,216,12602,2,0,B|376:176|368:144|352:112|376:64,1,150.000006616115,0|12
296,64,13352,5,2
232,112,13727,2,0,B|240:160|272:168,2,50.000000298023
160,136,14477,1,0
104,192,14852,1,2
160,248,15227,2,0,B|136:272|112:280,1,50.000000298023
152,296,15602,1,0
80,320,15977,2,0,B|80:296|64:256,1,50.000000298023
48,264,16352,6,0,B|24:232|24:216,2,50.000000298023
64,184,17477,1,8
256,192,17852,12,4,18977
256,192,19352,6,0,B|256:224|224:248,1,50.000000298023,2|0
200,248,19727,1,0
128,272,20102,1,0
136,312,20290,2,0,B|152:344|176:344,1,50.000000298023
240,304,20852,5,2
304,344,21227,1,0
360,288,21602,6,0,B|408:272|424:320|440:360,1,100.000000596046,8|0
472,272,22352,2,0,B|416:256|392:216|384:208,1,100.000000596046
320,176,23102,1,2
320,176,23290,1,0
320,176,23477,1,0
248,144,23852,5,2
208,216,24227,5,2
136,248,24602,5,2
72,200,24977,5,8
112,128,25352,5,6
192,136,25727,2,0,B|224:144|248:128,2,50.000000298023
136,192,26477,1,0
192,248,26852,2,0,B|232:248|272:304,1,100.000000596046,2|0
192,312,27602,2,0,B|208:360|280:360,1,100.000000596046
312,352,28352,6,0,B|336:336|336:328,2,25.0000001490115,2|0|0
344,328,29102,1,0
368,296,29290,2,0,B|368:248|368:256|368:256|336:248|320:248|400:216|400:216|360:200|368:168,1,200.000001192092
360,128,30415,1,0
320,120,30790,2,0,B|304:128|288:120,2,25.0000001490115
280,128,31352,5,6
200,112,31727,2,0,B|192:96|160:80,2,50.000000298023
128,144,32477,1,0
72,208,32852,1,2
112,272,33227,1,0
192,296,33602,1,0
248,240,33977,1,0
240,200,34165,1,0
208,176,34352,5,2
136,152,34727,2,0,B|136:96,2,50.000000298023
144,232,35477,1,0
256,192,35852,12,12,36977
256,184,37540,5,0
256,184,37727,1,0
152,120,38102,2,0,B|120:144|120:184,1,75.0000033080576
144,240,38477,1,0
104,240,38665,2,0,B|105:288|121:296|153:328,1,100.000000596046,0|0
208,336,39227,1,0
328,336,39602,1,0
432,272,39977,1,8
472,160,40352,6,0,B|496:128|488:80,1,75.0000033080576,0|0
448,136,40727,2,0,B|440:88|408:48|376:40|352:24,1,150.000006616115
312,32,41290,1,0
256,96,41665,1,0
176,184,42040,2,0,B|136:160|128:128,3,75.0000033080576,0|0|0|0
136,248,42977,1,8
136,248,43165,1,0
168,360,43540,6,0,B|216:352|232:328|264:304|272:264,1,150.000006616115,2|0
384,216,44290,1,0
416,168,44477,1,0
392,112,44665,1,0
272,104,45040,6,0,B|280:168|304:192|336:216|360:224,1,150.000006616115,2|0
288,120,45790,2,0,B|272:184|240:216|200:216|184:216,1,150.000006616115
168,208,46352,5,12
104,152,46727,5,0
152,160,47102,5,2
96,216,47477,5,0
96,216,47665,5,0
128,264,47852,2,0,B|160:280|176:320,2,75.0000033080576,8|0|0
144,256,48415,2,0,B|192:256|216:232,1,75.0000004470345,0|4
256,192,49352,12,12,50477
336,168,50852,6,0,B|336:96,1,50.000000298023,2|0
360,88,51227,1,0
264,152,51602,2,0,B|264:240,1,75.0000033080576
216,264,51977,1,0
328,224,52352,2,0,B|272:288,4,75.0000004470345,2|0|0|0|0
224,168,53477,1,0
256,112,53665,1,0
208,80,53852,5,2
136,176,54227,1,0
168,224,54415,1,0
120,264,54602,1,0
240,272,54977,2,0,B|240:320|256:336|288:344,1,75.0000033080576
328,352,55352,1,2
416,272,55727,1,0
464,160,56102,1,0
384,72,56477,2,0,B|384:112|344:120|312:128,2,75.0000033080576,12|0|2
456,168,57227,6,0,B|464:232|424:256,1,75.0000033080576
424,272,57602,2,0,B|424:304|432:344,1,50.000000298023
368,328,58352,2,0,B|360:344|344:352|328:352,2,50.000000298023,2|0|0
304,280,59477,1,0
240,232,59852,5,2
312,192,60227,1,2
272,128,60602,1,0
240,104,60790,1,0
200,88,60977,1,0
160,96,61165,1,0
256,192,61352,12,12,62477
256,40,62852,6,0,B|240:56,1,12.5000000745057,2|0
256,104,63227,2,0,B|288:168,1,50.000000298023
256,208,63602,2,0,B|208:280,1,75.0000033080576
256,232,63977,2,0,B|328:304,1,75.0000033080576
328,296,64352,1,2
320,312,64540,1,0
288,336,64727,1,0
248,344,64915,1,0
192,344,65102,1,0
248,240,65477,1,0
256,120,65852,6,0,B|256:64|224:32,2,75.0000033080576,2|0|0
152,176,66602,2,0,B|152:120|192:88,2,75.0000033080576
184,208,67352,2,0,B|184:264,2,50.000000298023,2|0|0
264,192,68477,1,8
256,192,68852,12,4,69977
256,192,70352,5,2
192,296,70727,2,0,B|152:256|144:216,2,75.0000033080576
232,304,71477,1,0
344,336,71852,5,2
432,248,72227,1,0
424,168,72602,2,0,B|448:168|464:144,1,50.000000298023
416,112,72977,2,0,B|416:72|376:56,1,75.0000033080576
256,192,73352,12,12,74477
296,192,74852,6,0,B|256:152|208:192,1,100.000000596046,2|8
176,216,75602,6,0,B|176:272,1,50.000000298023,2|8
256,184,76352,5,2
208,120,76727,1,8
256,184,77102,5,2
304,120,77477,1,0
336,144,77852,2,0,B|336:168|328:192,1,50.000000298023,2|8
304,272,78602,5,2
240,320,78977,1,8
224,240,79352,6,0,B|224:208|208:192|184:176|152:176,1,100.000000596046,2|8
72,264,80102,6,0,B|88:304|112:328,2,75.0000033080576,2|2|12
120,200,80852,5,2
152,128,81227,1,8
232,144,81602,5,2
256,224,81977,1,8
184,264,82352,5,2
168,344,82727,1,8
248,352,83102,5,2
304,296,83477,1,8
384,288,83852,5,2
416,216,84227,5,8
384,144,84602,5,2
312,104,84977,5,8
256,192,85352,12,12,86477
