osu file format v9

[General]
AudioFilename: Moming Qimiao - Vacuous Mountain.mp3
AudioLeadIn: 0
PreviewTime: 76982
Countdown: 0
SampleSet: Soft
StackLeniency: 0.5
Mode: 0
LetterboxInBreaks: 1

[Editor]
DistanceSpacing: 1
BeatDivisor: 4
GridSize: 4

[Metadata]
Title:Vacuous Mountain
Artist:Moming Qimiao
Creator:cmn_891127
Version:Insane
Source:
Tags:hetu kong shan

[Difficulty]
HPDrainRate:7
CircleSize:4
OverallDifficulty:6
ApproachRate:7
SliderMultiplier:1.4
SliderTickRate:1

[Events]
//Background and Video events
0,0,"BG.jpg"
//Break Periods
2,119028,128422
//Storyboard Layer 0 (Background)
//Storyboard Layer 1 (Fail)
//Storyboard Layer 2 (Pass)
//Storyboard Layer 3 (Foreground)
//Storyboard Sound Samples
//Background Colour Transformations
3,100,163,162,255

[TimingPoints]
457,322.164948453608,4,2,1,30,1,0
29371,-200,4,2,1,30,0,0
32592,-300,4,2,1,30,0,0
33237,-200,4,2,1,5,0,0
35814,-200,4,2,1,35,0,0
36458,-100,4,2,1,35,0,0
77051,-100,4,2,1,40,0,0
77776,-100,4,2,1,45,0,1
77857,-100,4,2,1,45,0,0
98395,-100,4,2,1,45,0,1
98475,-100,4,2,1,45,0,0
117725,-100,4,2,1,40,0,0
140840,-100,4,2,1,35,0,0
162747,-200,4,2,1,30,0,0
182238,-100,4,2,1,40,0,0
183446,-100,4,2,1,45,0,1
183527,-100,4,2,1,45,0,0
204065,-100,4,2,1,50,0,1
204145,-100,4,2,1,50,0,0
223395,-100,4,2,1,35,0,0
242644,-100,4,2,1,5,0,0

[Colours]
Combo1 : 133,214,126
Combo2 : 82,131,85
SliderBorder : 255,255,255

[HitObjects]
148,116,29451,2,0,B|218:116,1,70,2|0
364,116,30096,2,0,B|294:116,1,70,8|0
116,192,30740,6,0,B|186:192,1,70,2|0
396,192,31384,2,0,B|326:192,1,70,8|0
148,268,32029,6,0,B|218:268,1,70,2|0
364,268,32673,2,0,B|294:268,1,70,8|0
256,192,33962,12,8,35250
236,84,35895,6,0,B|200:76|168:92,1,70,8|0
296,148,36539,6,0,B|252:208|176:208,1,140,6|0
44,256,37183,2,0,B|80:248|112:260,1,70,0|0
176,292,37505,2,0,B|210:277|243:284,1,70,0|0
312,308,37828,2,0,B|388:308|436:252,1,140,8|0
416,116,38472,6,0,B|383:97|347:106,1,70,8|0
308,164,38794,2,0,B|256:220|180:212,1,140,0|2
204,72,39438,2,0,B|136:44|68:72,1,140,0|8
4,196,40083,2,0,B|32:216|72:212,1,70,0|0
140,196,40405,2,0,B|216:184|268:236,1,140,0|0
384,156,41049,6,0,B|426:216|405:289,2,140,0|0|10
324,192,41855,1,0
256,212,42016,2,0,B|220:216|192:192,1,70
244,140,42338,2,0,B|192:88|116:92,1,140,0|8
0,172,42982,2,0,B|28:196|64:192,1,70,8|0
124,232,43304,2,0,B|152:208|188:212,1,70
252,248,43627,6,0,B|280:272|316:268,1,70,8|0
373,312,43949,2,0,B|448:328|508:288,2,140,8|2|0
392,168,44915,2,0,B|396:97|345:40,2,140,8|0|0
256,140,45882,1,0
128,192,46204,6,0,B|96:176|60:180,1,70,0|0
60,108,46526,2,0,B|96:112|128:96,1,70,0|0
195,71,46848,2,0,B|268:52|332:84,1,140,6|0
444,168,47493,2,0,B|412:152|375:160,1,70,0|0
312,192,47815,2,0,B|280:208|243:199,1,70,0|0
196,252,48137,2,0,B|160:249|133:224,2,70,8|0|0
248,300,48620,1,0
180,320,48781,6,0,B|108:331|46:290,1,140,8|8
140,184,49426,2,0,B|212:183|266:131,1,140,2|0
400,84,50070,2,0,B|471:104|508:167,2,140,8|0|0
260,96,51036,1,0
116,104,51359,6,0,B|84:84|49:90,1,70,8|0
68,158,51681,2,0,B|20:214|28:288,1,140,0|10
80,336,52164,1,0
132,288,52325,2,0,B|168:280|200:296,1,70
260,336,52647,2,0,B|332:352|396:316,1,140,0|0
496,216,53292,2,0,B|456:154|468:81,1,140,8|0
335,44,53936,6,0,B|304:64|268:56,1,70,8|0
208,92,54258,2,0,B|172:84|140:103,1,70,0|0
84,144,54580,2,0,B|95:218|164:252,1,140,2|0
300,204,55225,2,0,B|327:274|284:337,2,140,0|0|0
256,60,56513,6,0,B|327:42|389:85,1,140,8|0
448,128,56996,1,0
488,188,57158,2,0,B|504:218|495:255,2,70,6|0|0
353,227,57802,2,0,B|308:285|232:288,1,140,0|0
160,292,58285,1,0
88,284,58446,2,0,B|48:280|31:248,1,70,8|0
94,212,58768,2,0,B|77:179|37:176,1,70,0|0
44,104,59091,6,0,B|100:60|176:68,1,140,8|0
248,72,59574,1,0
308,108,59735,2,0,B|371:148|440:135,1,140,2|0
468,272,60379,2,0,B|406:227|336:237,2,140,8|0|0
336,320,61346,1,0
200,352,61668,6,0,B|166:369|132:358,2,70,8|0|0
160,292,62151,1,0
128,228,62312,2,0,B|85:167|110:94,1,140,10|0
247,124,62956,2,0,B|212:136|180:116,1,70
220,60,63279,2,0,B|242:30|280:28,1,70,0|0
352,28,63601,2,0,B|408:80|480:72,1,140,8|0
512,212,64245,6,0,B|468:268|388:260,1,140,8|0
316,256,64728,1,0
256,220,64889,2,0,B|228:196|188:200,1,70,2|0
204,272,65212,2,0,B|144:316|72:304,2,140,0|8|0
108,168,66178,2,0,B|168:124|240:136,1,140
204,272,66822,6,0,B|279:272|323:333,1,140,8|0
388,360,67306,1,0
452,332,67467,2,0,B|487:315|492:278,1,70,6|0
424,268,67789,2,0,B|384:208|399:134,1,140
280,64,68433,2,0,B|314:73|332:107,1,70
296,168,68755,2,0,B|224:187|164:140,1,140,8|0
104,100,69239,1,0
96,172,69400,6,0,B|88:208|52:224,1,70,8|0
52,295,69722,2,0,B|124:288|187:323,1,140,0|2
248,364,70205,1,0
320,364,70366,2,0,B|356:364|384:340,1,70
440,292,70688,2,0,B|411:267|375:267,1,70,8|0
303,267,71011,2,0,B|260:208|279:135,2,140,0|0|0
164,272,71977,6,0,B|89:272|39:218,1,140,8|0
4,156,72460,1,0
52,100,72621,2,0,B|102:46|179:46,2,140,10|0|0
164,188,73588,1,0
184,260,73749,1,0
236,312,73910,2,0,B|303:335|373:312,1,140,8|0
301,188,74554,2,0,B|231:164|164:188,1,140,8|0
256,192,75199,12,8,76487
256,192,77132,5,8
256,192,77454,1,0
255,192,77776,6,0,B|228:216|190:212,1,70,14|0
196,284,78098,2,0,B|159:284|133:257,1,70
92,320,78420,2,0,B|63:296|60:259,1,70,0|0
52,188,78743,2,0,B|128:188|176:132,1,140,0|8
224,80,79226,2,0,B|252:56|288:56,2,70
280,128,79709,6,0,B|256:200|300:260,1,140,8|0
352,312,80192,1,0
403,260,80353,2,0,B|448:200|424:128,1,140,2|0
315,36,80998,2,0,B|288:60|251:59,1,70,8|0
220,124,81320,2,0,B|183:123|155:147,1,70,0|0
124,212,81642,2,0,B|96:235|59:235,1,70,0|0
24,300,81964,2,0,B|23:336|47:364,1,70
96,311,82286,6,0,B|160:272|232:296,1,140,8|0
296,324,82770,1,0
363,347,82931,2,0,B|400:347|428:324,1,70,10|0
376,276,83253,2,0,B|348:207|384:140,1,140,0|0
256,76,83897,1,0
184,76,84058,1,0
128,120,84219,2,0,B|76:172|0:164,1,140,8|0
0,92,84703,1,0
72,92,84864,6,0,B|64:167|116:219,1,140,8|0
168,272,85347,1,0
188,204,85508,2,0,B|256:176|324:204,2,140,2|0|8
256,328,86475,1,0
396,327,86797,2,0,B|464:292|463:214,1,140,0|0
317,196,87441,6,0,B|293:224|256:224,1,70,8|0
189,196,87763,2,0,B|151:196|128:224,1,70,0|0
88,284,88085,2,0,B|118:353|194:362,1,140,6|0
256,328,88569,1,0
320,295,88730,2,0,B|352:276|387:286,1,70,8|0
388,356,89052,2,0,B|424:353|447:323,1,70,0|0
447,250,89374,2,0,B|404:192|423:117,1,140,8|0
360,84,89857,1,0
298,117,90018,6,0,B|265:136|230:127,1,70,8|0
252,60,90341,2,0,B|178:40|117:81,2,140,0|2|0
230,127,91146,1,0
172,164,91307,2,0,B|111:205|38:185,2,140
248,284,92274,1,0
300,236,92435,1,0
364,204,92596,6,0,B|427:167|498:193,1,140,8|0
400,296,93240,2,0,B|392:332|356:348,1,70,10|0
288,368,93562,2,0,B|252:379|220:355,1,70
268,300,93884,2,0,B|204:268|132:284,1,140,0|0
32,188,94529,2,0,B|4:163|2:127,1,70,8|0
74,129,94851,2,0,B|80:92|111:72,1,70,0|0
146,138,95173,6,0,B|211:177|280:154,2,140,8|0|2
264,60,96139,1,0
404,80,96462,1,8
500,184,96784,1,0
488,324,97106,1,0
256,192,97750,5,8
256,192,98072,1,0
256,192,98395,6,0,B|229:215|191:212,1,70,14|0
204,140,98717,2,0,B|148:96|70:114,2,140,0|0|8
113,247,99683,2,0,B|39:224|11:156,2,140,0|0|0
103,107,100650,2,0,B|123:136|158:144,1,70,0|0
170,72,100972,6,0,B|230:32|304:44,1,140,2|0
384,160,101616,2,0,B|356:183|320:183,1,70,8|0
256,216,101938,2,0,B|219:215|191:192,1,70,0|0
136,148,102261,2,0,B|64:128|0:168,1,140,0|0
88,288,102905,6,0,B|152:328|224:312,1,140,8|8
292,300,103388,1,0
360,324,103549,2,0,B|392:344|428:336,1,70,10|0
404,268,103871,2,0,B|376:200|408:132,2,140
480,152,104838,6,0,B|511:84|483:16,1,140,8|0
420,48,105321,1,0
356,76,105482,2,0,B|291:113|221:91,1,140,8|0
164,232,106127,6,0,B|234:254|298:217,2,140,2|0|8
272,324,107093,1,8
344,320,107254,1,0
411,295,107415,2,0,B|482:269|508:199,1,140,0|0
372,160,108060,6,0,B|344:136|308:140,1,70,8|0
244,172,108382,2,0,B|207:167|179:191,1,70,0|0
124,236,108704,2,0,B|48:236|4:176,1,140,6|0
116,92,109348,2,0,B|148:80|184:92,1,70,0|0
256,92,109670,2,0,B|288:104|324:92,1,70,0|0
391,116,109993,2,0,B|356:180|371:251,1,140,8|0
488,176,110637,6,0,B|523:239|508:311,1,140,8|0
440,332,111120,1,0
368,340,111281,2,0,B|296:348|238:297,2,140,2|0|8
340,204,112248,2,0,B|282:153|211:162,2,140,0|0|0
240,300,113214,5,8
100,300,113536,1,0
52,248,113697,1,0
118,232,113859,2,0,B|188:251|256:224,2,140,10|0|0
181,99,114825,1,0
255,224,115147,2,0,B|323:251|393:232,2,140,8|0|8
331,99,116114,1,0
436,192,116436,5,2
331,285,116758,1,0
181,285,117080,1,8
76,192,117402,1,0
181,99,117725,1,0
256,192,129322,5,6
156,92,129645,1,0
220,56,129806,1,0
292,56,129967,1,8
256,192,130289,1,8
256,192,130611,5,2
392,156,130933,1,0
391,228,131094,1,0
355,291,131255,1,8
256,192,131578,1,8
256,192,131900,5,2
219,327,132222,1,0
156,291,132383,1,0
120,228,132544,1,8
256,192,132866,1,8
256,192,133188,6,0,B|200:148|124:156,1,140,2|0
256,95,133833,2,0,B|288:76|323:82,1,70,8|0
384,120,134155,2,0,B|415:100|451:106,1,70,8|0
436,180,134477,5,2
436,180,134799,1,0
328,272,135121,1,8
328,272,135444,1,8
184,272,135766,5,2
184,272,136089,1,0
76,180,136411,1,8
76,180,136733,1,8
256,192,137054,12,8,138987
256,192,139632,5,2
186,313,139954,1,0
256,332,140115,1,0
326,313,140276,1,8
256,192,140598,1,8
256,192,140920,1,2
256,52,141565,5,8
116,52,141887,2,0,B|82:56|57:84,1,70
116,124,142209,2,0,B|74:183|93:257,2,140,6|0|0
224,212,143176,2,0,B|256:228|296:220,1,70
364,208,143498,2,0,B|439:200|495:244,1,140,8|0
496,316,143981,1,0
424,316,144142,6,0,B|368:360|292:352,1,140,8|0
224,340,144625,1,0
164,300,144786,2,0,B|103:256|33:266,2,140,2|0|8
128,164,145753,1,0
196,188,145914,1,0
268,200,146075,2,0,B|339:210|400:166,1,140
144,80,146719,6,0,B|72:104|44:172,1,140,8|0
24,240,147203,1,0
80,284,147364,2,0,B|141:327|214:302,2,140,10|0|0
212,231,148330,2,0,B|244:212|279:219,1,70
352,228,148652,2,0,B|427:239|481:190,1,140
512,124,149136,1,0
464,72,149297,6,8,B|408:20|336:32,1,140,8|0
268,44,149780,1,8
204,76,149941,2,8,B|176:100|136:96,1,70,2|0
138,166,150263,2,8,B|65:178|5:134,2,140,0|8|0
276,144,151230,2,8,B|348:131|408:175,1,140,0|0
312,276,151874,6,8,B|240:263|180:307,1,140,8|0
124,352,152357,1,0
60,320,152518,2,0,B|24:305|17:269,1,70,6|0
85,255,152841,2,0,B|124:196|112:120,2,140
148,288,153646,1,0
204,244,153807,2,0,B|263:197|335:216,1,140,8|0
404,232,154290,1,0
456,184,154451,6,0,B|464:148|500:132,1,70,8|0
499,61,154774,2,0,B|427:68|364:33,1,140,0|2
294,33,155257,1,0
224,48,155418,1,0
164,84,155579,1,0
104,128,155740,2,0,B|75:152|40:152,1,70,8|0
40,224,156062,2,0,B|68:248|103:248,1,70,0|0
176,248,156384,2,0,B|232:201|307:214,1,140,2|0
280,352,157029,6,0,B|354:365|411:318,1,140,8|0
456,264,157512,1,0
480,196,157673,2,0,B|424:148|348:156,1,140,10|0
256,52,158317,1,0
305,101,158478,1,0
255,150,158639,1,0
205,100,158801,1,0
184,168,158962,2,0,B|161:235|184:305,1,140,8|0
327,305,159606,2,0,B|351:235|328:168,1,140,8|0
256,192,160250,12,8,161539
148,48,162183,6,0,B|219:28|283:64,1,140,8|8
152,120,162828,6,0,B|164:196|232:228,1,140,10|0
300,252,163794,1,0
388,148,164438,2,0,B|388:187|356:208,2,70,0|8|0
316,148,165405,2,0,B|264:96|188:96,2,140,2|8|0
208,240,167338,5,8
208,240,167660,1,0
268,280,167982,2,0,B|244:307|208:312,1,70,10|0
139,337,168627,2,0,B|102:337|76:312,1,70,0|0
44,248,169271,2,0,B|12:180|40:112,2,140,8|8|2
168,184,171204,2,0,B|236:208|305:184,1,140,8|0
235,59,172493,6,0,B|204:40|168:47,2,70,8|0|10
301,87,173459,2,0,B|365:127|436:112,1,140,0|0
464,50,174426,2,0,B|421:113|435:184,1,140,8|8
376,312,175714,5,2
376,312,176036,2,0,B|318:353|244:344,1,140,0|0
172,331,177003,1,2
208,196,177647,5,8
144,224,177969,1,0
200,268,178292,2,0,B|276:268|324:212,1,140,10|0
360,152,179258,1,0
304,108,179580,2,0,B|228:108|180:164,1,140,8|8
256,192,180869,12,8,182158
256,192,182802,5,8
256,192,183124,1,0
256,192,183446,6,0,B|312:236|388:224,1,140,6|0
452,192,183929,2,0,B|432:161|392:152,2,70,0|8|0
472,260,184413,2,0,B|416:304|340:292,2,140,0|8|0
512,200,185218,1,0
472,140,185379,6,0,B|449:111|414:105,1,70,8|0
340,96,185701,2,0,B|317:124|282:130,1,70,0|0
276,60,186024,2,0,B|216:20|140:32,1,140,2|0
80,64,186507,1,0
80,136,186668,2,0,B|108:159|144:159,1,70,8|0
196,208,186990,2,0,B|233:207|261:184,1,70,0|0
312,135,187312,2,0,B|384:116|445:160,1,140
460,292,187957,6,0,B|396:332|324:316,1,140,8|0
256,304,188440,1,0
188,328,188601,2,0,B|156:348|120:340,1,70,10|0
144,272,188923,2,0,B|172:204|140:136,1,140,0|0
120,68,189406,2,0,B|80:56|64:24,2,70,0|0|0
184,100,189889,2,0,B|248:136|320:120,1,140,8|0
292,52,190373,2,0,B|356:16|428:32,1,140,0|0
488,72,190856,5,0
488,144,191017,1,0
420,168,191178,2,0,B|356:200|284:184,2,140,2|0|8
368,304,192145,1,0
296,316,192306,1,0
224,316,192467,2,0,B|148:316|100:260,1,140,0|0
144,124,193111,6,0,B|172:100|208:104,1,70,8|0
260,156,193433,2,0,B|297:151|325:175,1,70,0|0
380,220,193755,2,0,B|456:220|500:160,1,140,6|0
380,76,194400,2,0,B|343:75|315:51,1,70
244,52,194722,2,0,B|216:76|180:76,1,70
112,104,195044,2,0,B|165:156|149:232,1,140,8|0
201,336,195688,6,0,B|232:356|268:349,2,70,8|0|0
248,280,196172,1,0
320,276,196333,2,0,B|392:272|440:212,2,140,0|0|8
280,216,197138,1,0
224,172,197299,2,0,B|164:128|92:146,2,140,0|0|0
336,84,198266,6,0,B|372:80|396:52,1,70,8|0
444,108,198588,2,0,B|484:168|470:242,1,140,0|6
400,241,199071,1,0
330,241,199232,2,0,B|306:269|269:272,1,70
248,340,199554,2,0,B|173:353|113:313,2,140,8|0|2
320,328,200360,1,0
380,288,200521,2,0,B|404:260|440:256,1,70
412,188,200843,6,0,B|337:201|277:161,2,140,8|0|2
363,55,201810,1,0
233,67,202132,1,8
167,92,202293,1,0
126,149,202454,2,0,B|182:198|256:192,1,140,0|0
256,192,203420,5,8
127,150,203743,2,0,B|127:114|159:90,1,70,0|0
199,150,204065,6,0,B|255:103|331:111,1,140,14|0
400,112,204548,1,0
468,136,204709,2,0,B|476:172|460:204,1,70,8|0
420,264,205031,2,0,B|388:248|352:256,2,70,8|0|2
380,324,205514,1,0
312,348,205676,2,0,B|279:364|243:356,1,70
184,316,205998,6,0,B|144:252|72:238,1,140,8|8
0,232,206481,1,0
40,172,206642,2,0,B|59:140|94:133,1,70,10|0
168,132,206964,2,0,B|240:152|312:120,1,140,0|8
372,96,207447,2,0,B|399:71|435:73,2,70,0|0|0
428,144,207931,2,0,B|454:171|454:207,1,70,8|0
408,264,208253,2,0,B|381:236|381:200,1,70,0|0
356,132,208575,6,0,B|320:132|293:158,1,70,8|0
300,232,208897,2,0,B|264:231|237:205,1,70,0|0
168,192,209219,2,0,B|141:165|105:165,1,70,6|0
56,220,209542,1,0
0,172,209703,1,0
48,116,209864,2,0,B|74:89|74:53,1,70,8|0
148,52,210186,2,0,B|192:52,2,35,0|0|0
144,124,210508,2,0,B|204:168|280:152,1,140,2|0
348,140,210991,1,0
420,140,211152,6,0,B|456:140|480:172,1,70,8|0
420,212,211475,2,0,B|420:248,2,35
348,212,211797,1,10
348,212,211958,1,0
284,244,212119,2,0,B|220:280|148:268,1,140,0|8
76,256,212602,1,0
76,184,212763,2,0,B|140:148|212:160,2,140,0|2|0
76,256,213569,1,0
100,324,213730,6,0,B|116:360|152:366,1,70,8|0
224,360,214052,2,0,B|259:344|265:307,1,70,0|0
340,316,214374,2,0,B|416:324|469:274,1,140,14|0
512,216,214857,1,0
468,156,215018,2,0,B|468:84,2,70,8|0|8
424,216,215502,1,0
352,216,215663,2,0,B|312:152|240:140,1,140,2|0
168,140,216146,1,0
144,208,216307,6,0,B|132:240|144:276,1,70,8|0
84,316,216629,2,0,B|105:342|142:350,1,70,0|0
204,313,216951,2,0,B|275:297|340:332,1,140,10|0
392,284,217435,1,0
448,332,217596,2,0,B|520:332,2,70,8|0|8
472,264,218079,1,0
432,204,218240,6,0,B|362:224|298:182,1,140,2|0
240,140,218723,1,0
192,88,218884,2,0,B|166:112|129:111,1,70
64,140,219207,2,0,B|38:164|1:163,1,70
0,236,219529,6,0,B|70:216|134:258,1,140,6|0
192,300,220012,1,0
240,352,220173,2,0,B|266:328|303:329,1,70
368,300,220495,2,0,B|394:276|431:277,1,70
455,208,220817,6,0,B|382:210|326:165,1,140,2|0
266,121,221301,1,0
197,144,221462,2,0,B|164:158|156:197,1,70,8|0
211,242,221784,2,0,B|246:227|256:192,1,70,0|0
256,192,222106,12,8,223395
276,52,224039,6,4,B|208:32|136:52,2,140,8|0|10
256,192,225005,1,0
236,332,225328,2,0,B|304:352|376:332,1,140,0|0
512,296,225972,1,8
412,196,226294,1,0
284,140,226616,1,8
148,116,226938,1,0
8,116,227261,1,2
8,116,227905,1,8
256,316,229194,6,0,B|188:336|116:316,2,140,8|0|6
380,244,230160,2,0,B|308:224|240:244,2,140,0|0|0
256,168,231127,2,0,B|186:188|118:168,1,140,8|0
184,44,231771,1,8
320,44,232093,1,0
452,92,232415,1,2
452,92,233060,1,8
141,63,234348,6,0,B|212:44|280:64,2,140,8|0|6
16,132,235315,2,0,B|83:151|154:132,1,140,0|0
292,152,235959,2,0,B|256:160|224:152,2,70,0|0|8
428,192,236603,1,0
328,292,236926,1,8
184,292,237248,1,0
84,192,237570,1,2
84,192,238214,1,8
256,112,239503,6,0,B|232:160|280:200|256:252,2,140,8|0|6
117,323,240792,2,0,B|186:304|255:323,1,140,0|0
394,323,241436,2,0,B|325:343|255:323,1,140,8|0
256,192,242080,1,8
256,192,242402,1,0
256,192,242725,12,8,245302
