osu file format v9

[General]
AudioFilename: Marvellous Girl.mp3
AudioLeadIn: 1996
PreviewTime: 27384
Countdown: 0
SampleSet: Soft
StackLeniency: 0.7
Mode: 0
LetterboxInBreaks: 1

[Editor]
Bookmarks: 51009,63009,78665
DistanceSpacing: 1
BeatDivisor: 4
GridSize: 8

[Metadata]
Title:Qi Miao Niang
Artist:Moming Qimiao
Creator:H-boy
Version:Normal
Source:
Tags:

[Difficulty]
HPDrainRate:4
CircleSize:3
OverallDifficulty:3
ApproachRate:4
SliderMultiplier:1.2
SliderTickRate:1

[Events]
//Background and Video events
0,0,"bg.png"
//Break Periods
//Storyboard Layer 0 (Background)
//Storyboard Layer 1 (Fail)
//Storyboard Layer 2 (Pass)
//Storyboard Layer 3 (Foreground)
//Storyboard Sound Samples
//Background Colour Transformations
3,100,163,162,255

[TimingPoints]
1507,375,4,1,0,40,1,0
13413,-100,4,2,0,41,0,0
13600,-100,4,2,0,59,0,0
63007,-100,4,2,0,73,0,1
85507,-100,4,2,0,73,0,0
124507,-100,4,2,0,70,0,1
147007,-100,4,2,0,56,0,0
148507,-100,4,1,0,57,0,1
162007,-100,4,2,0,70,0,0

[Colours]
Combo1 : 88,58,112
Combo2 : 249,177,254
Combo3 : 250,50,215
Combo4 : 190,119,238
SliderBorder : 255,255,128

[HitObjects]
56,192,1507,6,0,B|184:192,1,120,0|2
112,88,2257,2,0,B|240:88,1,120,0|2
352,88,3007,2,0,B|392:144,1,60,0|8
456,232,3569,1,0
456,232,3944,2,0,B|376:232,1,60,8|0
288,280,4507,6,0,B|152:280,1,120,0|2
64,224,5257,1,0
288,144,6007,2,2,B|472:144,1,180,2|0
208,288,7507,6,0,B|80:288,1,120,0|2
128,176,8257,2,0,B|0:176,1,120,0|2
40,64,9007,2,0,B|112:48,1,60,0|8
200,120,9569,1,0
296,48,9944,2,0,B|368:72,1,60,8|0
360,184,10507,6,0,B|496:184,1,120,0|2
424,288,11257,1,0
184,288,12007,2,0,B|72:288,2,90,0|4|0
448,152,13507,5,4
344,88,13882,2,0,B|248:64|192:136|96:96,2,240,0|0|0
344,208,15757,1,2
144,336,16507,5,0
48,120,17257,2,0,B|184:64|288:168,1,240
160,192,18382,2,0,B|112:256|184:320,1,120,0|2
376,184,19507,5,2
152,104,20257,2,0,B|176:200|104:256|144:352,2,240,0|0|2
256,192,22507,12,0,24757
256,192,26069,5,0
256,192,26444,1,2
440,192,27007,1,4
384,88,27382,6,0,B|264:40|128:96,2,240,0|2|0
280,304,29632,1,2
104,144,30382,2,0,B|160:184|224:136,1,120,0|2
72,336,31507,2,0,B|216:296|376:320|440:352,1,360
392,232,33007,5,2
312,144,33382,2,0,B|232:120|248:40,1,120
8,104,34507,2,0,B|136:160|112:320,2,240,0|0|2
232,24,36757,2,0,B|240:104|296:176|408:192,1,240,0|2
8,360,39007,5,4
120,328,39382,2,0,B|168:208|112:72,2,240,0|2|0
312,184,41632,1,2
312,184,42382,2,0,B|272:240|320:304,1,120,0|2
416,80,43507,2,0,B|272:40|112:64|48:96,1,360
120,192,45007,5,2
32,280,45382,2,0,B|56:360|136:344,1,120
280,168,46507,2,0,B|224:40|64:64,2,240,0|0|2
96,320,48757,1,0
96,320,49132,2,0,B|216:320,1,120,0|2
256,56,51007,5,2
256,344,52507,1,0
256,344,53257,1,2
256,104,54007,6,0,B|400:120|432:264,1,240
184,248,55507,1,2
40,112,57007,6,0,B|80:40|80:40|104:88|104:80|104:80|112:80|240:80,1,240,2|0
40,248,58507,2,0,B|80:320|80:320|104:272|104:280|104:280|112:280|240:280,1,240,2|0
256,48,60007,6,0,B|336:48|368:112,1,120,0|2
272,176,60757,2,0,B|272:256|272:320,1,120,0|2
168,360,61507,2,0,B|88:360|56:296,1,120,0|2
264,16,63007,6,0,B|336:32|408:8,1,120,2|8
448,120,63757,2,0,B|424:192|456:248,1,120,0|8
336,264,64507,2,0,B|208:232|96:304,2,240,0|2|0
192,72,66757,1,0
432,48,67507,6,0,B|368:88|384:160,1,120,2|10
504,136,68257,2,0,B|504:272,1,120,2|10
392,296,69007,6,0,B|320:280|248:304,1,120,2|8
152,280,69757,2,0,B|176:208|144:152,1,120,0|8
216,64,70507,2,0,B|344:96|456:24,2,240,0|2|0
304,288,72757,1,0
64,328,73507,6,0,B|128:288|112:216,1,120,2|10
8,168,74257,2,0,B|8:32,1,120,2|10
128,72,75007,6,0,B|200:176|352:136,1,240,2|0
432,56,76132,1,0
456,176,76507,2,0,B|480:296,1,120,2|8
368,240,77257,2,0,B|368:368,1,120,2|8
264,304,78007,6,0,B|192:192|48:208,3,240,0|2|0|2
296,160,81007,6,0,B|160:160|96:16,1,240,2|0
64,144,82132,1,0
64,144,82507,2,0,B|40:264,1,120,2|8
152,312,83257,2,0,B|152:184,1,120,0|8
264,160,84007,6,0,B|336:272|480:256,3,240,0|2|0|2
240,64,87194,5,0
168,160,87569,1,0
96,64,87944,1,2
48,240,88507,1,4
160,288,88882,6,0,B|192:160|328:104,2,240,0|2|0
88,56,91132,1,0
88,56,91882,2,0,B|48:112|96:176,1,120,0|2
328,160,93007,2,0,B|344:328|24:176|96:360,1,360
208,344,94507,5,2
328,344,94882,2,0,B|352:264|432:280,1,120
320,56,96007,2,0,B|264:184|104:160,2,240,0|0|2
376,288,98257,2,0,B|336:240|280:224|184:240|144:280,1,240,0|2
16,40,100507,5,4
120,96,100882,2,0,B|240:144|376:88,2,240,0|2|0
64,328,103132,1,0
64,328,103882,2,0,B|120:288|184:336,1,120,0|2
344,160,105007,2,0,B|272:208|200:208|136:192|64:176|32:88|32:56,1,360
152,56,106507,5,2
272,64,106882,2,0,B|360:64|416:64,1,120
168,144,108007,2,0,B|128:288|280:352,2,240,0|0|2
376,32,110257,1,0
376,152,110632,2,0,B|376:272,1,120,0|2
256,56,112507,5,2
464,344,113632,1,0
464,344,114007,1,2
280,192,114757,1,0
40,192,115507,5,2
400,192,116632,1,0
400,192,117007,1,2
160,192,117757,1,0
392,128,118507,6,0,B|352:56|352:56|328:104|328:96|328:96|320:96|192:96,1,240,2|0
392,264,120007,2,0,B|352:336|352:336|328:288|328:296|328:296|320:296|192:296,1,240,2|0
184,56,121507,6,0,B|104:56|72:120,1,120,0|2
192,152,122257,2,0,B|192:232|192:296,1,120,0|2
288,336,123007,2,0,B|368:336|400:272,1,120,0|2
64,144,124507,6,0,B|104:216|192:184,2,120,2|8|0
176,96,125632,2,0,B|216:24|304:56,2,120,8|2|8
248,192,126757,1,0
464,296,127507,6,0,B|464:152|304:112,1,240,2|2
352,240,128632,1,0
232,248,129007,2,0,B|96:272,1,120,2|10
144,152,129757,2,0,B|16:128,1,120,2|10
144,152,130507,6,0,B|184:80|272:112,2,120,2|8|0
224,240,131632,2,0,B|184:312|96:280,2,120,8|2|8
136,160,132757,1,0
352,64,133507,6,0,B|352:208|512:248,1,240,2|2
376,296,134632,1,0
280,224,135007,2,0,B|144:200,1,120,2|10
88,296,135757,2,0,B|216:320,1,120,2|10
328,336,136507,6,0,B|432:264|392:112,1,240,2|0
280,104,137632,1,0
184,168,138007,2,0,B|64:144,1,120,2|8
112,32,138757,2,0,B|240:32,1,120,2|8
320,112,139507,6,0,B|432:184|416:328,3,240,0|2|0|2
232,168,142507,6,0,B|232:304|376:368,1,240,2|0
400,248,143632,1,0
424,128,144007,2,0,B|296:72,1,120,2|8
232,168,144757,2,0,B|104:168,1,120,0|8
104,48,145507,6,0,B|-16:128|40:264,3,240,0|2|0|2
272,192,148507,6,0,B|408:192,1,120,4|8
320,288,149257,2,0,B|456:288,1,120,0|8
464,168,150007,2,0,B|464:48,3,120,0|8|0|8
344,72,151507,6,0,B|312:8|224:16|192:40|160:104|200:152,1,240
288,192,152632,1,8
232,296,153007,2,0,B|264:360|352:352|384:328|416:264|376:216,1,240
160,168,154507,6,0,B|24:168,1,120,4|8
128,88,155257,2,0,B|-8:88,1,120,0|8
40,200,156007,2,0,B|40:320,3,120,0|8|0|8
160,304,157507,6,0,B|192:368|280:360|312:336|344:272|304:224,1,240
216,184,158632,1,8
272,80,159007,2,0,B|240:16|152:24|120:48|88:112|128:160,1,240
288,184,160319,6,2,B|288:264,2,60,2|0|2
288,64,161069,2,2,B|360:96|424:80,1,120
404,264,162007,1,4
