osu file format v9

[General]
AudioFilename: Marvellous Girl.mp3
AudioLeadIn: 1996
PreviewTime: 27384
Countdown: 0
SampleSet: Soft
StackLeniency: 0.7
Mode: 0
LetterboxInBreaks: 1

[Editor]
Bookmarks: 51009,63009,78665
DistanceSpacing: 1
BeatDivisor: 4
GridSize: 4

[Metadata]
Title:Qi Miao Niang
Artist:Moming Qimiao
Creator:H-boy
Version:Hard
Source:
Tags:

[Difficulty]
HPDrainRate:6
CircleSize:4
OverallDifficulty:6
ApproachRate:7
SliderMultiplier:1.7
SliderTickRate:1

[Events]
//Background and Video events
0,0,"bg.png"
//Break Periods
2,50457,55357
2,111957,116857
//Storyboard Layer 0 (Background)
//Storyboard Layer 1 (Fail)
//Storyboard Layer 2 (Pass)
//Storyboard Layer 3 (Foreground)
//Storyboard Sound Samples
//Background Colour Transformations
3,100,163,162,255

[TimingPoints]
1507,375,4,1,0,40,1,0
12475,-100,4,1,0,52,0,0
13225,-100,4,2,0,73,0,0
15663,-100,4,2,0,49,0,0
15850,-100,4,2,0,73,0,0
16038,-100,4,1,0,46,0,0
16225,-100,4,2,0,73,0,0
18663,-100,4,2,0,48,0,0
18850,-100,4,2,0,73,0,0
19038,-100,4,1,0,49,0,0
19225,-100,4,2,0,73,0,0
21663,-100,4,2,0,49,0,0
21850,-100,4,2,0,73,0,0
22132,-133.333333333333,4,2,0,73,0,0
22507,-100,4,2,0,73,0,0
23725,-100,4,2,0,51,0,0
25225,-100,4,2,0,47,0,0
27100,-100,4,2,0,58,0,0
33288,-100,4,2,0,73,0,0
38722,-100,4,2,0,51,0,0
39100,-100,4,2,0,73,0,0
44913,-100,4,2,0,49,0,0
45100,-100,4,2,0,73,0,0
62163,-100,4,1,0,48,0,0
63007,-100,4,2,0,73,0,1
73975,-100,4,1,0,46,0,1
74350,-100,4,1,0,55,0,1
74725,-100,4,2,0,70,0,1
74913,-100,4,2,0,73,0,1
80725,-100,4,1,0,51,0,1
81100,-100,4,2,0,73,0,1
85507,-100,4,2,0,73,0,0
88413,-100,4,2,0,61,0,0
94413,-100,4,2,0,45,0,0
94600,-100,4,2,0,61,0,0
123663,-100,4,1,0,40,0,0
124038,-100,4,1,0,60,0,0
124507,-100,4,2,0,70,0,1
135475,-100,4,1,0,49,0,1
135850,-100,4,1,0,70,0,1
136225,-100,4,2,0,70,0,1
142319,-100,4,1,0,51,0,1
142600,-100,4,2,0,70,0,1
147007,-100,4,2,0,70,0,0
148507,-100,4,1,0,57,0,1
162007,-100,4,2,0,70,0,0

[Colours]
Combo1 : 88,58,112
Combo2 : 249,177,254
Combo3 : 250,50,215
Combo4 : 190,119,238
SliderBorder : 255,255,128

[HitObjects]
256,256,1507,1,0
200,224,1694,1,0
168,168,1882,1,8
72,72,2257,2,0,B|176:96|232:0,1,170,0|8
288,16,2819,1,0
328,72,3007,2,0,B|304:120|232:136,1,85,2|0
200,160,3382,1,2
264,192,3569,2,0,B|352:232|416:304,1,170,0|0
408,360,4132,1,8
472,240,4507,5,2
472,104,4882,1,8
344,72,5257,1,2
304,128,5444,1,0
256,256,5819,1,0
256,256,6007,1,2
256,256,6382,1,8
192,256,6569,2,0,B|208:360|336:352,1,170
368,320,7132,6,0,B|368:144,1,170,0|2
264,56,7882,1,8
264,56,8257,2,0,B|168:56,1,85,2|0
120,96,8632,1,0
184,216,9007,2,0,B|280:216,1,85,2|0
320,168,9382,5,8
368,120,9569,2,0,B|456:120|472:216|408:248,1,170
368,272,10132,2,0,B|320:224|272:344|200:256,1,170,8|0
216,136,10882,5,0
296,24,11257,1,0
336,80,11444,1,0
376,24,11632,1,0
408,152,12007,5,4
244,252,12288,1,0
412,340,12569,1,4
288,128,13132,5,0
224,104,13319,1,0
200,40,13507,1,4
96,128,13882,2,0,B|192:144|200:256,1,170,2|0
224,312,14444,1,0
176,360,14632,1,2
152,296,14819,2,0,B|40:304|24:176,1,170
40,136,15382,1,0
104,152,15569,1,0
168,136,15757,1,4
296,96,16132,6,0,B|400:112|392:216,1,170,0|0
368,280,16694,1,0
320,232,16882,1,2
184,232,17257,1,0
120,208,17444,1,0
96,144,17632,2,0,B|136:80|216:152|272:72,1,170,2|0
376,48,18382,1,0
408,104,18569,1,0
424,168,18757,1,4
328,264,19132,5,0
264,248,19319,1,0
200,264,19507,1,4
88,184,19882,2,0,B|168:136,1,85,2|0
232,144,20257,2,0,B|272:104|376:200|408:112,1,170,0|0
440,184,20819,6,0,B|504:184,2,42.5
440,256,21194,1,0
384,296,21382,1,0
320,272,21569,1,0
272,320,21757,1,4
272,320,22132,6,0,B|128:280,1,127.499996200204
24,232,22882,1,2
72,184,23069,1,0
136,208,23257,2,0,B|232:272|288:144,1,170
316,116,23819,1,0
384,116,24007,1,4
256,192,24100,12,0,25132
264,320,27007,5,0
216,272,27194,1,0
168,224,27382,1,2
296,168,27757,1,0
424,216,28132,1,2
472,168,28319,1,0
424,120,28507,1,0
296,168,28882,2,0,B|192:168|176:56,1,170,2|0
128,24,29444,5,0
192,0,29632,1,2
312,64,30007,1,0
312,64,30382,2,0,B|224:136|320:232,1,170,2|0
352,256,30944,1,0
288,280,31132,1,2
352,256,31507,6,0,B|432:192|528:256,1,170,0|2
464,296,32069,2,0,B|464:344|504:376,2,85
400,312,32632,2,0,B|352:368|288:288|232:344,1,170,2|4
144,240,33382,5,2
142,172,33569,1,0
123,106,33757,1,0
240,168,34132,1,0
376,168,34507,2,0,B|464:168,2,85,0|0|2
320,128,35069,1,0
320,264,35444,1,0
272,216,35632,1,2
192,328,36007,6,0,B|120:264|8:272,1,170,0|2
72,136,36757,2,0,B|168:192|264:152,1,170,0|2
296,128,37319,1,0
392,232,37694,1,0
392,232,37882,2,0,B|440:176|496:232|480:280|448:288|416:288,1,170
288,280,38632,1,2
224,256,38819,6,0,B|152:256,2,42.5
288,136,39382,1,2
424,136,39757,1,0
376,88,39944,1,0
440,72,40132,2,0,B|520:112|496:240,1,170,2|0
368,184,40882,5,2
320,312,41257,1,0
280,256,41444,1,0
240,312,41632,2,0,B|152:272|152:160,1,170,2|0
208,56,42382,5,2
248,112,42569,1,0
288,56,42757,1,0
376,160,43132,1,2
416,104,43319,1,0
456,160,43507,1,0
368,264,43882,5,2
312,232,44069,2,0,B|192:208|112:240,1,170
144,160,44632,2,0,B|248:176|312:152,1,170,0|4
296,288,45382,5,2
296,288,45569,1,0
296,288,45757,2,0,B|184:280|120:304,1,170
120,232,46319,2,0,B|304:232,1,170
358,232,46882,1,2
425,232,47069,1,2
312,152,47444,5,0
248,184,47632,1,2
208,240,47819,1,0
192,104,48194,1,0
152,48,48382,1,2
288,56,48757,1,0
352,56,48944,2,0,B|408:64|408:128,1,85,0|2
336,120,49319,1,0
344,256,49694,1,4
344,256,50069,1,2
344,256,50257,1,4
64,112,56257,5,0
136,96,56444,1,0
208,96,56632,1,0
272,128,56819,1,0
312,184,57007,6,0,B|208:168|168:280,1,170,2|0
240,280,57569,2,0,B|112:144,1,170
128,88,58132,5,2
192,104,58319,2,0,B|272:160|360:88,1,170
296,56,58882,2,0,B|376:232,1,170
256,288,59632,1,2
192,272,59819,6,0,B|200:216|264:224,1,85
320,224,60194,2,0,B|376:224|400:152,1,85
336,136,60569,2,0,B|160:136,1,170
104,160,61132,1,2
8,64,61507,1,4
144,48,61882,1,2
206,74,62069,1,4
270,52,62257,5,0
334,29,62444,1,0
377,81,62632,1,0
392,146,62819,1,0
456,160,63007,6,0,B|408:248,1,85,2|0
352,296,63382,2,0,B|232:272,1,85,8|0
268,279,63663,1,0
180,296,63850,1,0
180,296,63944,1,2
120,236,64132,2,0,B|176:164|288:164,1,170,8|0
288,80,64694,6,0,B|368:128,1,85,2|8
448,120,65069,2,0,B|448:224,1,85,2|0
360,208,65444,2,0,B|360:304,1,85,2|8
288,344,65819,6,0,B|246:310|160:312|113:356,1,170
104,349,66288,1,0
82,349,66382,2,0,B|10:349|10:269,1,85,8|0
88,264,66757,1,4
168,240,66944,1,0
168,240,67038,1,0
168,240,67132,1,8
224,176,67319,1,2
144,152,67507,2,0,B|160:56,1,85,0|2
240,32,67882,2,0,B|336:72,1,85,8|2
400,64,68257,2,0,B|424:160,1,85,0|2
336,176,68632,5,8
400,232,68819,1,8
400,240,68913,1,0
400,248,69007,1,2
400,336,69194,2,0,B|288:336,1,85,0|8
315,336,69475,1,0
228,336,69663,1,0
228,336,69757,2,0,B|188:344|148:288,1,85,0|2
156,216,70132,1,8
208,152,70319,5,2
208,144,70413,1,0
208,136,70507,1,0
288,88,70694,1,2
304,128,70788,1,0
320,168,70882,1,8
352,248,71069,2,0,B|256:248,1,85,2|0
184,248,71444,6,0,B|112:248|136:336,1,85,2|8
208,328,71819,1,0
248,328,71913,1,0
288,328,72007,1,2
368,288,72194,2,0,B|368:232|456:232,1,85,0|8
368,168,72569,2,0,B|272:168,1,85,2|0
200,152,72944,1,2
200,72,73132,1,8
176,84,73225,1,0
152,96,73319,1,0
128,108,73413,1,0
104,120,73507,2,0,B|136:224|64:288,1,170,4|0
152,312,74069,5,0
224,264,74257,1,0
296,304,74444,1,0
368,256,74632,1,0
440,296,74819,1,0
440,208,75007,1,4
440,120,75194,5,0
368,72,75382,2,0,B|296:104|264:96,1,85,8|0
216,48,75757,2,0,B|144:48|128:72,1,85,0|2
80,128,76132,1,8
152,168,76319,1,2
104,240,76507,2,0,B|200:280,1,85,0|2
264,304,76882,1,8
264,304,77069,2,0,B|320:208,1,85,2|0
360,168,77444,5,0
360,168,77538,1,0
360,168,77632,1,8
424,112,77819,1,0
352,72,78007,1,0
272,40,78194,1,2
192,72,78382,1,8
120,120,78569,2,0,B|168:208,1,85,2|0
120,272,78944,1,2
128,288,79038,1,0
136,304,79132,2,0,B|248:304|240:304,1,85,8|0
304,304,79507,5,4
432,192,79882,1,8
296,56,80257,1,0
296,144,80444,6,0,B|240:136|176:200|224:272,1,170
224,280,80913,1,0
233,303,81007,2,0,B|137:327,1,85,0|2
80,272,81382,2,8,B|32:192,1,85,8|2
112,152,81757,1,0
184,112,81944,1,2
256,160,82132,1,8
328,120,82319,5,2
328,208,82507,1,0
400,256,82694,1,2
400,256,82788,1,0
400,256,82882,1,8
328,304,83069,2,0,B|232:304,1,85,2|0
168,264,83444,2,0,B|280:264,1,85,2|8
336,264,83819,5,0
424,264,84007,1,0
480,200,84194,1,0
448,176,84288,1,0
416,152,84382,1,8
376,80,84569,1,0
320,144,84757,1,0
304,48,84944,1,0
264,32,85038,1,0
224,16,85132,1,8
184,88,85319,1,0
184,88,85507,1,4
256,192,85600,12,0,86632
440,192,88507,5,0
440,192,88882,2,0,B|376:120|264:128,1,170,2|0
152,104,89632,1,2
104,56,89819,1,0
80,120,90007,1,0
80,256,90382,1,2
120,312,90569,1,0
216,216,90944,5,0
256,272,91132,1,2
296,216,91319,1,0
368,216,91507,2,0,B|472:224|496:192|504:136|504:128,1,170,0|2
368,112,92257,1,0
256,32,92632,1,2
208,80,92819,1,0
160,32,93007,1,0
48,104,93382,1,2
96,152,93569,1,0
96,288,93944,1,0
48,336,94132,1,2
112,356,94319,2,0,B|216:356,1,85,0|4
256,232,94882,5,0
256,96,95257,2,0,B|360:88|380:192,1,170,0|2
360,320,96007,1,0
224,304,96382,2,0,B|176:336|208:392|200:384,2,85,0|0|0
112,224,97132,2,0,B|160:176|144:96|56:72,1,170,2|0
216,96,97882,6,0,B|304:32,2,85
344,136,98632,1,2
344,136,99007,1,4
392,184,99194,5,2
440,232,99382,1,0
488,280,99569,1,2
488,280,99757,2,0,B|320:280,1,170,4|0
216,184,100507,1,0
176,56,100882,6,0,B|280:56|336:144,1,170,2|0
352,192,101444,1,0
280,304,101819,1,0
280,304,102007,2,0,B|168:304|112:216,1,170,0|2
120,104,102757,5,0
184,120,102944,1,0
248,104,103132,1,0
376,144,103507,1,0
472,48,103882,2,0,B|520:136|480:232|472:232,1,170,2|0
40,336,105007,6,0,B|-8:248|32:152|40:152,1,170,0|0
160,208,105757,1,0
224,200,105944,1,0
272,160,106132,1,2
160,208,106507,5,4
152,72,106882,1,0
288,88,107257,2,0,B|400:96|464:72,1,170
427,136,107819,2,0,B|339:184|251:192,1,170
200,206,108382,1,2
132,210,108569,1,2
192,336,108944,5,0
240,288,109132,1,2
272,232,109319,1,0
392,288,109694,1,0
400,352,109882,1,2
264,344,110257,1,0
200,344,110444,2,0,B|144:336|144:272,1,85,0|2
211,273,110819,1,0
176,144,111194,1,4
176,144,111569,1,2
176,144,111757,1,4
256,40,117757,5,0
240,104,117944,1,0
224,168,118132,1,0
208,232,118319,1,0
160,184,118507,2,0,B|96:128|120:56|168:16,1,170,0|2
216,48,119069,1,0
280,56,119257,1,0
344,40,119444,6,0,B|432:80|408:192,1,170
392,248,120007,1,4
352,304,120194,1,0
288,328,120382,1,2
220,329,120569,2,0,B|108:313|92:201,1,170
88,160,121132,1,0
96,96,121319,6,0,B|104:40|168:48,1,85
200,96,121694,2,0,B|256:96|280:24,1,85
304,112,122069,2,0,B|480:112,1,170
448,176,122632,1,2
368,288,123007,1,4
368,288,123382,1,2
304,264,123569,1,4
256,216,123757,5,0
232,152,123944,1,0
224,88,124132,1,0
232,24,124319,1,0
232,24,124507,6,0,B|303:76|404:30,1,170,2|8
472,64,125069,1,0
472,64,125163,1,0
432,144,125350,1,0
400,120,125444,2,0,B|352:152|384:216,1,85,0|8
432,256,125819,1,2
352,240,126007,6,0,B|320:200|256:200,1,85,0|2
232,272,126382,2,0,B|136:272,1,85,8|0
120,352,126757,2,2,B|64:352|56:296,1,85
56,224,127132,1,8
56,224,127319,6,0,B|0:224,2,42.5
112,160,127694,2,0,B|208:160,1,85,0|8
232,80,128069,1,0
232,80,128163,1,0
272,160,128350,1,0
272,160,128444,2,0,B|376:160,1,85,0|8
432,192,128819,1,2
424,280,129007,6,0,B|312:280,1,85,0|2
296,280,129288,1,0
256,280,129382,2,0,B|152:280,1,85,8|2
112,224,129757,2,0,B|152:152|128:96|64:64|48:64,1,170,0|8
160,48,130319,1,10
248,48,130507,1,4
312,104,130694,1,0
368,168,130882,6,0,B|432:208|496:168|512:112|480:88,1,170,8|0
408,88,131444,1,0
352,24,131632,2,2,B|304:48|304:48|336:88|304:128|248:136|232:80|232:80|176:104,1,255,8|2
112,128,132382,6,0,B|48:152|88:224,1,85,8|2
136,256,132757,2,0,B|240:256,1,85,0|2
304,256,133132,5,8
376,208,133319,1,0
376,208,133413,1,0
376,208,133507,1,2
440,264,133694,2,0,B|440:320|352:320,1,85,0|8
304,344,134069,2,0,B|208:344,1,85,2|0
144,304,134444,1,2
104,232,134632,1,8
72,152,134819,1,0
56,120,134913,1,0
40,88,135007,2,0,B|144:56|208:128,1,170,4|0
256,184,135569,5,0
320,128,135757,1,0
320,216,135944,1,0
320,304,136132,1,0
248,256,136319,1,0
176,216,136507,1,4
104,256,136694,5,0
152,328,136882,2,0,B|224:296|256:304,1,85,8|0
304,344,137257,2,0,B|376:344|392:320,1,85,0|2
448,264,137632,1,8
376,224,137819,1,2
408,144,138007,2,0,B|312:104,1,85,0|2
248,80,138382,1,8
248,80,138569,2,0,B|192:176,1,85,2|0
152,216,138944,5,0
152,216,139038,1,0
152,216,139132,1,8
88,272,139319,1,0
160,312,139507,1,0
240,344,139694,1,2
320,312,139882,1,8
392,264,140069,2,0,B|344:176,1,85,2|0
392,112,140444,1,2
384,96,140538,1,0
376,80,140632,2,0,B|264:80|272:80,1,85,8|0
208,80,141007,5,4
80,192,141382,1,8
216,328,141757,1,0
216,240,141944,6,0,B|272:248|336:184|288:112,1,170
296,128,142413,1,0
296,126,142507,2,0,B|392:102,1,85,0|2
456,144,142882,2,8,B|488:232,1,85,8|2
400,232,143257,1,0
328,272,143444,1,2
328,184,143632,1,8
240,184,143819,5,2
184,248,144007,1,0
152,168,144194,1,2
152,168,144288,1,0
152,168,144382,1,8
152,80,144569,2,0,B|248:80,1,85,2|0
288,144,144944,2,0,B|400:144,1,85,2|8
416,72,145319,5,0
480,128,145507,1,0
440,200,145694,1,0
440,200,145788,1,0
440,200,145882,1,8
392,272,146069,1,0
448,336,146257,1,0
448,336,146350,1,0
360,336,146538,1,0
360,336,146632,1,8
272,336,146819,1,0
184,336,147007,1,4
256,192,147100,12,0,148132
256,192,148507,6,0,B|320:208|312:288,1,85,8|0
232,280,148882,2,2,B|128:280,1,85,2|0
64,248,149257,1,8
64,248,149444,1,0
104,176,149632,1,4
160,112,149819,6,2,B|256:112,1,85,2|10
264,192,150194,2,2,B|320:208|344:136,1,85,0|2
432,288,150569,2,2,B|360:288|368:360,1,85,2|10
200,328,151132,1,4
112,328,151319,1,0
56,184,151507,6,0,B|0:168|24:88,1,85,8|0
104,96,151882,2,2,B|208:96,1,85,2|0
264,136,152257,1,8
424,184,152632,2,2,B|328:184,1,85,2|0
264,216,153007,1,8
264,40,153382,5,4
264,344,153757,1,0
384,152,154132,6,0,B|416:112,2,42.5
384,152,154507,2,0,B|296:192|200:144,1,170,8|2
144,112,155069,1,0
80,56,155257,1,8
56,136,155444,1,0
56,136,155632,1,4
120,192,155819,6,2,B|216:192,1,85,2|10
264,256,156194,2,2,B|320:240|344:312,1,85,0|2
416,128,156569,2,2,B|344:128|352:56,1,85,2|10
184,56,157132,1,4
96,56,157319,1,0
64,136,157507,5,8
136,184,157694,1,0
212,136,157882,2,0,B|308:200|364:72,1,170,0|8
268,76,158444,1,0
268,76,158632,1,0
344,320,159007,1,4
256,192,159100,12,4,162007
