osu file format v9

[General]
AudioFilename: Moming Qimiao - Momentary Brilliance.mp3
AudioLeadIn: 0
PreviewTime: 192299
Countdown: 0
SampleSet: Soft
StackLeniency: 0.5
Mode: 0
LetterboxInBreaks: 0

[Editor]
DistanceSpacing: 3
BeatDivisor: 6
GridSize: 4

[Metadata]
Title:Momentary Brilliance
Artist:Moming Qimiao
Creator:cmn_891127
Version:Hard
Source:
Tags:Megurine Luka Shana Fanghua Xiaoaidema Chashao

[Difficulty]
HPDrainRate:7
CircleSize:3
OverallDifficulty:5
ApproachRate:7
SliderMultiplier:0.8
SliderTickRate:1

[Events]
//Background and Video events
0,0,"BG.jpg"
//Break Periods
2,118985,122503
//Storyboard Layer 0 (Background)
Sprite,Background,Centre,"KIAI.jpg",320,240 S,0,193411,,0.625 F,2,193411,194522,0,1 F,0,194522,242299,1 F,2,242299,243411,1,0
//Storyboard Layer 1 (Fail)
//Storyboard Layer 2 (Pass)
//Storyboard Layer 3 (Foreground)
//Storyboard Sound Samples
//Background Colour Transformations
3,100,163,162,255

[TimingPoints]
1036,577.200577200577,4,2,1,30,1,0
123403,555.555555555556,4,2,1,40,1,0
194514,-100,4,2,1,40,0,1
194583,-100,4,2,1,40,0,0
242291,-100,4,2,1,5,0,0

[Colours]
Combo1 : 192,192,192
Combo2 : 110,110,110
SliderBorder : 50,50,50

[HitObjects]
176,128,2480,2,0,B|192:128,3,10,8|0|0|0
312,300,4788,6,0,B|296:300,3,13.3333333333333,8|0|0|0
344,96,7097,6,0,B|364:96,2,19.9999994039536,8|0|0
136,152,8252,6,0,B|172:172|213:167,1,80
432,268,9406,2,0,B|372:328|284:316,1,160,8|0
104,104,11715,6,0,B|185:82|256:136,1,160,8|0
152,256,14024,2,0,B|222:310|304:288,1,160,8|0
92,72,16332,5,8
204,116,16621,1,0
324,96,16910,2,0,B|344:88|364:92,1,40
436,192,17487,1,0
324,236,17775,1,0
204,216,18064,2,0,B|184:208|164:212,1,40
144,332,18641,5,8
256,288,18930,1,0
376,308,19218,2,0,B|396:316|416:312,1,40
488,212,19796,1,0
376,168,20084,1,0
256,188,20373,2,0,B|236:196|216:192,1,40
112,132,20950,5,8
112,252,21239,2,0,B|76:288,2,40
196,336,22104,1,0
316,336,22393,2,0,B|352:372,2,40
400,252,23259,5,8
400,132,23547,2,0,B|436:96,2,40
316,48,24413,1,0
196,48,24702,2,0,B|160:12,2,40
256,156,25568,5,8
256,156,25856,1,0
152,220,26145,1,0
152,220,26433,1,0
92,324,26722,2,0,B|140:368|204:360,1,120
324,360,27876,2,0,B|316:376,2,13.3333333333333,0|0|8
336,104,30185,6,0,B|300:124|256:116,1,80,8|0
160,184,31051,1,0
252,264,31340,2,0,B|212:312|136:308,1,120
160,184,32494,2,0,B|155:171,2,13.3333333333333,0|0|8
236,56,33648,6,0,B|272:80|312:72,1,80
428,44,34514,1,0
440,160,34803,2,0,B|400:236|308:248,1,160,8|0
140,304,36390,2,0,B|168:316|200:312,1,60
204,192,37112,2,0,B|132:232|48:208,1,160,8|0
244,68,38843,2,0,B|292:68,1,40
400,96,39420,5,8
468,196,39709,1,0
360,144,39998,1,0
428,244,40286,1,0
320,192,40575,2,0,B|296:224|248:236,1,80
232,116,41441,1,0
140,192,41729,5,8
96,304,42018,2,0,B|136:304,2,40
212,340,42884,2,0,B|248:360|289:350,1,80
260,236,43749,1,0
380,236,44038,6,0,B|420:236,1,40,8|0
492,140,44615,2,0,B|452:140,1,40
356,68,45192,2,0,B|323:46|279:50,2,80
360,152,47501,6,0,B|344:192|304:204,1,80
256,92,48367,1,0
136,112,48656,6,0,B|96:120|60:96,1,80,8|0
96,212,49521,2,0,B|136:204|172:228,1,80
292,240,50387,1,0
292,240,50676,1,0
292,240,50964,2,0,B|360:244|403:203,1,120,8|0
414,55,52696,6,0,B|388:52|356:64,1,60
300,80,53273,2,0,B|240:96|182:69,1,120,8|0
208,188,54428,2,0,B|124:168|55:216,1,160
152,288,55870,1,8
320,280,57891,6,0,B|388:268,2,60,0|0|8
200,300,59045,1,0
84,264,59334,1,0
40,152,59622,1,0
160,172,59911,2,0,B|244:184|314:142,1,160,0|8
412,72,61354,1,0
432,192,61643,1,0
376,300,61931,1,0
268,356,62220,6,0,B|232:376|188:372,2,80,0|0|8
376,300,63663,1,0
432,192,63951,1,0
412,72,64240,1,0
326,155,64529,1,0
208,184,64817,1,0
95,138,65106,1,0
43,31,65394,1,0
256,192,65683,12,8,67415
256,192,67992,5,8
256,192,68136,12,0,70301
192,80,71455,6,0,B|228:100|269:93,1,80
496,168,72609,6,0,B|440:224|348:216,1,160,8|0
232,184,74052,1,0
116,212,74341,1,0
56,316,74630,1,0
176,312,74918,2,0,B|260:304|328:356,1,160,8|0
484,184,76650,6,0,B|460:200|424:196,1,60
372,176,77227,2,0,B|332:180|297:152,2,80,8|0|0
368,56,78670,2,0,B|316:28|251:39,1,120,0|8
136,68,79824,1,0
166,183,80113,1,0
197,299,80402,1,0
296,364,80690,6,0,B|340:368|372:344,1,80
304,244,81556,1,0
196,300,81845,2,0,B|152:304|120:280,2,80,8|0|0
276,112,83865,5,0
336,124,84009,1,0
396,124,84153,2,0,B|440:128|472:104,2,80,8|0|0
52,180,86462,6,0,B|112:192|169:167,1,120,8|0
276,112,87617,1,0
504,192,88194,2,0,B|476:224|424:224,1,80,0|8
312,228,89060,1,0
312,228,89348,1,0
212,292,89637,1,0
212,292,89925,1,0
128,68,90503,6,0,B|104:80,2,26.6666666666667
208,68,91080,2,0,B|240:40|282:43,1,80,8|0
400,76,91946,1,0
364,192,92234,2,0,B|408:264,2,80,0|0|8
292,288,93677,1,0
172,300,93966,1,0
92,212,94254,2,0,B|104:164,1,40
308,52,95120,6,0,B|328:32,2,26.6666666666667
224,52,95697,2,0,B|180:56|148:32,1,80,8|0
164,156,96563,1,0
284,156,96852,2,0,B|312:156,2,26.6666666666667
312,236,97429,2,0,B|356:236,1,40
344,316,98006,2,0,B|284:376|196:356,1,160,8|0
96,136,99738,6,0,B|76:92,1,40
176,172,100315,2,0,B|216:180|253:159,2,80,8|0|0
200,56,101758,1,0
320,68,102047,2,0,B|357:47|397:55,1,80,0|8
372,172,102912,5,0
452,260,103201,2,0,B|412:253,1,40
292,260,103778,2,0,B|240:296|178:278,1,120
256,192,104933,12,8,108107
416,80,108973,6,0,B|368:72,1,40
276,140,109550,2,0,B|239:159|200:156,1,80,8|0
432,208,110705,1,0
360,304,110993,1,0
248,348,111282,1,0
128,348,111570,1,0
32,276,111859,6,0,B|96:256|121:201,1,120,8|0
168,92,113013,1,0
288,100,113302,2,0,B|320:96,2,20
312,216,113879,1,0
256,192,114168,12,0,118785
100,76,123403,5,4
216,100,123680,1,0
136,188,123958,1,0
252,212,124236,1,0
368,236,124514,2,0,B|392:224|404:208,1,40,0|0
456,108,125069,2,0,B|428:136|382:132,1,80,0|4
268,100,125903,2,0,B|230:86,1,40,0|0
124,144,126458,2,0,B|161:157,1,40,0|8
400,144,127291,1,0
192,264,127847,6,0,B|148:276,1,40,4|0
56,200,128403,2,0,B|96:168,1,40
180,100,128958,2,0,B|216:120|260:112,1,80
376,108,129791,1,0
336,224,130069,2,0,B|416:224,2,80,4|0|10
220,188,131458,1,0
116,248,131736,1,0
12,188,132014,1,0
116,128,132291,6,0,B|180:132|228:92,1,120,4|0
348,72,133403,2,0,B|406:85,2,60
308,184,134514,2,0,B|372:204|396:260,1,120,4|0
284,304,135625,2,0,B|252:336,1,40,8|0
140,300,136180,2,0,B|92:300,1,50
100,180,136736,6,0,B|140:188|178:169,1,80,4|0
284,116,137569,1,0
400,148,137847,2,0,B|443:159|464:192,1,80
483,310,138680,1,0
371,262,138958,2,0,B|363:274,2,10,8|0|0
352,68,140069,5,10
156,208,140625,2,0,B|140:220|120:224,1,40
68,332,141180,5,4
180,288,141458,2,0,B|216:268|256:273,1,80
376,288,142291,2,0,B|416:293|452:273,2,80,0|0|4
256,272,143680,1,0
256,272,143819,1,0
256,272,143958,1,0
160,200,144236,1,0
132,84,144514,1,8
372,92,145069,1,0
372,92,145347,1,0
372,92,145486,1,0
372,92,145625,6,0,B|403:146|466:161,1,120,4|0
456,280,146736,2,0,B|428:308|382:307,1,80
272,264,147569,1,0
172,200,147847,2,0,B|104:152|19:167,1,160,4|10
248,88,149514,2,0,B|288:116,1,50
376,184,150069,5,4
376,184,150347,2,0,B|406:154|448:155,1,80
368,64,151180,1,0
248,88,151458,1,0
248,88,151597,1,0
248,88,151736,1,0
160,172,152014,1,0
136,288,152291,2,0,B|200:280|250:315,1,120,4|0
360,360,153402,2,0,B|396:336|440:340,2,80,8|0|4
240,348,154791,5,0
136,288,155069,1,0
96,176,155347,1,0
216,200,155625,1,0
336,200,155902,2,0,B|360:188,1,20
408,168,156180,2,0,B|428:176|447:175,1,40
372,272,156736,2,0,B|376:280,14,10
312,272,157847,6,0,B|276:292|236:284,1,80,10|0
120,252,158680,1,0
204,164,158958,6,0,B|224:172|244:172,1,40,4|0
356,132,159514,2,0,B|382:166|422:171,2,80
284,36,160902,1,0
172,72,161180,5,4
76,144,161458,1,0
76,144,161597,1,0
76,144,161736,1,0
160,236,162014,1,0
280,220,162291,2,0,B|320:216|357:232,1,80,8|0
472,268,163125,1,0
452,232,163217,1,0
492,224,163310,1,0
472,188,163402,6,0,B|472:108,1,80,4|0
364,52,164236,1,0
256,108,164514,2,0,B|224:132|180:128,1,80
80,196,165347,1,0
180,264,165625,2,0,B|240:248|296:276,1,120,4|0
408,320,166736,6,0,B|438:290|481:294,2,80,10|0|4
292,348,168125,1,0
173,319,168402,1,0
200,203,168680,1,0
317,230,168958,2,0,B|360:244|400:228,1,80
472,136,169791,1,0
432,126,169884,1,0
392,133,169977,1,0
355,147,170069,6,0,B|314:153|279:132,2,80,4|0|8
388,264,171458,1,0
272,292,171736,2,0,B|233:301,1,40
132,236,172291,5,4
132,236,172384,1,0
132,236,172477,1,0
132,236,172569,2,0,B|170:226,1,40
288,192,173125,2,0,B|352:200|400:156,1,120
312,72,174236,1,0
296,276,174514,6,0,B|384:284|448:224,1,160,4|10
216,276,176180,2,0,B|186:302,1,40
64,260,176736,6,0,B|101:245,1,40,4|0
180,156,177291,2,0,B|252:124,2,80
76,92,178680,1,0
180,28,178958,6,0,B|220:28,1,40,4|0
280,28,179375,1,0
280,28,179514,1,0
388,80,179791,1,0
452,180,180069,1,10
212,184,180625,1,0
332,200,180902,1,0
336,240,180995,1,0
324,280,181088,1,0
300,312,181180,6,0,B|248:278|184:291,1,120,4|0
68,312,182291,1,0
108,196,182569,1,0
144,180,182662,1,0
172,152,182754,1,0
188,116,182847,2,0,B|228:120|268:104,1,80,0|4
396,72,183680,1,0
312,172,183958,1,0
320,44,184236,1,0
392,152,184514,1,10
464,256,185069,5,0
396,352,185347,2,0,B|408:352,2,13.3333333333333
355,352,185625,2,0,B|324:377|280:379,1,80,4|0
163,380,186458,1,0
204,264,186736,2,0,B|166:277|124:264,1,80,0|0
10,225,187569,1,0
98,143,187847,1,4
164,44,188125,2,0,B|182:36,1,20
232,72,188402,2,0,B|268:92|309:85,2,80,0|10|0
60,100,190069,5,4
124,204,190347,1,0
224,268,190625,1,0
344,284,190902,1,0
464,268,191180,1,0
408,164,191458,2,0,B|388:148,1,20
336,132,191736,2,0,B|326:122,5,13.3333333333333
288,108,192291,2,0,B|280:100,14,10
236,140,193402,6,0,B|201:160|157:155,1,80,8|0
152,154,194051,1,0
145,153,194143,1,0
138,151,194236,1,0
131,150,194328,1,0
62,192,194514,6,0,B|104:181|126:147,1,80,4|0
226,82,195347,2,0,B|264:68,1,40
384,68,195902,1,0
384,108,195995,1,0
376,148,196088,1,0
356,184,196180,2,0,B|404:188,1,40
288,248,196736,5,4
288,248,197014,2,0,B|252:272|212:268,1,80
92,248,197847,1,10
296,116,198402,1,0
388,192,198680,1,0
428,184,198773,1,0
468,192,198865,1,0
508,184,198958,6,0,B|468:116,1,80,4|0
380,32,199791,1,0
296,116,200069,1,0
296,116,200162,1,0
296,116,200254,1,0
296,116,200347,2,0,B|264:140|221:136,1,80
148,232,201180,2,0,B|181:254,1,40,4|0
292,232,201736,2,0,B|332:232,2,40,0|0|8
68,320,202847,6,0,B|112:324|139:352,1,80,0|4
256,352,203680,1,0
296,345,203773,1,0
332,326,203865,1,0
365,299,203958,2,0,B|394:267|391:223,1,80
276,228,204791,2,0,B|256:228,2,20
256,104,205347,1,0
136,124,205625,6,0,B|92:128|59:106,2,80,4|0|10
176,236,207014,2,0,B|188:260,1,20
244,252,207291,2,0,B|296:264,1,40
388,200,207847,5,4
388,200,207940,1,0
388,200,208032,1,0
388,200,208125,2,0,B|310:179,1,80
316,60,208958,2,0,B|280:84|232:76,1,80
120,56,209791,1,0
62,163,210069,1,4
100,279,210347,1,0
203,344,210625,1,0
320,330,210902,1,0
388,232,211180,1,8
289,163,211458,1,0
220,261,211736,6,0,B|180:267,1,40
64,236,212291,2,0,B|103:229,1,40,4|0
188,144,212847,2,0,B|272:132,2,80
84,84,214236,1,0
188,20,214514,6,0,B|236:20,1,40,4|0
288,20,214930,1,0
288,20,215069,1,0
396,72,215347,1,0
460,172,215625,1,10
220,176,216180,1,0
340,192,216458,1,0
344,232,216551,1,0
332,272,216643,1,0
308,304,216736,6,0,B|256:270|192:283,1,120,4|0
76,304,217847,1,0
116,188,218125,1,0
152,172,218217,1,0
180,144,218310,1,0
196,108,218402,2,0,B|236:112|276:96,1,80,0|4
404,64,219236,1,0
320,164,219514,1,0
328,36,219791,1,0
400,144,220069,1,8
476,248,220625,5,0
408,348,220902,2,0,B|432:348,2,13.3333333333333
367,348,221180,2,0,B|336:373|292:375,1,80,4|0
175,376,222014,1,0
216,260,222291,2,0,B|178:273|136:260,1,80,0|0
22,221,223125,1,0
110,139,223402,1,4
176,40,223680,2,0,B|204:28,1,20
244,68,223958,2,0,B|280:88|321:81,2,80,0|10|0
132,268,225625,6,0,B|148:276,4,13.3333333333333,12|0|0|0|0
172,272,226088,6,0,B|188:280,4,13.3333333333333,8|0|0|0|0
212,276,226551,6,0,B|228:284,4,13.3333333333333,8|0|0|0|0
252,280,227014,5,8
372,272,227291,2,0,B|335:287,1,40
424,208,227847,2,0,B|416:168|436:130,1,80,4|0
328,76,228680,1,0
264,176,228958,6,0,B|230:201|185:191,1,80,8|0
180,190,229606,1,0
173,188,229699,1,0
166,185,229791,1,0
159,181,229884,1,0
208,108,230069,5,4
208,108,230347,2,0,B|272:96|308:36,1,120
424,56,231458,2,0,B|462:45,2,40
408,176,232291,5,4
356,287,232569,1,0
327,315,232662,1,0
291,333,232754,1,0
252,344,232847,2,0,B|213:357|171:344,1,80,0|10
212,232,233680,1,0
244,208,233773,1,0
264,176,233865,1,0
276,136,233958,2,0,B|292:96|272:56,1,80,0|12
273,58,234791,5,0
156,99,235069,1,0
156,99,235347,1,0
69,182,235625,1,0
69,182,235902,1,0
43,297,236180,1,0
43,297,236458,1,0
140,224,236736,5,8
140,224,237014,1,0
256,192,237291,1,0
256,192,237569,1,0
372,224,237847,1,0
372,224,238125,1,0
469,297,238402,1,0
469,297,238680,1,0
256,192,238958,12,0,242291
256,192,243402,5,12
