osu file format v10

[General]
AudioFilename: Moming Qimiao - Momentary Brilliance.mp3
AudioLeadIn: 0
PreviewTime: 192299
Countdown: 0
SampleSet: Soft
StackLeniency: 0.7
Mode: 0
LetterboxInBreaks: 0

[Editor]
DistanceSpacing: 1.1
BeatDivisor: 2
GridSize: 4

[Metadata]
Title:Momentary Brilliance
TitleUnicode:
Artist:Moming Qimiao
ArtistUnicode:
Creator:cmn_891127
Version:Easy
Source:
Tags:Megurine Luka Shana Fanghua Xiaoaidema Chashao
BeatmapID:180673
BeatmapSetID:48944

[Difficulty]
HPDrainRate:3
CircleSize:3
OverallDifficulty:3
ApproachRate:2
SliderMultiplier:0.8
SliderTickRate:1

[Events]
//Background and Video events
0,0,"BG.jpg"
//Break Periods
2,118984,121843
//Storyboard Layer 0 (Background)
Sprite,Background,Centre,"KIAI.jpg",320,240 S,0,193411,,0.625 F,2,193411,194522,0,1 F,0,194522,242299,1 F,2,242299,243411,1,0
//Storyboard Layer 1 (Fail)
//Storyboard Layer 2 (Pass)
//Storyboard Layer 3 (Foreground)
//Storyboard Sound Samples
//Background Colour Transformations
3,100,163,162,255

[TimingPoints]
1036,577.200577200577,4,2,1,30,1,0
123403,555.555555555556,4,2,1,40,1,0
194514,-100,4,2,1,40,0,1
194583,-100,4,2,1,40,0,0

[Colours]
Combo1 : 192,192,192
Combo2 : 110,110,110
SliderBorder : 50,50,50

[HitObjects]
354,99,2479,5,0,2:0:0
193,239,4787,5,0,2:0:0
394,309,7096,5,0,2:0:0
400,172,8252,6,0,B|436:200|435:241,1,80
352,240,9405,2,0,B|308:256|236:224|192:240,1,160,8|0,0:0|0:0,0:0:0
320,144,11714,2,0,B|276:160|204:128|160:144,2,160,8|0|8,0:0|0:0|0:0,0:0:0
392,304,16331,6,0,B|449:300|485:237|460:186,2,160,8|0|8,0:0|0:0|0:0,0:0:0
384,221,19217,1,0,0:0:0
384,221,19795,2,0,B|340:205|268:237|224:221,1,160,0|8,0:0|0:0,0:0:0
144,188,21526,6,0,B|89:168|70:99|108:56,1,160
200,32,23258,2,0,B|254:50|273:119|236:163,1,160,8|0,0:0|0:0,0:0:0
172,109,24989,1,0,0:0:0
94,143,25567,6,0,B|116:180|156:192,1,80,8|0,0:0|0:0,0:0:0
88,248,26721,2,0,B|140:288|202:268,1,120
417,240,30184,6,0,B|396:204|356:192,1,80,8|0,0:0|0:0,0:0:0
424,136,31338,2,0,B|372:96|309:115,1,120
153,153,33647,6,0,B|193:160|230:141,2,80,0|0|8,0:0|0:0|0:0,0:0:0
312,116,35956,6,0,B|295:60|227:38|182:74,2,160,0|8|0,0:0|0:0|0:0,0:0:0
230,141,38842,6,0,B|247:178|285:198,1,80,0|8,0:0|0:0,0:0:0
363,228,39997,6,0,B|346:282|277:302|231:265,2,160
338,137,42883,6,0,B|293:100|224:119|207:174,1,160,0|8,0:0|0:0,0:0:0
288,208,44614,5,0,0:0:0
288,208,45191,2,0,B|336:244|392:228|400:180|448:208,1,160
184,88,48655,6,0,B|145:83|103:107|88:144,1,120,8|0,0:0|0:0,0:0:0
49,224,50098,2,0,B|14:205|-6:161|2:122,2,120,0|8|0,0:0|0:0|0:0,0:0:0
164,288,52695,5,0,0:0:0
164,288,53272,2,0,B|127:243|146:174|201:157,1,160,8|0,0:0|0:0,0:0:0
228,236,55004,6,0,B|266:220|290:178|285:139,1,120,0|8,0:0|0:0,0:0:0
186,147,58756,6,0,B|164:180|176:224,1,80,8|0,0:0|0:0,0:0:0
242,274,59910,2,0,B|298:285|349:233|338:177,2,160,0|8|0,0:0|0:0|0:0,0:0:0
256,192,62796,5,0,0:0:0
256,192,63373,12,8,67414,0:0:0
256,192,67991,12,0,70300,0:0:0
256,192,72608,5,8,0:0:0
337,178,73185,2,0,B|327:121|262:91|214:121,1,160
174,206,74917,2,0,B|182:263|247:293|298:264,1,160,8|0,0:0|0:0,0:0:0
256,192,76649,5,0,0:0:0
256,192,77226,2,0,B|300:168|348:180|352:224|412:192,1,160,8|0,0:0|0:0,0:0:0
485,154,78958,2,0,B|504:192|484:232,2,80,0|8|0,0:0|0:0|0:0,0:0:0
432,88,80689,6,0,B|387:50|317:68|299:122,1,160,0|8,0:0|0:0,0:0:0
356,188,82421,2,0,B|311:225|241:207|223:153,1,160
300,124,84152,6,0,B|284:84|240:72,1,80,8|0,0:0|0:0,0:0:0
160,64,85307,2,0,B|156:121|94:156|41:131,1,160,0|8,0:0|0:0,0:0:0
75,57,87038,6,0,B|128:81|140:152|99:191,1,160
32,240,88770,2,0,B|52:271|104:284|140:268,2,120,8|0|0,0:0|0:0|0:0,0:0:0
99,191,91079,5,8,0:0:0
99,191,91656,2,0,B|172:164|200:220|256:192,1,160
268,274,93388,2,0,B|325:266|358:203|330:153,1,160,8|0,0:0|0:0,0:0:0
256,192,95119,5,0,0:0:0
256,192,95696,2,0,B|240:152|255:113,1,80,8|0,0:0|0:0,0:0:0
216,39,96851,2,0,B|181:62|172:104,1,80
254,113,98005,2,0,B|246:171|184:204|134:176,1,160,8|0,0:0|0:0,0:0:0
76,116,99737,6,0,B|107:87|152:96,2,80,0|8|0,0:0|0:0|0:0,0:0:0
132,176,101468,2,0,B|184:256|124:236|104:276|112:336,1,160,0|8,0:0|0:0,0:0:0
192,312,103200,2,0,B|249:306|282:243|256:192,1,160
256,192,104932,12,8,107240,0:0:0
436,268,108972,6,0,B|404:296|360:288,2,80,0|8|0,0:0|0:0|0:0,0:0:0
380,208,110703,2,0,B|328:128|388:148|408:108|400:48,1,160,0|8,0:0|0:0,0:0:0
319,71,112435,2,0,B|262:77|229:140|256:192,1,160
256,192,114167,12,8,118784,0:0:0
140,148,123403,5,4,0:0:0
140,148,123958,2,0,B|168:180|208:184,1,80
291,168,125069,2,0,B|319:140|364:140,1,80,0|4,0:0|0:0,0:0:0
355,224,126180,2,0,B|349:281|286:314|234:287,1,160,0|8,0:0|0:0,0:0:0
168,336,127847,6,0,B|124:340|96:308,2,80,4|0|0,0:0|0:0|0:0,0:0:0
234,287,129514,1,0,0:0:0
158,255,130069,2,0,B|181:201|251:187|292:228,1,160,4|10,0:0|0:0,0:0:0
368,264,131736,6,0,B|408:272|445:248,1,80,0|4,0:0|0:0,0:0:0
392,184,132847,1,0,0:0:0
416,104,133403,2,0,B|376:96|338:119,1,80
312,200,134514,2,0,B|260:224|208:176|156:200,1,160,4|8,0:0|0:0,0:0:0
80,236,136180,6,0,B|101:271|143:280,1,80,0|4,0:0|0:0,0:0:0
228,288,137291,2,0,B|284:312|332:264|384:288,1,160,0|0,0:0|0:0,0:0:0
460,320,138958,1,8,0:0:0
439,154,140069,5,10,0:0:0
374,209,140625,2,0,B|404:240|447:238,1,80,0|4,0:0|0:0,0:0:0
460,320,141736,2,0,B|376:328|313:266,1,160
260,204,143403,5,4,0:0:0
180,188,143958,2,0,B|140:200|100:188,1,80,0|8,0:0|0:0,0:0:0
20,204,145069,1,0,0:0:0
0,124,145625,2,0,B|57:111|109:159|100:216,1,160,4|0,0:0|0:0,0:0:0
156,276,147291,2,0,B|188:304|229:303,1,80,0|4,0:0|0:0,0:0:0
356,208,148958,6,0,B|324:236|282:235,1,80,10|0,0:0|0:0,0:0:0
292,152,150069,2,0,B|299:93|362:61|413:89,1,160,4|0,0:0|0:0,0:0:0
373,161,151736,2,0,B|413:177|451:160,2,80,0|4|0,0:0|0:0|0:0,0:0:0
292,152,153403,6,0,B|247:146|208:208|124:164,1,160,8|4,0:0|0:0,0:0:0
71,113,155069,2,0,B|101:82|144:88,1,80
226,120,156180,2,0,B|258:149|256:192,1,80,0|8,0:0|0:0,0:0:0
256,192,157847,6,0,B|282:245|352:253|391:209,1,160,10|4,0:0|0:0,0:0:0
440,276,159514,2,0,B|472:248|471:205,1,80
390,210,160625,1,0,0:0:0
350,140,161180,2,0,B|402:113|464:145|472:204,1,160,4|8,0:0|0:0,0:0:0
480,284,162847,5,0,0:0:0
400,292,163403,2,0,B|368:320|324:310,1,80,4|0,0:0|0:0,0:0:0
268,248,164514,2,0,B|236:220|192:229,1,80
212,307,165625,2,0,B|184:360|114:367|76:324,1,160,4|10,0:0|0:0,0:0:0
140,271,167291,6,0,B|132:191,2,80,0|4|0,0:0|0:0|0:0,0:0:0
56,256,168958,2,0,B|28:172,1,80
80,112,170069,2,0,B|118:68|188:75|216:128,2,160,4|8|4,0:0|0:0|0:0,0:0:0
144,168,172847,5,0,0:0:0
144,168,173125,2,0,B|164:204|212:220|252:204,1,120
328,176,174514,2,0,B|368:164|408:176,1,80,4|0,0:0|0:0,0:0:0
488,200,175625,1,10,0:0:0
424,256,176180,5,0,0:0:0
458,330,176736,2,0,B|403:353|343:316|340:258,1,160,4|0,0:0|0:0,0:0:0
328,176,178403,1,0,0:0:0
308,96,178958,2,0,B|292:56|256:36,1,80,4|0,0:0|0:0,0:0:0
224,116,180069,2,0,B|181:122|146:100,1,80,0|0,0:0|0:0,0:0:0
64,120,181180,6,0,B|76:164|132:196|180:196|180:196|168:208,1,160,4|0,0:0|0:0,0:0:0
112,264,182847,1,0,0:0:0
56,324,183403,2,0,B|101:362|168:344|189:289,1,160,4|8,0:0|0:0,0:0:0
212,212,185069,5,0,0:0:0
272,152,185625,2,0,B|304:124|348:128,2,80,4|0|0,0:0|0:0|0:0,0:0:0
332,212,187291,2,0,B|364:240|408:236,1,80,0|4,0:0|0:0,0:0:0
484,192,188403,2,0,B|512:160|508:116,2,80,0|10|0,0:0|0:0|0:0,0:0:0
256,192,190069,12,8,192291,0:0:0
271,274,193403,6,0,B|327:266|358:200|328:151,1,160,10|4,0:0|0:0,0:0:0
256,192,195069,1,0,0:0:0
180,229,195625,2,0,B|164:192|180:152,1,80
256,192,196736,2,0,B|320:232|376:176|412:192,1,160,4|10,0:0|0:0,0:0:0
488,232,198403,6,0,B|496:312,2,80,0|4|0,0:0|0:0|0:0,0:0:0
480,148,200069,2,0,B|456:112|412:112,1,80
412,192,201180,2,0,B|363:221|297:190|288:134,1,160,4|8,0:0|0:0,0:0:0
312,56,202847,1,0,0:0:0
368,120,203403,6,0,B|378:175|327:227|271:216,1,160,4|0,0:0|0:0,0:0:0
288,136,205069,1,0,0:0:0
211,163,205625,2,0,B|173:205|190:276|244:296,1,160,4|10,0:0|0:0,0:0:0
272,220,207291,1,0,0:0:0
335,274,207847,2,0,B|373:231|355:161|302:141,1,160,4|0,0:0|0:0,0:0:0
220,120,209514,1,0,0:0:0
200,200,210069,6,0,B|184:240|144:260|102:254,2,120,4|0|0,0:0|0:0|0:0,0:0:0
120,172,212291,1,4,0:0:0
39,198,212847,2,0,B|20:144|63:85|120:88,1,160
208,96,214514,5,4,0:0:0
292,112,215069,2,0,B|332:120|372:112,1,80,0|10,0:0|0:0,0:0:0
452,96,216180,1,0,0:0:0
512,148,216736,6,0,B|488:180|444:176|444:176|428:216|384:228,1,160,4|0,0:0|0:0,0:0:0
368,148,218403,1,0,0:0:0
292,116,218958,2,0,B|240:96|208:148|136:128,1,160,4|8,0:0|0:0,0:0:0
56,100,220625,1,0,0:0:0
72,184,221180,5,4,0:0:0
72,184,221736,2,0,B|92:256|60:320|60:320|80:312,1,160
156,280,223403,2,0,B|180:268|180:268|240:312|308:292,1,160,4|10,0:0|0:0,0:0:0
384,268,225069,1,0,0:0:0
256,192,225625,12,8,227847,0:0:0
440,200,230069,5,4,0:0:0
440,200,230625,2,0,B|420:128|452:64|452:64|432:72,1,160
356,104,232292,2,0,B|332:116|332:116|272:72|204:92,1,160,4|10,0:0|0:0,0:0:0
128,116,233958,1,0,0:0:0
256,192,234514,12,8,238958,0:0:0
