osu file format v9

[General]
AudioFilename: Yofo.mp3
AudioLeadIn: 0
PreviewTime: 129989
Countdown: 0
SampleSet: Normal
StackLeniency: 0.7
Mode: 1
LetterboxInBreaks: 1

[Editor]
Bookmarks: 30434,58878,73101,87323,115767,129989,144212,158434,172656,186878,208212
DistanceSpacing: 0.8
BeatDivisor: 4
GridSize: 8

[Metadata]
Title:Yofo
Artist:Molotov
Creator:Krisom
Version:lepidon! - Taiko Oni
Source:
Tags:Beuchi-Chan Gonzvlo ErufenRito Collab lepidopodus

[Difficulty]
HPDrainRate:5
CircleSize:5
OverallDifficulty:5
ApproachRate:5
SliderMultiplier:1.4
SliderTickRate:1

[Events]
//Background and Video events
0,0,"TaikoBG.png"
//Break Periods
//Storyboard Layer 0 (Background)
//Storyboard Layer 1 (Fail)
//Storyboard Layer 2 (Pass)
//Storyboard Layer 3 (Foreground)
Sprite,Foreground,Centre,"lepi.png",320,240 M,0,1757,1980,-200,405,320,405 F,0,0,208202,1 M,0,207979,208202,320,405,819,405
Sprite,Foreground,Centre,"lepi.png",320,240 M,0,144202,,320,405 F,0,144202,144424,1,0 S,0,144202,144424,1,1.28672
//Storyboard Sound Samples
//Background Colour Transformations
3,100,163,162,255

[TimingPoints]
1980,444.444444444444,4,1,0,90,1,0
58868,-100,4,1,0,90,0,1
87313,-100,4,1,0,90,0,0
115757,-100,4,1,0,90,0,1
144202,-100,4,1,0,90,0,0
158424,-100,4,1,0,90,0,1
186868,-100,4,1,0,90,0,0
188646,-100,4,1,0,80,0,0
190313,-100,4,1,0,70,0,0
192091,-100,4,1,0,65,0,0
193757,-100,4,1,0,60,0,0
195757,-100,4,1,0,55,0,0
197424,-100,4,1,0,50,0,0
199202,-100,4,1,0,45,0,0
200868,-100,4,1,0,40,0,0
203091,-100,4,1,0,35,0,0
205091,-100,4,1,0,30,0,0
206868,-100,4,1,0,25,0,0

[Colours]
Combo1 : 255,150,0
Combo2 : 5,240,5
Combo3 : 5,5,240
Combo4 : 240,5,5

[HitObjects]
256,200,1980,1,0
350,183,2424,1,8
388,211,2646,1,0
366,253,2868,1,0
319,266,3091,1,0
339,222,3313,1,8
383,204,3535,1,0
300,252,3979,1,0
323,209,4202,1,8
367,225,4424,1,0
382,270,4646,1,0
390,317,4868,1,0
410,273,5091,1,8
409,225,5313,1,0
387,181,5535,1,0
302,107,5980,1,8
399,162,6424,1,0
442,197,6646,1,8
438,252,6868,1,8
383,266,7091,1,0
329,282,7535,1,0
359,174,7757,1,8
412,190,7980,1,0
438,252,8202,1,0
385,215,8646,1,8
256,200,9091,5,0
350,183,9535,1,8
388,211,9757,1,0
366,253,9980,1,0
319,266,10202,1,0
339,222,10424,1,8
383,204,10646,1,0
300,252,11091,1,0
323,209,11313,1,8
367,225,11535,1,0
382,270,11757,1,0
390,317,11980,1,0
410,273,12202,1,8
409,225,12424,1,0
387,181,12646,1,0
302,107,13091,1,8
399,162,13535,1,0
442,197,13757,1,8
438,252,13980,1,8
383,266,14202,1,0
329,282,14646,1,0
359,174,14868,1,8
412,190,15091,1,0
438,252,15313,1,0
385,215,15757,1,8
256,200,16202,5,4
212,271,16535,1,0
350,183,16646,1,8
388,211,16868,1,0
366,253,17091,1,0
319,266,17313,1,0
339,222,17535,1,8
383,204,17757,1,0
416,126,18091,1,8
300,252,18202,1,0
323,209,18424,1,8
367,225,18646,1,0
382,270,18868,1,0
390,317,19091,1,0
410,273,19313,1,8
409,225,19535,1,0
387,181,19757,1,0
302,107,20202,1,8
387,181,20535,1,8
399,162,20646,1,0
442,197,20868,1,8
438,252,21091,1,8
383,266,21313,1,0
316,215,21646,1,8
329,282,21757,1,0
359,174,21979,1,8
412,190,22202,1,0
438,252,22424,1,0
385,215,22868,1,8
256,200,23313,5,0
212,271,23646,1,0
350,183,23757,1,8
388,211,23979,1,0
366,253,24202,1,0
319,266,24424,1,0
339,222,24646,1,8
383,204,24868,1,0
358,123,25202,1,8
300,252,25313,1,0
323,209,25535,1,8
367,225,25757,1,0
382,270,25979,1,0
390,317,26202,1,0
410,273,26424,1,8
409,225,26646,1,0
387,181,26868,1,0
302,107,27313,1,8
387,181,27646,1,8
399,162,27757,1,0
442,197,27979,1,8
438,252,28202,1,8
383,266,28424,1,0
316,215,28757,1,8
329,282,28868,1,0
359,174,29091,1,8
412,190,29313,1,0
438,252,29535,1,0
385,215,29979,1,8
282,169,30424,5,0
393,158,30868,1,8
405,212,31091,1,0
394,266,31313,1,0
413,155,31757,1,8
300,155,32202,1,0
411,157,32646,1,8
381,265,33091,1,0
328,284,33313,1,0
284,248,33535,1,8
316,140,33979,1,8
411,157,34202,1,0
414,212,34424,1,8
456,176,34646,1,0
403,195,34868,1,8
375,145,35091,1,0
389,198,35313,1,8
447,102,35757,1,8
439,157,35979,1,0
413,206,36202,1,8
390,257,36424,1,8
359,210,36646,1,0
303,112,37091,1,8
199,155,37535,5,0
307,182,37979,1,8
350,217,38202,1,0
361,271,38424,1,0
404,235,38646,1,0
428,181,38868,1,8
328,231,39313,1,0
402,147,39757,1,8
404,235,40202,1,0
408,290,40424,1,0
412,234,40646,1,8
326,161,41091,1,0
361,117,41313,1,8
403,153,41535,1,0
450,182,41757,1,8
412,223,41979,1,0
367,257,42202,1,0
332,212,42424,1,8
220,214,42868,1,0
237,160,43091,1,0
288,138,43313,1,8
343,142,43535,1,8
375,187,43757,1,0
343,233,43979,1,0
396,216,44202,1,8
284,204,44646,5,0
256,211,44757,1,0
229,221,44868,1,0
375,187,45091,1,8
430,184,45313,1,8
409,236,45535,1,0
402,180,45757,1,8
356,282,46202,1,8
402,180,46424,1,0
403,207,46535,1,0
419,233,46646,1,0
396,181,46868,1,8
448,160,47091,1,8
409,200,47313,1,0
366,163,47535,1,8
324,266,47979,1,8
269,252,48202,1,0
242,260,48313,1,0
260,238,48424,1,8
283,187,48646,1,0
337,174,48868,1,8
280,160,49091,1,0
336,176,49313,1,0
384,208,49535,1,8
400,152,49757,1,0
400,208,49979,1,0
400,240,50091,1,0
400,264,50202,1,0
416,208,50424,1,8
376,168,50646,1,0
336,208,50868,1,0
352,152,51091,1,8
320,200,51313,1,0
296,216,51424,1,0
248,144,51757,5,0
272,192,51979,1,0
328,200,52202,1,8
344,224,52313,1,8
352,248,52424,1,8
400,216,52646,1,0
432,168,52868,1,8
480,64,53313,1,8
440,104,53535,1,8
432,160,53757,1,0
424,216,53979,1,0
424,248,54091,1,0
432,224,54202,1,8
384,200,54424,1,0
344,160,54646,1,8
328,272,55091,1,8
336,216,55313,1,0
280,208,55535,1,0
336,192,55757,1,8
360,184,55868,1,8
384,176,55979,1,8
432,152,56202,1,0
472,192,56424,1,8
392,272,56868,1,0
408,216,57091,1,8
360,192,57313,1,0
336,200,57424,1,0
312,208,57535,1,0
344,160,57757,1,8
400,152,57979,1,0
424,152,58202,1,0
416,208,58424,1,8
400,232,58535,1,8
320,216,58868,5,0
336,160,59091,1,8
392,152,59313,1,0
448,160,59535,1,8
416,208,59757,1,4
392,256,59979,1,4
288,208,60424,1,0
384,160,60868,1,8
440,168,61091,1,0
488,192,61313,1,8
448,232,61535,1,4
400,264,61757,1,4
312,200,62202,1,8
360,176,62424,1,0
416,160,62646,1,8
472,168,62868,1,0
504,216,63091,1,8
400,264,63313,1,4
344,280,63535,1,4
336,336,63757,1,12
408,184,63979,1,4
416,160,64202,1,0
456,200,64424,1,8
408,184,64646,1,0
392,240,64868,1,8
392,184,65091,1,4
352,144,65313,1,12
320,216,65979,5,0
336,160,66202,1,8
392,152,66424,1,0
448,160,66646,1,8
416,208,66868,1,4
392,256,67091,1,4
288,208,67535,1,0
384,160,67979,1,8
440,168,68202,1,0
488,192,68424,1,8
448,232,68646,1,4
400,264,68868,1,4
312,200,69313,1,8
360,176,69535,1,0
416,160,69757,1,8
472,168,69979,1,0
504,216,70202,1,8
400,264,70424,1,4
344,280,70646,1,4
408,184,70868,1,12
360,216,71091,1,4
416,160,71313,1,0
456,200,71535,1,8
408,184,71757,1,0
392,240,71979,1,8
392,184,72202,1,4
352,144,72424,1,12
192,184,73091,5,0
216,232,73313,1,0
272,232,73535,1,8
328,240,73757,1,8
360,200,73979,1,4
408,168,74202,1,12
304,136,74646,1,0
368,232,75091,1,0
416,200,75313,1,8
456,160,75535,1,8
408,128,75757,1,4
432,176,75979,1,12
456,64,76424,1,8
416,200,76646,1,0
376,240,76868,1,0
424,208,77091,1,8
408,264,77313,1,8
392,208,77535,1,4
368,160,77757,1,12
312,160,77979,1,4
368,160,78202,1,12
328,200,78424,1,0
272,216,78646,1,0
312,176,78868,1,8
368,160,79091,1,8
408,200,79313,1,4
408,256,79535,1,4
192,184,80202,5,0
216,232,80424,1,0
272,232,80646,1,8
328,240,80868,1,8
360,200,81091,1,4
408,168,81313,1,12
304,136,81757,1,0
368,232,82202,1,0
416,200,82424,1,8
456,160,82646,1,8
408,128,82868,1,4
432,176,83091,1,12
456,64,83535,1,8
416,200,83757,1,0
376,240,83979,1,0
424,208,84202,1,8
408,264,84424,1,8
392,208,84646,1,4
368,160,84868,1,12
312,160,85091,1,4
368,160,85313,1,12
328,200,85535,1,0
272,216,85757,1,0
312,176,85979,1,8
368,160,86202,1,8
408,200,86424,1,4
408,256,86646,1,4
408,88,87313,5,8
416,144,87535,1,0
392,192,87757,1,0
448,192,87979,1,8
432,248,88202,1,0
336,192,88646,1,8
352,80,89091,1,0
392,120,89313,1,8
440,152,89535,1,0
456,208,89757,1,8
424,256,89979,1,0
320,216,90424,1,8
216,168,90868,1,0
272,160,91091,1,8
328,160,91313,1,0
384,160,91535,1,8
416,208,91757,1,0
416,264,91979,1,0
384,160,92202,1,8
336,192,92424,1,0
344,136,92646,1,8
384,176,92868,1,0
408,224,93091,1,0
416,168,93313,1,8
424,224,93535,1,0
320,176,93979,1,8
232,112,94424,5,0
288,120,94646,1,8
344,128,94868,1,0
392,152,95091,1,8
416,200,95313,1,0
408,256,95535,1,0
384,208,95757,1,8
392,152,95979,1,0
448,152,96202,1,8
400,176,96424,1,0
456,184,96646,1,8
448,152,96868,1,0
400,128,97091,1,8
344,144,97313,1,0
336,200,97757,1,8
280,192,97979,1,0
336,192,98202,1,8
384,216,98424,1,0
416,176,98646,1,8
368,152,98868,1,0
424,168,99091,1,0
480,160,99313,1,8
448,208,99535,1,0
400,176,99757,1,8
400,232,99979,1,8
400,176,100202,1,0
368,152,100424,1,8
424,136,100646,1,8
400,232,100868,1,0
240,192,101535,5,0
216,192,101646,1,0
192,200,101757,1,0
248,216,101979,1,8
304,200,102202,1,8
360,200,102424,1,0
416,176,102646,1,0
392,128,102868,1,8
408,184,103091,1,8
392,240,103313,1,0
376,264,103424,1,0
352,280,103535,1,0
400,248,103757,1,8
448,216,103979,1,8
400,192,104202,1,0
376,192,104313,1,0
352,192,104424,1,0
344,136,104646,1,8
248,192,105091,1,0
224,208,105202,1,0
200,224,105313,1,0
256,216,105535,1,8
312,216,105757,1,8
264,192,105979,1,0
320,176,106202,1,8
376,160,106424,1,0
416,200,106646,1,8
408,256,106868,1,0
392,280,106979,1,0
376,256,107091,1,8
328,232,107313,1,0
376,160,107535,1,8
376,160,107757,1,0
376,160,107868,1,0
392,184,107979,1,8
336,208,108202,1,0
312,216,108313,1,0
248,168,108646,5,0
264,224,108868,1,0
320,232,109091,1,8
344,240,109202,1,8
368,256,109313,1,8
392,184,109535,1,0
408,128,109757,1,0
472,184,109979,1,8
360,184,110424,1,0
304,192,110646,1,0
360,176,110868,1,8
384,168,110979,1,8
392,184,111091,1,8
432,224,111313,1,0
424,248,111424,1,0
408,272,111535,1,0
368,232,111757,1,8
328,128,112202,1,0
296,176,112424,1,0
384,168,112535,1,0
408,168,112646,1,8
464,184,112868,1,8
432,232,113091,1,0
408,248,113202,1,0
384,264,113313,1,0
368,208,113535,1,8
320,232,113757,1,8
328,176,113979,1,0
368,136,114202,1,8
432,232,114424,1,0
384,264,114535,1,0
384,240,114646,1,8
328,240,114868,1,0
272,256,115091,1,0
320,224,115313,1,8
344,208,115424,1,8
280,160,115757,5,0
360,136,116091,1,8
384,152,116202,1,0
440,144,116424,1,8
432,200,116646,1,0
432,256,116868,1,0
408,200,117091,1,8
352,192,117313,1,0
416,136,117646,1,8
408,160,117757,1,0
456,184,117979,1,8
424,232,118202,1,8
416,256,118313,1,8
392,264,118424,1,0
336,272,118646,1,0
352,216,118868,1,8
360,160,119091,1,0
360,160,119313,1,0
280,152,119646,1,0
288,128,119757,1,8
344,144,119979,1,0
376,184,120202,1,0
424,216,120424,1,8
424,240,120535,1,8
400,256,120646,1,0
352,288,120868,1,0
344,144,121202,1,8
368,152,121313,1,0
416,184,121535,1,8
376,224,121757,1,0
352,240,121868,1,0
328,256,121979,1,0
280,224,122202,1,8
320,184,122424,1,8
368,208,122646,1,0
280,160,122868,5,0
360,136,123202,1,8
384,152,123313,1,0
440,144,123535,1,8
432,200,123757,1,0
432,256,123979,1,0
408,200,124202,1,8
352,192,124424,1,0
416,136,124757,1,8
408,160,124868,1,0
456,184,125091,1,8
424,232,125313,1,8
416,256,125424,1,8
392,264,125535,1,0
336,272,125757,1,0
352,216,125979,1,8
360,160,126202,1,0
360,160,126424,1,0
280,152,126757,1,0
288,128,126868,1,8
344,144,127091,1,0
376,184,127313,1,0
424,216,127535,1,8
424,240,127646,1,8
400,256,127757,1,0
352,288,127979,1,0
344,144,128313,1,8
368,152,128424,1,0
416,184,128646,1,8
376,224,128868,1,0
352,240,128979,1,0
328,256,129091,1,0
280,224,129313,1,8
320,184,129535,1,8
368,208,129757,1,0
280,160,129979,5,0
360,136,130313,1,8
384,152,130424,1,0
440,144,130646,1,8
432,200,130868,1,0
432,256,131091,1,0
408,248,131202,1,0
408,200,131313,1,8
352,192,131535,1,0
416,136,131868,1,8
408,160,131979,1,0
456,184,132202,1,8
424,232,132424,1,8
416,256,132535,1,8
392,264,132646,1,0
336,272,132868,1,0
352,216,133091,1,8
360,160,133313,1,0
360,184,133424,1,0
360,160,133535,1,0
280,152,133868,1,0
288,128,133979,1,8
344,144,134202,1,0
376,184,134424,1,0
424,216,134646,1,8
424,240,134757,1,8
400,256,134868,1,0
352,288,135091,1,0
344,144,135424,1,8
368,152,135535,1,0
416,184,135757,1,8
376,224,135979,1,0
352,240,136091,1,0
328,256,136202,1,0
280,224,136424,1,8
232,256,136646,1,0
288,272,136868,1,8
312,288,136979,1,8
280,160,137091,5,0
360,136,137424,1,8
384,152,137535,1,0
440,144,137757,1,8
432,200,137979,1,0
432,256,138202,1,0
408,248,138313,1,0
408,200,138424,1,8
352,192,138646,1,0
416,136,138979,1,8
408,160,139091,1,0
456,184,139313,1,8
424,232,139535,1,8
416,256,139646,1,8
392,264,139757,1,0
336,272,139979,1,0
352,216,140202,1,8
360,160,140424,1,0
360,184,140535,1,0
360,160,140646,1,0
280,152,140979,1,0
288,128,141091,1,8
344,144,141313,1,0
376,184,141535,1,0
424,216,141757,1,8
424,240,141868,1,8
400,256,141979,1,0
352,288,142202,1,0
344,144,142535,1,8
368,152,142646,1,0
416,184,142868,1,8
376,224,143091,1,0
352,240,143202,1,0
328,256,143313,1,0
280,224,143535,1,8
328,200,143757,1,0
360,152,143979,1,8
384,144,144091,1,8
408,136,144202,5,0
384,248,144646,1,8
280,280,145091,1,0
280,304,145202,1,0
264,328,145313,1,0
296,280,145535,1,8
408,136,145980,1,0
384,248,146424,1,8
280,280,146868,1,0
280,304,146980,1,0
264,328,147091,1,0
296,280,147313,1,8
232,192,147757,1,0
344,176,148202,1,8
448,224,148646,1,8
424,240,148757,1,8
400,224,148868,1,0
368,176,149091,1,8
256,192,149535,1,0
360,160,149980,1,8
464,192,150424,1,8
440,208,150535,1,0
424,232,150646,1,0
376,200,150868,1,8
392,224,150980,1,0
408,136,151313,5,0
384,248,151757,1,8
280,280,152202,1,0
280,304,152313,1,0
264,328,152424,1,0
296,280,152646,1,8
408,136,153091,1,0
384,248,153535,1,8
280,280,153980,1,0
280,304,154091,1,0
264,328,154202,1,0
296,280,154424,1,8
232,192,154868,1,0
344,176,155313,1,8
448,224,155757,1,8
424,240,155868,1,8
400,224,155980,1,0
376,216,156091,1,0
368,176,156202,1,8
256,192,156646,1,0
360,160,157091,1,8
464,192,157535,1,8
440,208,157646,1,0
424,232,157757,1,0
376,200,157980,1,8
392,224,158091,1,0
280,160,158424,5,0
360,136,158757,1,8
384,152,158868,1,0
440,144,159091,1,8
432,200,159313,1,0
432,256,159535,1,0
408,248,159646,1,0
408,200,159757,1,8
352,192,159980,1,0
416,136,160313,1,8
408,160,160424,1,0
456,184,160646,1,8
424,232,160868,1,8
416,256,160980,1,8
392,264,161091,1,0
336,272,161313,1,0
352,216,161535,1,8
360,160,161757,1,0
360,184,161868,1,0
360,160,161980,1,0
280,152,162313,1,0
288,128,162424,1,8
344,144,162646,1,0
376,184,162868,1,0
424,216,163091,1,8
424,240,163202,1,8
400,256,163313,1,0
352,288,163535,1,0
344,144,163868,1,8
368,152,163980,1,0
416,184,164202,1,8
376,224,164424,1,0
352,240,164535,1,0
328,256,164646,1,0
280,224,164868,1,8
232,256,165091,1,0
288,272,165313,1,8
312,288,165424,1,8
280,160,165535,5,0
360,136,165868,1,8
384,152,165980,1,0
440,144,166202,1,8
432,200,166424,1,0
432,256,166646,1,0
408,248,166757,1,0
408,200,166868,1,8
352,192,167091,1,0
416,136,167424,1,8
408,160,167535,1,0
456,184,167757,1,8
424,232,167980,1,8
416,256,168091,1,8
392,264,168202,1,0
336,272,168424,1,0
352,216,168646,1,8
360,160,168868,1,0
360,184,168980,1,0
360,160,169091,1,0
280,152,169424,1,0
288,128,169535,1,8
344,144,169757,1,0
376,184,169980,1,0
424,216,170202,1,8
424,240,170313,1,8
400,256,170424,1,0
352,288,170646,1,0
344,144,170980,1,8
368,152,171091,1,0
416,184,171313,1,8
376,224,171535,1,0
352,240,171646,1,0
328,256,171757,1,0
280,224,171980,1,8
328,200,172202,1,0
360,152,172424,1,8
384,144,172535,1,8
280,160,172646,5,0
360,136,172980,1,8
384,152,173091,1,0
440,144,173313,1,8
432,200,173535,1,0
432,256,173757,1,0
408,200,173980,1,8
352,192,174202,1,0
416,136,174535,1,8
408,160,174646,1,0
456,184,174868,1,8
424,232,175091,1,8
416,256,175202,1,8
392,264,175313,1,0
336,272,175535,1,0
352,216,175757,1,8
360,160,175980,1,0
360,160,176202,1,0
280,152,176535,1,0
288,128,176646,1,8
344,144,176868,1,0
376,184,177091,1,0
424,216,177313,1,8
424,240,177424,1,8
400,256,177535,1,0
352,288,177757,1,0
344,144,178091,1,8
368,152,178202,1,0
416,184,178424,1,8
376,224,178646,1,0
352,240,178757,1,0
328,256,178868,1,0
280,224,179091,1,8
320,184,179313,1,8
368,208,179535,1,0
280,160,179757,5,0
360,136,180091,1,8
384,152,180202,1,0
440,144,180424,1,8
432,200,180646,1,0
432,256,180868,1,0
408,200,181091,1,8
352,192,181313,1,0
416,136,181646,1,8
408,160,181757,1,0
456,184,181980,1,8
424,232,182202,1,8
416,256,182313,1,8
392,264,182424,1,0
336,272,182646,1,0
352,216,182868,1,8
360,160,183091,1,0
360,160,183313,1,0
280,152,183646,1,0
288,128,183757,1,8
344,144,183980,1,0
376,184,184202,1,0
424,216,184424,1,8
424,240,184535,1,8
400,256,184646,1,0
352,288,184868,1,0
344,144,185202,1,8
368,152,185313,1,0
416,184,185535,1,8
376,224,185757,1,0
352,240,185868,1,0
328,256,185980,1,0
280,224,186202,1,8
320,184,186424,1,8
368,208,186646,1,0
192,184,186868,5,0
216,232,187091,1,0
272,232,187313,1,8
328,240,187535,1,8
360,200,187757,1,4
408,168,187980,1,12
304,136,188424,1,0
368,232,188868,1,0
416,200,189091,1,8
456,160,189313,1,8
408,128,189535,1,4
432,176,189757,1,12
456,64,190202,1,8
416,200,190424,1,0
376,240,190646,1,0
424,208,190868,1,8
408,264,191091,1,8
392,208,191313,1,4
368,160,191535,1,12
312,160,191757,1,4
368,160,191980,1,12
328,200,192202,1,0
272,216,192424,1,0
312,176,192646,1,8
368,160,192868,1,8
408,200,193091,1,4
408,256,193313,1,4
320,216,193980,5,0
336,160,194202,1,8
392,152,194424,1,0
448,160,194646,1,8
416,208,194868,1,0
392,256,195091,1,0
288,208,195535,1,0
384,160,195980,1,8
440,168,196202,1,0
488,192,196424,1,8
448,232,196646,1,0
400,264,196868,1,0
312,200,197313,1,8
360,176,197535,1,0
416,160,197757,1,8
472,168,197980,1,0
504,216,198202,1,8
400,264,198424,1,0
344,280,198646,1,0
408,184,198868,1,8
360,216,199091,1,0
416,160,199313,1,0
456,200,199535,1,8
408,184,199757,1,0
392,240,199980,5,8
392,184,200202,1,0
352,144,200424,1,8
256,200,201091,5,0
350,183,201535,1,8
388,211,201757,1,0
366,253,201980,1,0
319,266,202202,1,0
339,222,202424,1,8
383,204,202646,1,0
367,225,203535,1,0
382,270,203757,1,0
390,317,203980,1,0
410,273,204202,1,8
409,225,204424,1,0
387,181,204646,1,0
442,197,205757,1,8
438,252,205980,1,8
383,266,206202,1,0
412,190,207091,1,0
438,252,207313,1,0
400,208,207535,1,8
385,215,207757,1,8
440,224,207980,1,0
