osu file format v9

[General]
AudioFilename: Yofo.mp3
AudioLeadIn: 0
PreviewTime: 129989
Countdown: 0
SampleSet: Normal
StackLeniency: 0.7
Mode: 0
LetterboxInBreaks: 1
EpilepsyWarning: 1

[Editor]
Bookmarks: 30434,58878,73101,87323,115767,129989,144212,158434,172656,186878,208212
DistanceSpacing: 1
BeatDivisor: 4
GridSize: 8

[Metadata]
Title:Yofo
Artist:Molotov
Creator:Krisom
Version:Normal
Source:
Tags:Beuchi-Chan Gonzvlo ErufenRito Collab lepidopodus

[Difficulty]
HPDrainRate:4
CircleSize:4
OverallDifficulty:5
ApproachRate:5
SliderMultiplier:1.4
SliderTickRate:1

[Events]
//Background and Video events
0,0,"BG.jpg"
//Break Periods
2,59068,71891
2,115957,128779
//Storyboard Layer 0 (Background)
//Storyboard Layer 1 (Fail)
//Storyboard Layer 2 (Pass)
//Storyboard Layer 3 (Foreground)
Sprite,Foreground,Centre,"stroke.png",320,240 L,144202,16 F,1,0,889,1,0 S,1,0,889,1,1.05
Sprite,Foreground,Centre,"krisom.png",320,240 M,0,30202,30424,45,382,320,382 F,0,30202,58868,1 M,0,58646,58868,320,382,844,382 M,0,72868,73091,45,382,320,382 F,0,72868,87313,1 M,0,87091,87313,320,382,844,382
Sprite,Foreground,Centre,"gonz.png",320,240 M,0,87091,87313,45,382,320,382 F,0,87091,115757,1 M,0,115535,115757,320,382,862,382 M,0,172424,172646,-165,382,320,382 F,0,172424,186868,1 M,0,186646,186868,320,382,862,382
Sprite,Foreground,Centre,"beuchi.png",320,240 M,0,129757,129979,45,382,320,382 F,0,129757,158424,1 M,0,158202,158424,320,382,835,382
Sprite,Foreground,Centre,"beuchi.png",320,240 M,0,144202,,320,382 F,0,144202,144424,1,0 S,0,144202,144424,1,1.50176
Sprite,Foreground,Centre,"erufen.png",320,240 M,0,158202,158424,-117,382,320,382 F,0,158202,172646,1 M,0,172424,172646,320,382,896,382 M,0,186646,186868,-146,382,320,382 F,0,186646,206424,1,0.5 F,0,206424,207979,0.5,0
Sprite,Foreground,Centre,"littleman.png",320,240 L,30091,1 C,0,0,,17,238,89 S,0,0,333,1,0.632 F,0,0,28000,1 M,0,333,,328,175 F,0,28000,28333,1,0 L,72757,1 C,0,0,,17,238,89 S,0,0,333,1,0.632 F,0,0,13778,1 M,0,333,,328,175 F,0,13778,14111,1,0 L,86979,1 C,0,0,,123,66,242 S,0,0,333,1,0.632 F,0,0,28000,1 M,0,333,,328,175 F,0,28000,28333,1,0 L,129646,1 C,0,0,,243,214,5 S,0,0,333,1,0.632 F,0,0,28000,1 M,0,333,,328,175 F,0,28000,28333,1,0 L,158091,1 C,0,0,,255,0,0 S,0,0,333,1,0.632 F,0,0,13778,1 M,0,333,,328,175 F,0,13778,14111,1,0 L,172313,1 C,0,0,,123,66,242 S,0,0,333,1,0.632 F,0,0,13778,1 M,0,333,,328,175 F,0,13778,14111,1,0 L,186535,1 C,0,0,,255,0,0 S,0,0,333,1,0.632 F,0,0,19889,1,0.5 M,0,333,,328,175 F,0,19889,21444,0.5,0
Sprite,Foreground,Centre,"a.png",594,240 L,73535,16 C,0,0,,196,247,235 F,1,0,889,1,0 S,1,0,889,1,1.05 L,130424,16 C,0,0,,196,247,235 F,1,0,889,1,0 S,1,0,889,1,1.05 L,158868,56 C,0,0,,196,247,235 F,1,0,889,1,0 S,1,0,889,1,1.05
Sprite,Foreground,Centre,"b.png",46,240 L,73535,16 C,0,0,,196,247,235 F,1,0,889,1,0 S,1,0,889,1,1.05 L,130424,16 C,0,0,,196,247,235 F,1,0,889,1,0 S,1,0,889,1,1.05 L,158868,56 C,0,0,,196,247,235 F,1,0,889,1,0 S,1,0,889,1,1.05
//Storyboard Sound Samples
//Background Colour Transformations
3,100,163,162,255

[TimingPoints]
1980,444.444444444444,4,1,0,60,1,0
190424,-100,4,1,0,51,0,0
193979,-100,4,1,0,40,0,0
197535,-100,4,1,0,31,0,0
201091,-100,4,2,0,20,0,0

[Colours]
Combo1 : 255,150,0
Combo2 : 5,240,5
Combo3 : 5,5,240
Combo4 : 240,5,5

[HitObjects]
256,32,30424,1,4
384,200,31091,1,0
448,232,31313,2,2,B|400:288|344:256|344:256|320:240,1,140,2|4
187,243,32202,1,4
160,104,32646,2,0,B|80:120|48:200,2,140,8|2|8
128,240,33979,5,0
256,296,34424,1,8
384,240,34868,1,0
384,96,35313,1,8
256,32,35757,1,0
128,96,36202,1,8
192,224,36646,2,2,B|256:272|320:224,1,140,2|8
456,192,37535,5,4
384,72,37979,1,8
248,32,38424,2,0,B|184:48|152:120|200:192|256:192|312:192|360:264|328:336|264:352,1,420,0|8
128,352,40202,1,0
72,120,41091,5,0
184,40,41535,1,8
328,40,41979,1,0
440,120,42424,1,8
320,192,42868,2,0,B|280:160|256:192|232:224|192:192,2,140,0|8|0
256,320,44202,1,2
120,304,44646,5,4
40,192,45091,1,8
160,112,45535,2,0,B|296:96|216:288|352:272,1,280
472,192,46868,1,8
352,112,47313,2,0,B|216:96|296:288|160:272,1,280
112,144,48646,5,8
184,24,49091,1,0
328,24,49535,1,8
400,144,49979,1,0
320,256,50424,2,0,L|256:285|192:256,1,140,8|0
256,384,51313,1,2
384,320,51757,5,0
488,232,52202,1,8
392,136,52646,2,0,L|256:168|256:168|120:136,1,280
24,232,53979,1,8
128,320,54424,1,0
256,264,54868,1,8
384,208,55313,6,0,B|344:240|296:240|256:208,1,140,0|8
256,64,56202,2,0,B|216:32|168:32|128:64,1,140,0|8
120,208,57091,1,0
256,248,57535,1,8
392,208,57979,1,0
256,176,58424,6,2,C|248:152|264:128|248:104|264:80|256:64|256:56,1,140,2|4
112,192,73091,54,2,B|120:272|208:296,1,140,6|8
256,168,73979,1,0
384,112,74424,1,8
440,64,74646,2,0,B|472:104|456:160|432:176|384:192|384:192|320:208,1,210,0|8
200,224,75757,1,0
64,248,76202,1,8
96,112,76646,6,0,B|112:48|184:16|256:64|256:120|256:176|328:224|400:192|416:128,1,420,0|8
368,264,78424,2,0,B|368:304|368:352|296:352|296:304|296:304|296:245|216:245|216:304|216:304|216:352|144:352|144:304|144:264,1,420,0|8
200,136,80202,6,2,B|224:48|336:64,1,140,6|8
440,112,81091,1,0
352,216,81535,1,8
400,264,81757,2,0,B|352:297|320:280|285:265|285:207|285:207|285:160|285:160,1,210,0|8
256,24,82868,1,0
224,160,83313,1,8
224,296,83757,6,0,B|224:320|224:320|224:349|152:348|152:320|152:320|152:296,1,140,0|8
288,296,84646,2,0,B|288:320|288:320|288:349|360:348|360:320|360:320|360:296,1,140,0|8
256,200,85535,2,0,B|256:120,2,70,2|0|8
256,344,86424,1,0
256,64,87313,21,0
384,128,87757,2,0,B|304:56|256:288|208:56|128:128,1,280,8|8
256,64,89091,2,0,B|256:368,1,280
328,224,90424,5,8
464,192,90868,1,0
328,152,91313,1,8
184,152,91757,1,0
48,192,92202,1,8
184,232,92646,1,0
320,304,93091,2,0,L|256:336|256:336|192:304,1,140,8|0
184,152,93979,6,0,B|135:87|183:23,1,140,8|0
328,23,94868,2,0,B|376:87|328:152,1,140,8|0
376,280,95757,2,0,B|328:336|256:376|184:336|136:280,1,280,8|8
256,192,97091,1,0
376,104,97535,6,0,B|328:48|256:8|184:48|136:104,1,280,8|8
256,192,98868,1,0
192,320,99313,2,0,B|256:288|256:288|320:320,2,140,8|0|8
256,192,100646,1,0
256,48,101091,6,0,B|256:128,1,70,8|0
192,144,101535,5,0
256,272,101979,1,8
320,144,102424,1,0
384,24,102868,2,0,B|336:72|256:88|176:72|128:24,2,280,8|8|8
432,160,105091,5,0
368,288,105535,2,0,B|256:136|144:288,1,280,8|8
72,160,106868,1,0
144,40,107313,2,0,B|255:191|367:39,1,280,8|8
408,176,108646,5,0
344,304,109091,1,8
256,200,109535,1,0
168,304,109979,1,8
104,176,110424,1,0
152,40,110868,2,0,B|216:56|256:128|256:128|296:56|360:40,1,280,8|8
368,184,112202,5,0
256,264,112646,1,8
136,192,113091,1,0
152,349,113535,2,0,B|216:333|256:261|256:261|296:333|360:349,2,280,8|8|8
256,192,115757,1,4
256,144,129979,22,0,B|256:64|352:64,2,140,4|2|0
384,192,131313,1,2
384,192,131535,2,0,B|448:216|448:320|384:344|352:344,1,210,0|8
256,248,132646,2,0,B|256:336,2,70,0|0|8
336,120,133535,5,0
176,120,133979,1,2
256,248,134424,1,0
136,320,134868,1,2
136,320,135091,1,0
136,320,135313,2,0,B|48:320|48:232,2,140,0|8|0
256,264,136646,1,8
256,144,137091,6,0,B|256:64|160:64,2,140,0|2|0
128,192,138425,1,2
128,192,138647,2,0,B|64:216|64:320|128:344|160:344,1,210,0|8
256,248,139758,2,0,B|256:336,2,70,0|0|8
176,120,140646,5,0
336,120,141090,1,2
256,248,141535,1,0
376,320,141979,1,2
376,320,142202,1,0
376,320,142424,2,0,B|464:320|464:232,2,140,0|8|0
256,248,143757,1,8
256,104,144202,6,0,B|296:16|376:16|448:64|448:152,1,280,4|8
320,192,145535,1,0
192,192,145979,1,0
256,312,146424,1,2
316,277,146646,2,0,B|287:231|223:231|196:277,1,140
160,328,147313,2,0,B|136:368|72:368|48:312,1,140,2|0
112,192,148202,22,0,B|32:192,4,70,8|0|0|0|8
256,192,149535,1,0
400,192,149979,2,0,B|480:192,4,70,8|0|0|0|8
256,104,151313,6,0,B|216:16|136:16|64:64|64:152,1,280,0|8
192,192,152646,1,0
320,192,153090,1,0
256,312,153535,1,2
196,277,153757,2,0,B|224:231|288:231|315:277,1,140
352,328,154424,2,0,B|376:368|440:368|464:312,1,140,2|0
400,192,155313,6,0,B|480:192,4,70,8|0|0|0|8
256,192,156646,1,0
112,192,157091,2,0,B|32:192,4,70,8|0|0|0|8
256,192,158424,37,4
376,112,158868,2,0,B|448:112,3,70,8|0|0|0
328,32,159979,2,0,B|168:32,1,140
117,32,160646,1,8
40,149,161091,1,0
39,149,161313,1,0
197,285,161979,38,0,B|357:285,1,140,0|8
334,355,162646,2,0,B|419:335,1,70
430,201,163313,2,0,B|519:223,2,70,8|0|0
371,73,164202,2,0,B|284:98,1,70,8|0
278,27,164646,2,0,B|199:15,1,70
60,164,165535,38,0,B|37:333,1,140,4|8
110,289,166202,2,0,B|198:319,2,70
154,156,167091,2,0,B|307:123,1,140,0|0
276,195,167758,2,0,B|348:255,1,70,8|0
396,218,168202,2,0,B|385:296,1,70
464,92,169091,38,0,B|501:239,1,140,0|8
498,227,169757,1,0
498,227,169979,1,0
420,344,170425,2,0,B|509:366,2,70,8|0|0
290,291,171313,2,0,B|201:313,3,70,8|0|0|0
328,104,172646,22,2,B|376:168|328:232,1,140
184,232,173535,2,0,B|135:167|184:103,1,140,0|8
256,120,174202,1,2
256,328,174868,21,8
296,192,175313,2,0,B|304:232|256:264|208:232|216:192,2,140,0|8|0
256,56,176646,1,8
360,240,177313,37,2
408,192,177535,1,0
360,144,177757,1,0
152,240,178424,1,0
104,192,178646,1,0
152,144,178868,1,0
256,48,179313,1,8
256,184,179757,21,2
256,328,180202,2,0,B|264:280|296:248|352:240,1,140,8|0
256,328,181091,2,0,B|248:280|216:248|160:240,1,140,8|0
88,120,181979,38,0,B|128:32|256:-48|384:32|424:120,1,420,8|0
256,104,183757,1,8
192,304,184424,22,2,B|216:280|256:272|296:280|320:304,1,140
128,208,185535,2,0,B|184:160|256:144|328:160|384:208,1,280,8|8
256,272,186868,5,4
376,344,187312,2,0,B|448:344,2,70,8|0|0
376,344,187979,1,0
328,216,188423,2,0,B|168:216,1,140
188,216,189090,1,8
112,96,189535,2,0,B|32:96,2,70,0|0|8
30,184,190423,6,0,B|115:311,1,140,0|8
204,198,191313,2,0,B|331:113,1,140,0|8
282,255,192202,2,0,B|442:255,1,140,0|8
316,346,193091,2,0,B|394:372,2,70,0|0|8
194,277,193979,6,2,B|29:307,1,140,6|8
27,237,194646,2,0,B|84:196|89:95,1,140,0|0
157,120,195313,2,0,B|167:38,1,70,8|0
438,112,196424,5,8
378,148,196646,2,0,B|309:182|287:263,1,140,0|8
290,252,197313,1,0
290,252,197535,1,0
125,69,198646,6,0,B|36:61,2,70,8|0|0
257,315,199979,6,0,B|163:351,4,70,0|0|0|8|0
249,244,201091,6,0,B|476:266,1,210,2|0
480,200,201979,1,2
361,77,202424,1,2
361,77,202646,1,0
99,178,203535,5,0
141,233,203757,2,0,B|286:204,1,140,0|2
326,256,204424,1,0
326,256,204646,1,0
408,52,205757,6,0,B|481:67,2,70,2|0|0
148,247,207091,5,0
220,247,207313,1,0
292,247,207535,1,2
364,247,207757,1,0
364,247,207979,1,0
