osu file format v9

[General]
AudioFilename: Yofo.mp3
AudioLeadIn: 0
PreviewTime: 129989
Countdown: 0
SampleSet: Normal
StackLeniency: 0.7
Mode: 0
LetterboxInBreaks: 1
EpilepsyWarning: 1

[Editor]
Bookmarks: 30434,58878,73101,87323,115767,129989,144212,158434,172656,186878,208212
DistanceSpacing: 0.8
BeatDivisor: 4
GridSize: 8

[Metadata]
Title:Yofo
Artist:Molotov
Creator:Krisom
Version:Easy
Source:
Tags:Beuchi-Chan Gonzvlo ErufenRito Collab lepidopodus

[Difficulty]
HPDrainRate:2
CircleSize:3
OverallDifficulty:2
ApproachRate:2
SliderMultiplier:1.2
SliderTickRate:1

[Events]
//Background and Video events
0,0,"BG.jpg"
//Break Periods
2,59068,71531
2,115957,128419
//Storyboard Layer 0 (Background)
//Storyboard Layer 1 (Fail)
//Storyboard Layer 2 (Pass)
//Storyboard Layer 3 (Foreground)
Sprite,Foreground,Centre,"stroke.png",320,240 L,144202,16 F,1,0,889,1,0 S,1,0,889,1,1.05
Sprite,Foreground,Centre,"krisom.png",320,240 M,0,30202,30424,45,382,320,382 F,0,30202,58868,1 M,0,58646,58868,320,382,844,382 M,0,72868,73091,45,382,320,382 F,0,72868,87313,1 M,0,87091,87313,320,382,844,382
Sprite,Foreground,Centre,"gonz.png",320,240 M,0,87091,87313,45,382,320,382 F,0,87091,115757,1 M,0,115535,115757,320,382,862,382 M,0,172424,172646,-165,382,320,382 F,0,172424,186868,1 M,0,186646,186868,320,382,862,382
Sprite,Foreground,Centre,"beuchi.png",320,240 M,0,129757,129979,45,382,320,382 F,0,129757,158424,1 M,0,158202,158424,320,382,835,382
Sprite,Foreground,Centre,"beuchi.png",320,240 M,0,144202,,320,382 F,0,144202,144424,1,0 S,0,144202,144424,1,1.50176
Sprite,Foreground,Centre,"erufen.png",320,240 M,0,158202,158424,-117,382,320,382 F,0,158202,172646,1 M,0,172424,172646,320,382,896,382 M,0,186646,186868,-146,382,320,382 F,0,186646,206424,1,0.5 F,0,206424,207979,0.5,0
Sprite,Foreground,Centre,"littleman.png",320,240 L,30091,1 C,0,0,,17,238,89 S,0,0,333,1,0.632 F,0,0,28000,1 M,0,333,,328,175 F,0,28000,28333,1,0 L,72757,1 C,0,0,,17,238,89 S,0,0,333,1,0.632 F,0,0,13778,1 M,0,333,,328,175 F,0,13778,14111,1,0 L,86979,1 C,0,0,,123,66,242 S,0,0,333,1,0.632 F,0,0,28000,1 M,0,333,,328,175 F,0,28000,28333,1,0 L,129646,1 C,0,0,,243,214,5 S,0,0,333,1,0.632 F,0,0,28000,1 M,0,333,,328,175 F,0,28000,28333,1,0 L,158091,1 C,0,0,,255,0,0 S,0,0,333,1,0.632 F,0,0,13778,1 M,0,333,,328,175 F,0,13778,14111,1,0 L,172313,1 C,0,0,,123,66,242 S,0,0,333,1,0.632 F,0,0,13778,1 M,0,333,,328,175 F,0,13778,14111,1,0 L,186535,1 C,0,0,,255,0,0 S,0,0,333,1,0.632 F,0,0,19889,1,0.5 M,0,333,,328,175 F,0,19889,21444,0.5,0
Sprite,Foreground,Centre,"a.png",594,240 L,73535,16 C,0,0,,196,247,235 F,1,0,889,1,0 S,1,0,889,1,1.05 L,130424,16 C,0,0,,196,247,235 F,1,0,889,1,0 S,1,0,889,1,1.05 L,158868,56 C,0,0,,196,247,235 F,1,0,889,1,0 S,1,0,889,1,1.05
Sprite,Foreground,Centre,"b.png",46,240 L,73535,16 C,0,0,,196,247,235 F,1,0,889,1,0 S,1,0,889,1,1.05 L,130424,16 C,0,0,,196,247,235 F,1,0,889,1,0 S,1,0,889,1,1.05 L,158868,56 C,0,0,,196,247,235 F,1,0,889,1,0 S,1,0,889,1,1.05
//Storyboard Sound Samples
//Background Colour Transformations
3,100,163,162,255

[TimingPoints]
1980,444.444444444444,4,1,0,60,1,0
190424,-100,4,1,0,51,0,0
193979,-100,4,1,0,40,0,0
197535,-100,4,1,0,31,0,0
201091,-100,4,2,0,20,0,0

[Colours]
Combo1 : 255,150,0
Combo2 : 5,240,5
Combo3 : 5,5,240
Combo4 : 240,5,5

[HitObjects]
96,344,30424,1,4
256,232,31313,1,8
200,152,31757,2,0,L|256:128|312:152,1,120,4|4
304,56,32646,1,8
208,56,33091,1,0
80,192,33979,6,0,B|88:128|168:104,1,120,0|8
168,200,34868,2,0,B|176:264|256:288,1,120,0|8
256,192,35757,2,0,B|264:128|344:104,1,120,0|8
344,200,36646,2,2,L|360:264|432:280,1,120,2|8
464,192,37535,5,4
480,96,37979,1,8
400,40,38424,2,0,B|328:-29|256:88|256:88|184:200|112:136,1,360,0|8
160,56,40202,1,0
160,248,41091,5,0
352,248,41979,1,2
200,128,42868,1,0
256,208,43313,1,8
312,128,43757,1,0
256,312,44646,5,4
176,264,45091,1,8
112,192,45535,1,0
256,72,46424,5,0
336,120,46869,1,8
400,192,47313,1,0
316,365,48202,6,0,B|180:365,1,120,0|8
200,272,49091,2,0,B|248:280|256:264|256:264|264:280|312:272,1,120,0|8
344,184,49979,1,0
256,152,50424,1,8
168,184,50868,1,0
256,16,51757,5,0
176,64,52202,1,8
112,136,52646,1,0
256,256,53535,5,0
336,208,53980,1,8
400,136,54424,1,0
400,40,54868,1,8
316,19,55313,6,0,B|180:19,1,120,0|8
200,112,56202,2,0,B|248:104|256:120|256:120|264:104|312:112,1,120,0|8
344,200,57090,1,0
256,232,57535,1,8
168,200,57979,1,0
200,288,58424,6,2,L|256:308|312:288,1,120,2|4
136,248,73091,22,2,L|376:248,1,240,6|0
256,168,74646,1,8
48,48,75757,1,0
48,144,76202,1,2
48,240,76646,1,0
256,112,77757,6,2,L|256:248,1,120,2|0
464,352,79313,1,0
472,256,79757,1,8
376,248,80202,6,2,L|136:248,1,240,6|0
256,168,81757,1,8
464,48,82868,1,0
464,144,83313,1,2
464,240,83757,1,0
256,112,84868,6,2,L|256:248,1,120,2|0
48,352,86424,1,0
40,256,86868,1,8
136,256,87313,22,0,B|256:280|376:256,1,240
312,184,88646,1,8
256,104,89091,1,0
200,184,89535,1,8
256,368,90424,6,0,B|256:240,1,120,8|0
256,56,91757,1,0
168,88,92202,2,0,B|184:144|256:200|328:144|344:88,2,240,8|8|8
112,168,94424,5,0
96,264,94868,1,8
160,336,95313,1,0
256,352,95757,1,8
352,336,96202,1,0
416,264,96646,1,8
400,168,97091,1,0
304,136,97535,6,0,B|320:64|256:-24|192:64|208:136,1,240,8|8
368,240,99313,2,0,B|256:320|144:240,2,240,8|8|8
304,168,101535,5,0
344,80,101979,1,8
256,48,102424,1,0
168,80,102868,1,8
208,168,103313,1,0
256,248,103757,2,0,B|256:368,2,120,8|0|8
256,152,105091,5,0
256,56,105535,1,8
336,232,106424,2,0,B|312:296|256:360|200:296|176:232,2,240,8|8|8
256,176,108646,1,0
208,88,109091,5,8
304,88,109535,1,0
256,176,109979,2,0,B|256:312,2,120,8|0|8
256,368,111757,1,8
256,176,112646,6,0,B|256:40,1,120,8|0
160,40,113535,2,0,B|184:96|256:128|328:96|352:40,2,240,8|8|8
256,16,115757,5,2
256,352,129979,22,0,B|256:224,3,120,4|8|0|8
256,136,131757,1,0
208,56,132202,1,8
304,56,132646,1,0
136,144,133535,6,0,B|72:200|96:280|152:336|208:320,1,240,2|0
256,248,134868,1,2
317,322,135313,2,0,B|360:328|416:280|440:200|376:144,1,240,2|0
192,192,137091,6,0,B|64:192,2,120,0|8|0
256,120,138424,1,8
320,192,138868,2,0,B|448:192,2,120,0|8|0
256,264,140202,1,8
208,176,140646,6,0,B|168:120,4,60,2|0|0|0|2
304,176,141979,2,0,B|344:120,4,60,0|0|2|0|0
256,264,143313,1,2
256,360,143757,1,0
352,360,144202,6,0,B|480:360|480:208|344:208|344:208|400:168|400:120|400:72|344:32,1,480,4|0
304,120,146424,1,8
256,200,146868,1,0
208,120,147313,1,8
162,35,147757,2,0,B|112:72|112:120|112:168|168:208|168:208|32:208|32:360|160:360,1,480
256,352,149979,2,0,B|232:296|256:296|280:296|256:232,2,120,8|0|8
386,211,151757,6,0,B|242:171|258:19,2,240,0|8|0
352,304,153979,2,0,B|288:312|256:368|256:368|224:312|160:304,1,240
126,211,155313,2,0,B|270:171|254:19,2,240,0|8|0
112,120,157535,1,0
32,176,157979,1,0
48,272,158424,22,0,L|112:288|160:313,1,120,0|8
179,218,159313,2,0,B|261:208,1,60
245,306,159979,6,0,L|332:295|437:252,1,180,0|8
363,180,161091,2,0,B|287:179,1,60
429,110,161979,6,0,L|369:82|288:73,1,120,0|8
226,111,162868,2,0,L|168:76|135:28,1,120,0|8
79,108,163757,2,0,L|46:159|-3:197,2,120,0|8|0
79,108,164868,1,8
207,173,165535,6,0,L|262:192|322:192,1,120,0|8
405,242,166424,2,0,B|478:241,1,60
417,324,167090,6,0,L|321:338|225:373,1,180,0|8
153,330,168202,2,0,B|73:313,1,60
142,181,169090,6,0,L|192:140|214:81,1,120,0|8
305,69,169979,2,0,L|365:82|418:129,1,120,0|8
426,215,170868,2,0,L|454:272|508:304,2,120,0|8|0
426,215,171979,1,8
312,128,172646,22,2,B|336:48|256:8|176:48|200:128,1,240
256,264,174202,1,0
112,288,174868,2,0,B|136:360|208:344,1,120,8|0
308,344,175757,2,0,B|376:360|400:288,1,120,8|2
304,72,177313,6,2,B|288:112|256:96|224:112|208:72,1,120
304,240,178646,2,0,B|288:200|256:216|224:200|208:240,2,120,2|2|2
304,96,180202,5,8
256,16,180646,1,0
208,96,181091,1,8
200,192,181535,2,0,B|256:232|312:192,3,120,0|8|0|8
408,192,183313,5,2
200,320,184424,2,2,B|256:280|312:320,1,120
376,136,185757,6,2,B|316:105|292:137|268:169|204:137,1,180,2|10
110,118,186868,6,0,L|100:185|65:257,1,120,4|8
93,326,187757,1,0
93,326,187979,1,0
179,284,188423,6,0,L|191:189|232:91,1,180,0|8
296,173,189535,1,0
296,173,189757,1,0
361,45,190423,6,0,L|421:73|471:122,1,120,0|8
435,203,191312,2,0,L|391:255|356:334,1,120,0|8
276,324,192201,2,0,L|217:296|156:290,2,120,0|8|0
276,324,193312,1,8
222,190,193979,6,0,B|335:180|407:100,2,180,4|0|8
222,190,195535,1,0
325,351,196424,6,0,L|242:325|128:318,1,180,0|8
96,238,197535,1,0
303,116,198646,2,0,B|361:62|446:72,1,120
269,199,199979,2,0,B|193:148|97:153,1,180,0|0
142,67,201091,6,0,L|228:34|337:32,2,180,2|0|2
142,67,202647,1,0
303,170,203536,6,0,B|368:234|506:216,1,180,2|0
496,312,204646,1,2
329,309,205758,6,0,L|273:339|186:353,1,120,2|0
189,231,207091,2,0,L|131:202|50:197,1,120,2|2
75,198,207757,1,0
