osu file format v5

[General]
AudioFilename: 03 Gimme Tha Power [Urban Mix].mp3
AudioLeadIn: 0
PreviewTime: -1
Countdown: 1
SampleSet: Soft
StackLeniency: 0.7
Mode: 0
LetterboxInBreaks: 1

[Metadata]
Title:Gimme Tha Power (Urban Mix)
Artist:Molotov
Creator:Acolmixtli
Version:Hard
Source:
Tags:

[Difficulty]
HPDrainRate:5
CircleSize:6
OverallDifficulty:5
SliderMultiplier:2.6
SliderTickRate:2

[Events]
//Background and Video events
//Break Periods
2,98222,108304
//Storyboard Layer 0 (Background)
//Storyboard Layer 1 (Failing)
//Storyboard Layer 2 (Passing)
//Storyboard Layer 3 (Foreground)
//Storyboard Sound Samples
//Background Colour Transformations
3,100,0,4,151

[TimingPoints]
3207.94401394535,740.740740740741,4,2,0,100,1,0

[HitObjects]
32,128,2652,1,0
64,160,2837,1,0
96,128,3022,1,0
128,96,3207,2,0,B|224:96,1,65
256,96,3763,5,0
288,160,3948,1,0
384,128,4319,1,0
448,128,4504,1,0
448,192,4689,1,0
448,256,5059,2,0,B|448:352,1,65
384,320,5985,1,0
320,256,6170,2,0,B|192:352,1,130
160,288,6911,5,0
128,320,7096,1,0
96,288,7282,1,0
64,320,7467,1,0
32,288,7652,1,0
32,256,7837,1,0
32,224,8022,1,0
32,192,8207,2,0,B|32:96,1,65
32,96,8578,1,0
32,64,8763,1,0
64,64,8948,1,0
128,64,9133,6,0,B|224:64,1,65
256,64,9689,1,0
288,64,9874,2,0,B|448:64,1,130
448,64,10615,2,0,B|448:224,1,130
448,224,11726,1,0
416,256,11911,1,0
384,224,12096,2,0,B|288:320,1,130
256,256,13207,1,0
224,256,13393,1,0
192,288,13578,1,0
160,256,13763,1,0
128,288,13948,1,0
96,256,14133,1,0
64,288,14319,2,0,B|64:192,1,65
64,192,14689,5,0
64,160,14874,2,0,B|64:64|160:64,1,130
192,64,15615,1,0
224,96,15800,1,0
256,64,15985,1,0
288,96,16170,1,0
320,64,16356,1,0
352,96,16541,2,0,B|448:96|480:192,1,130
480,256,17652,5,0
448,256,17837,1,0
416,256,18022,2,0,B|256:256,1,130
224,256,18578,1,0
192,256,18763,2,0,B|32:256,1,130
64,224,19319,1,8
64,192,19504,2,0,B|64:32,1,130
96,64,20059,1,0
128,64,20244,1,0
192,64,20615,1,0
224,96,20800,1,0
256,64,20985,6,8,B|352:160,1,130
384,160,21541,1,0
416,128,21726,1,0
448,160,21911,1,0
480,192,22096,1,0
448,224,22282,1,0
480,256,22467,2,0,B|352:352,1,130
288,288,23578,1,0
256,256,23763,1,0
224,288,23948,2,0,B|96:224,1,130
32,288,25059,5,0
64,256,25244,1,0
32,224,25430,2,0,B|96:160,1,65
64,160,25800,1,0
32,128,25985,1,0
64,96,26170,2,0,B|128:64,1,65
160,96,26541,1,0
192,128,26726,1,0
224,160,26911,1,0
256,128,27096,2,0,B|352:32,1,130
384,64,27652,2,0,B|448:192,1,130
448,224,28207,1,0
448,256,28393,2,0,B|288:256,1,130
256,256,29504,5,0
224,256,29689,1,0
192,256,29874,2,0,B|32:256,1,130
64,224,30430,2,0,B,1,0
64,192,30615,1,0
64,160,30800,1,0
64,128,30985,1,0
64,96,31170,1,0
64,64,31356,1,0
64,32,31541,1,0
96,32,31726,1,0
128,32,31911,2,0,B|256:32,1,65
256,32,32467,5,0
288,32,32652,1,0
320,32,32837,1,0
352,32,33022,2,0,B|480:128,1,130
480,128,33578,1,0
480,160,33763,1,0
480,192,33948,1,0
480,224,34133,1,0
480,256,34319,2,0,B|384:352,1,130
224,192,35430,5,0
192,224,35615,1,0
160,256,35800,2,0,B|64:352,1,130
64,192,36911,1,0
64,160,37096,1,0
64,128,37282,2,0,B|64:32,1,65
96,64,37652,1,0
128,64,37837,1,0
160,64,38022,2,0,B|320:64,1,130
480,64,38763,6,0,B|480:224|480:192,1,130
480,224,39319,1,0
480,256,39504,1,0
480,288,39689,1,0
480,320,39874,1,0
480,352,40059,1,0
448,352,40244,2,0,B|288:352,1,130
224,352,41726,2,0,B|64:352,1,130
64,352,42282,1,0
32,320,42467,1,0
64,288,42652,1,0
32,256,42837,1,0
64,224,43022,1,0
32,192,43207,2,0,B|32:96,1,65
64,96,43578,1,0
96,96,43763,1,0
128,96,43948,6,0,B|288:96,1,130
288,96,44504,1,0
320,96,44689,2,0,B|480:96,1,130
448,128,45244,1,0
448,160,45430,1,0
448,192,45615,1,0
448,224,45800,1,0
448,256,45985,1,0
448,288,46170,2,0,B|320:352,1,130
256,320,47282,5,0
224,288,47467,1,0
192,256,47652,2,0,B|96:128,1,130
96,128,48207,1,0
96,96,48393,2,0,B|256:96,1,130
256,96,48948,1,0
288,96,49133,1,0
320,96,49319,1,0
352,96,49504,1,0
384,96,49689,1,0
416,96,49874,1,0
448,96,50059,1,0
480,96,50244,5,0
480,128,50430,1,0
480,160,50615,2,0,B|480:320,1,130
480,320,51170,1,0
448,320,51356,2,0,B|320:320,1,65
320,320,51911,5,0
288,320,52096,2,0,B|128:320,1,130
32,320,53207,2,0,B|32:160,1,130
32,128,53948,1,0
32,96,54133,2,0,B|160:96,1,65
160,96,54689,2,0,B|256:96,1,65
256,96,55059,2,0,B|416:96,1,130
416,96,55615,1,0
448,96,55800,2,0,B|448:256,1,130
448,256,56356,1,0
448,320,56541,2,0,B|288:320,1,130
288,320,57096,1,0
256,320,57282,2,0,B|128:320|128:288,1,130
96,256,57837,1,0
64,224,58022,2,0,B|64:64,1,130
64,64,59133,5,0
96,64,59319,2,0,B|192:64,1,65
192,64,59689,2,0,B|288:64,1,65
288,64,60059,2,0,B|384:64,1,65
416,64,60615,1,0
448,64,60800,1,0
448,96,60985,2,0,B|448:192|416:224,1,130
384,224,61726,2,0,B|224:224,1,130
192,224,62467,2,0,B|96:224,1,65
192,160,62837,2,0,B|96:160,1,65
192,96,63207,2,0,B|96:96,1,65
192,32,63578,2,0,B|96:32,1,65
256,32,63948,6,0,B|416:32,1,130
384,96,64689,2,0,B|224:96,1,130
256,160,65430,2,0,B|384:160,1,65
352,160,65800,1,0
384,192,65985,1,0
384,224,66170,2,0,B|224:224,1,130
384,288,66911,2,0,B|224:288,1,130
192,288,67652,2,0,B|32:288,1,130
96,224,68393,2,0,B|192:224,1,65
96,160,68763,2,0,B|192:160,1,65
96,96,69133,2,0,B|192:96,1,65
96,32,69504,2,0,B|192:32,1,65
192,32,69874,5,0
224,32,70059,2,0,B|352:32,1,65
320,32,70430,2,0,B|416:32,1,65
448,32,71170,2,0,B|448:128,1,65
448,128,71726,2,0,B|256:128,1,130
320,192,72282,2,0,B|416:192,1,65
448,192,72837,1,0
448,256,73207,2,0,B|288:256,1,130
192,224,74319,2,0,B|96:224,1,65
192,160,74689,2,0,B|96:160,1,65
192,96,75059,2,0,B|96:96,1,65
192,32,75430,2,0,B|96:32,1,65
256,32,75800,6,0,B|416:32,1,130
384,96,76541,2,0,B|224:96,1,130
256,160,77282,2,0,B|384:160,1,65
352,160,77652,1,0
384,192,77837,1,0
384,224,78022,2,0,B|224:224,1,130
384,288,78763,2,0,B|224:288,1,130
192,288,79504,2,0,B|32:288,1,130
96,224,80245,2,0,B|192:224,1,65
96,160,80615,2,0,B|192:160,1,65
96,96,80985,2,0,B|192:96,1,65
96,32,81356,2,0,B|192:32,1,65
192,32,81726,5,0
224,32,81911,2,0,B|352:32,1,65
320,32,82282,2,0,B|416:32,1,65
448,32,83022,2,0,B|448:128,1,65
448,128,83578,2,0,B|256:128,1,130
320,192,84134,2,0,B|416:192,1,65
448,192,84689,1,0
448,256,85059,2,0,B|288:256,1,130
256,96,86170,5,0
256,128,86263,2,0,B|192:128,2,32.5
256,160,86541,1,0
256,192,86633,2,0,B|192:192,2,32.5
256,224,86911,1,0
256,256,87004,2,0,B|192:256,2,32.5
256,288,87282,1,0
256,320,87374,2,0,B|192:320,2,32.5
256,192,87744,12,0,88763
256,288,89133,5,0
256,256,89226,2,0,B|320:256,2,32.5
256,224,89504,1,0
256,192,89596,2,0,B|320:192,2,32.5
256,160,89874,1,0
256,128,89967,2,0,B|320:128,2,32.5
256,96,90245,1,0
256,64,90337,2,0,B|320:64,2,32.5
256,192,90985,12,8,91726
256,96,92096,5,0
256,128,92189,2,0,B|192:128,2,32.5
256,160,92467,1,0
256,192,92559,2,0,B|192:192,2,32.5
256,224,92837,1,0
256,256,92930,2,0,B|192:256,2,32.5
256,288,93208,1,0
256,320,93300,2,0,B|192:320,2,32.5
256,192,93763,12,0,94689
128,192,95059,5,0
160,192,95152,2,0,B|160:256,2,32.5
192,192,95430,1,0
224,192,95522,2,0,B|224:256,2,32.5
256,192,95800,1,0
288,192,95893,2,0,B|288:256,2,32.5
320,192,96171,1,0
352,192,96263,2,0,B|352:256,2,32.5
256,192,96726,12,0,98022
32,160,109504,6,0,B|128:160,1,65
128,160,109874,1,0
192,160,110244,1,0
256,160,110615,2,0,B|352:160,1,65
352,160,110985,2,0,B|448:160,1,65
448,160,111356,2,0,B|448:320,1,130
448,320,111911,1,0
416,288,112096,1,0
352,320,112467,2,0,B|224:320,1,65
256,320,112837,6,0,B|160:320,1,65
160,320,113207,1,0
128,288,113393,1,0
96,320,113578,2,0,B|96:224,1,65
128,224,113948,1,0
96,192,114133,1,0
128,160,114319,1,0
96,128,114504,1,0
128,96,114689,1,0
96,64,114874,1,0
128,32,115059,2,0,B|224:32,1,65
224,64,115430,5,0
256,32,115615,2,0,B|416:32,1,130
416,96,116356,2,0,B|416:256,1,130
416,224,116911,2,0,B|416:320,1,65
416,320,117282,1,0
352,320,117652,1,0
256,288,118393,2,0,B|128:288,1,65
192,256,118763,2,0,B|32:256,1,130
160,96,119874,1,0
256,96,120059,1,0
352,96,120244,1,0
448,96,120430,1,0
448,192,120615,1,0
256,192,120800,12,0,121356
64,256,121541,6,0,B|64:160|192:96,1,195
256,96,122467,1,0
320,128,122652,1,0
384,160,122837,1,0
448,224,123022,1,0
384,288,123207,1,0
320,288,123578,2,0,B|128:288,1,130
96,288,124319,5,0
64,256,124504,1,0
96,224,124689,2,0,B|32:160,1,65
64,160,125059,1,0
160,32,125800,5,0
192,64,125985,2,0,B|256:128,1,65
256,128,126356,2,0,B,1,65
320,64,126726,1,0
352,96,126911,1,0
384,64,127096,1,0
416,96,127282,2,0,B|416:192,1,65
416,192,127652,2,0,B|320:288,1,260
192,224,128948,2,0,B|224:256,1,65
249,229,129319,2,0,B|288:256|320:224,1,65
309,232,129689,2,0,B|352:256,1,65
370,234,130059,1,0
384,160,130430,6,0,B|288:160,1,65
319,160,130800,2,0,B|224:160,1,65
224,160,131170,1,0
192,160,131356,2,0,B|96:160,1,65
96,160,131726,1,0
64,192,131911,1,0
96,224,132096,1,0
64,256,132282,1,0
96,288,132467,1,0
64,320,132652,2,0,B|224:320,1,130
224,320,133207,5,0
256,288,133393,1,0
288,320,133578,1,0
320,288,133763,2,0,B|480:288,1,130
448,256,134319,1,0
480,224,134504,1,0
448,192,134689,1,0
480,160,134874,1,0
448,128,135059,2,0,B|352:32,1,130
320,128,136356,6,0,B|224:128,1,65
224,160,136726,2,0,B|128:160,1,65
128,128,137096,2,0,B|32:128,1,65
96,224,137652,2,0,B|192:224,1,65
192,288,138022,2,0,B|288:288,1,65
288,224,138393,2,0,B|384:224,1,65
384,256,138763,1,0
416,224,138948,1,0
448,256,139133,5,0
448,320,139319,2,0,B|320:320,1,65
352,320,139689,1,0
288,320,140059,1,0
256,288,140244,1,0
224,320,140430,2,0,B|128:320,1,65
128,288,140800,1,0
96,320,140985,2,0,B|96:160,1,130
128,160,142096,5,0
128,128,142282,2,0,B|288:128,1,130
384,128,143578,1,0
384,128,143763,1,0
416,160,143948,2,0,B|416:256,1,65
384,256,144319,1,0
416,288,144504,2,0,B|288:288,1,65
320,288,145059,1,0
192,224,145430,2,0,B|96:224,1,65
192,160,145800,2,0,B|96:160,1,65
192,96,146170,2,0,B|96:96,1,65
192,32,146541,2,0,B|96:32,1,65
256,32,146911,6,0,B|416:32,1,130
384,96,147652,2,0,B|224:96,1,130
256,160,148393,2,0,B|384:160,1,65
352,160,148763,1,0
384,192,148948,1,0
384,224,149133,2,0,B|224:224,1,130
384,288,149874,2,0,B|224:288,1,130
192,288,150615,2,0,B|32:288,1,130
96,224,151356,2,0,B|192:224,1,65
96,160,151726,2,0,B|192:160,1,65
96,96,152096,2,0,B|192:96,1,65
96,32,152467,2,0,B|192:32,1,65
192,32,152837,5,0
224,32,153022,2,0,B|352:32,1,65
320,32,153393,2,0,B|416:32,1,65
448,32,154133,2,0,B|448:128,1,65
448,128,154689,2,0,B|256:128,1,130
320,192,155245,2,0,B|416:192,1,65
448,192,155800,1,0
448,256,156170,2,0,B|288:256,1,130
320,224,157282,2,0,B|416:224,1,65
320,160,157652,2,0,B|416:160,1,65
320,96,158022,2,0,B|416:96,1,65
320,32,158393,2,0,B|416:32,1,65
256,32,158763,6,0,B|96:32,1,130
128,96,159504,2,0,B|288:96,1,130
256,160,160245,2,0,B|128:160,1,65
160,160,160615,1,0
128,192,160800,1,0
128,224,160985,2,0,B|288:224,1,130
128,288,161726,2,0,B|288:288,1,130
320,288,162467,2,0,B|480:288,1,130
416,224,163208,2,0,B|320:224,1,65
416,160,163578,2,0,B|320:160,1,65
416,96,163948,2,0,B|320:96,1,65
416,32,164319,2,0,B|320:32,1,65
320,32,164689,5,0
288,32,164874,2,0,B|160:32,1,65
192,32,165245,2,0,B|96:32,1,65
64,32,165985,2,0,B|64:128,1,65
64,128,166541,2,0,B|256:128,1,130
192,192,167097,2,0,B|96:192,1,65
64,192,167652,1,0
64,256,168022,2,0,B|224:256,1,130
288,128,169133,2,0,B|256:160,1,65
288,128,169504,2,0,B|256:96,1,65
288,128,169874,2,0,B|320:96,1,65
288,128,170244,2,0,B|320:160,1,65
320,128,170615,6,0,B|480:128,1,130
480,160,171356,2,0,B|480:320,1,130
416,320,171911,2,0,B|320:320,1,65
320,288,172282,2,0,B|256:288|224:288,1,65
224,320,172652,2,0,B|128:320,1,65
96,320,173578,2,0,B|32:192|96:64|128:64,1,260
160,64,174689,1,0
224,96,175059,2,0,B|320:96,1,65
320,32,175430,2,0,B|416:32,1,65
416,96,175800,2,0,B|512:96,1,65
384,160,176170,2,0,B|288:160,1,65
288,192,176541,5,0
256,192,176726,2,0,B|96:192,1,130
96,192,177282,1,0
96,96,178022,2,0,B|416:96,1,260
352,128,178948,2,0,B|256:128,1,65
192,128,179504,1,0
192,320,179874,1,0
448,320,180244,1,0
256,192,180985,12,0,183207
448,32,183948,6,0,B|352:32,1,65
320,32,184504,2,0,B|224:32,1,65
192,32,185059,2,0,B|96:32,1,65
32,128,185430,1,0
192,128,185800,1,0
384,128,186170,1,0
384,256,186541,1,0
320,320,186911,2,0,B|224:320,1,65
224,256,187467,2,0,B|128:256,1,65
96,320,188022,2,0,B|0:320,1,65
32,192,188393,2,0,B|128:192,1,65
256,192,188763,12,0,189504
448,64,189874,6,0,B|352:64,1,65
352,128,190430,2,0,B|256:128,1,65
224,64,190985,2,0,B|128:64,1,65
256,192,191356,12,0,192837
