osu file format v7

[General]
AudioFilename: Nightcore III - Love Last Forever.mp3
AudioLeadIn: 1996
PreviewTime: 73813
Countdown: 0
SampleSet: Normal
StackLeniency: 0.3
Mode: 0
LetterboxInBreaks: 0
EpilepsyWarning: 1

[Editor]
DistanceSpacing: 1
BeatDivisor: 4
GridSize: 8

[Metadata]
Title:Love Last Forever (Nightcore Mix)
Artist:Molella
Creator:osuplayer111
Version:Insane
Source:Nightcore III
Tags:Trance Techno S i R i R u xxheroxx Vicho-kun lthefuryl Alace

[Difficulty]
HPDrainRate:8
CircleSize:4
OverallDifficulty:8
SliderMultiplier:1.8
SliderTickRate:1

[Events]
//Background and Video events
0,0,"Love Last Forever!.jpg"
//Break Periods
//Storyboard Layer 0 (Background)
//Storyboard Layer 1 (Fail)
//Storyboard Layer 2 (Pass)
//Storyboard Layer 3 (Foreground)
Sprite,Foreground,Centre,"SB\03.png",320,240 M,0,21888,22082,254,365,321,364 F,0,21888,22082,0.03679993,1 S,0,21888,28088,0.5264,0.5328001 M,0,22082,28088,321,364,369,364 F,0,22082,28088,1 R,0,22082,28088,-0.01280029,0 F,0,28088,28475,1,0 S,0,28088,28475,0.5328001,0.6288002 R,0,28088,28475,0,-0.1791998
Sprite,Foreground,Centre,"SB\04.png",320,240 S,0,23438,23632,1.1344,0.5135998 M,0,23438,28088,491,368,514,357 F,0,23438,28088,1 M,0,28088,28282,514,357,602,350 F,0,28088,28282,1,0 F,0,28282,28475,0
Sprite,Foreground,Centre,"SB\02.png",320,240 S,0,24600,,1.2176 F,0,24600,25375,0,0.2671755 M,0,24600,28088,528,412,455,411 F,0,25375,27313,0.2671755,0.3277902 F,0,27313,28088,0.3277902,0
Sprite,Foreground,Centre,"SB\01.png",320,240 F,0,24600,24794,0.2095999,1 M,0,24600,25676,480,413,488,413 S,0,24600,28088,0.5648004,0.5584003 F,0,24794,28088,1 M,0,25676,28088,488,413,507,413 F,0,28088,28475,1,0 S,0,28088,28475,0.5584003,0.7056003 R,0,28088,28475,0,0.32
//Storyboard Sound Samples
//Background Colour Transformations
3,100,255,255,255

[TimingPoints]
190,387.496770860243,4,1,1,50,1,0
1633,-100,4,2,1,70,0,0
1826,-100,4,1,1,50,0,0
3183,-100,4,2,1,70,0,0
3376,-100,4,1,1,50,0,0
6283,-100,4,2,1,70,0,0
6476,-100,4,1,1,50,0,0
9383,-100,4,2,1,70,0,0
9576,-100,4,1,1,50,0,0
10933,-100,4,2,1,70,0,0
11126,-100,4,1,1,50,0,0
12483,-100,4,2,1,70,0,0
12676,-100,4,1,1,50,0,0
15582,-100,4,2,1,70,0,0
15776,-100,4,1,1,50,0,0
18682,-200,4,2,1,70,0,0
18876,-200,4,1,1,70,0,0
21781,-100,4,2,1,70,0,0
21888,-100,4,2,1,70,0,1
21975,-100,4,1,1,70,0,0
27991,-100,4,2,1,70,0,0
28185,-100,4,1,1,70,0,0
31091,-100,4,2,1,70,0,0
31285,-100,4,1,1,70,0,0
32641,-100,4,2,1,70,0,0
32835,-100,4,1,1,70,0,0
33125,-100,4,2,1,70,0,0
33222,-100,4,1,1,70,0,0
33416,-100,4,2,1,70,0,0
33610,-100,4,1,1,70,0,0
33900,-100,4,2,1,70,0,0
33997,-100,4,1,1,70,0,0
34191,-100,4,2,1,70,0,0
34385,-100,4,1,1,70,0,0
40488,-100,4,2,1,70,0,0
40585,-100,4,1,1,70,0,0
43588,-100,4,2,1,70,0,0
43685,-100,4,1,1,70,0,0
46688,-100,4,2,1,70,0,0
48238,-100,4,2,1,70,0,1
48335,-100,4,2,2,70,0,0
60831,-100,4,2,1,70,0,0
74588,-100,4,2,1,70,0,1
74684,-100,4,1,1,70,0,0
80691,-100,4,2,1,70,0,0
80884,-100,4,1,1,70,0,0
85147,-200,4,1,1,70,0,0
85631,-200,4,1,1,0,0,0
85825,-200,4,1,1,70,0,0
86891,-100,4,2,1,70,0,0
87084,-100,4,1,1,70,0,0
97740,-100,4,2,1,70,0,0
99387,-100,4,2,1,70,0,1
99484,-100,4,1,1,70,0,0
105490,-100,4,2,1,70,0,0
105684,-100,4,1,1,70,0,0
111787,-100,4,2,1,70,0,0
111981,-100,4,1,1,70,0,0
122540,-100,4,2,1,70,0,0
123509,-100,4,1,1,70,0,0
123800,-100,4,2,1,70,0,0
123897,-100,4,1,1,70,0,0
124187,-100,4,2,1,70,0,0
124284,-100,4,1,1,70,0,0
134940,-100,4,2,1,70,0,0
138137,-100,4,2,1,70,0,1
138234,-100,4,2,1,70,0,0

[Colours]
Combo1 : 255,128,64
Combo2 : 255,255,128
Combo3 : 128,255,128
Combo4 : 255,128,255

[HitObjects]
416,56,190,1,0
440,144,383,1,0
440,144,480,1,0
440,144,577,2,0,B|400:232,1,90,8|0
392,312,964,1,0
312,280,1158,1,8
256,352,1352,1,0
200,280,1546,1,0
120,312,1739,1,4
200,192,1933,6,0,B|152:160|152:104,1,90,0|8
312,192,2321,2,0,B|360:160|360:104,1,90
256,96,2708,1,8
256,96,2805,1,0
256,96,2902,1,0
176,32,3096,1,0
336,32,3289,1,4
176,32,3483,6,0,B|112:104,1,90,0|8
336,32,3871,2,0,B|400:104,1,90
256,192,4258,1,8
256,192,4355,1,0
256,192,4452,1,0
256,280,4646,2,0,B|256:184,1,90
256,96,5033,6,0,B|256:32,2,45,0|0|8
176,144,5421,1,0
336,144,5614,1,0
256,192,5808,1,8
256,236,5905,1,0
256,280,6002,1,0
208,352,6196,1,0
304,352,6389,1,4
368,288,6583,6,0,B|448:224,1,90,0|8
368,96,6971,2,0,B|448:160,1,90
352,192,7358,1,8
352,192,7455,1,0
352,192,7552,1,0
352,192,7746,2,0,B|256:192,1,90
192,136,8133,5,0
152,216,8327,1,8
152,216,8521,2,0,B|104:296,1,90
105,293,8908,1,8
105,293,9005,1,0
105,293,9102,1,0
24,248,9296,1,0
72,176,9489,1,4
120,104,9683,6,0,B|160:64|200:64,1,90,0|8
256,136,10071,1,0
392,104,10264,2,0,B|352:64|312:64,1,90,0|8
313,64,10555,1,0
313,64,10652,1,0
256,136,10846,2,0,B|256:232,1,90,0|4
256,320,11233,5,0
344,352,11427,1,8
424,312,11621,1,0
376,232,11814,1,0
456,192,12008,1,8
456,192,12105,1,0
456,192,12202,1,0
456,192,12396,2,0,B|480:152|448:96,1,90,0|4
376,56,12783,6,0,B|312:136,1,90,0|8
256,192,13171,1,0
136,56,13364,2,0,B|200:136,1,90,0|8
192,126,13655,1,0
192,126,13752,1,0
192,264,13946,6,0,B|152:304|200:352,1,90
320,264,14333,2,0,B|360:304|312:352,1,90,0|8
256,304,14721,1,0
256,192,14914,1,0
256,104,15108,2,0,B|256:56,2,45,8|0|0
176,152,15496,1,0
336,152,15689,1,4
176,152,15883,6,0,B|176:96|136:72,1,90,0|8
336,152,16271,2,0,B|336:96|376:72,1,90
256,24,16658,1,8
256,24,16755,1,0
256,24,16852,1,0
136,72,17046,6,0,B|56:120,1,90
120,192,17433,1,0
200,240,17627,1,8
312,240,17821,1,0
392,192,18014,1,0
376,72,18208,1,8
376,72,18305,1,0
376,72,18402,2,0,B|456:120,1,90
360,352,18789,6,0,B|336:304,1,45,4|0
152,352,19177,2,0,B|176:304,1,45
256,240,19564,2,0,B|256:136,1,90,8|8
256,192,20339,12,4,21889
256,192,22083,5,0
256,192,22180,1,0
256,192,22277,2,0,B|304:112,1,90,8|0
344,32,22664,1,0
432,32,22858,1,0
432,32,22955,1,0
432,32,23052,2,0,B|480:120,1,90,8|0
440,192,23439,5,0
416,280,23633,1,0
416,280,23730,1,0
416,280,23827,1,8
328,248,24021,1,0
256,304,24214,1,0
256,304,24408,1,0
256,304,24505,1,0
256,304,24602,1,8
72,192,24796,5,0
96,280,24989,1,0
96,280,25183,1,0
96,280,25280,1,0
96,280,25377,1,8
184,248,25571,1,0
256,304,25764,1,0
256,304,25958,1,0
256,304,26055,1,0
256,304,26152,1,8
256,192,26346,6,0,B|208:152|208:104,1,90
144,56,26733,1,0
104,80,26830,1,0
64,104,26927,1,8
256,192,27121,6,0,B|304:152|304:104,1,90
368,56,27508,1,0
408,80,27605,1,0
448,104,27702,1,8
424,192,27896,5,0
416,280,28089,2,0,B|320:328,1,90,4|0
335,320,28380,1,0
335,320,28477,1,8
88,192,28671,5,0
96,280,28864,2,0,B|192:328,1,90,0|0
176,320,29155,1,0
176,320,29252,1,8
208,240,29446,5,0
304,240,29639,1,0
328,152,29833,1,0
328,152,29930,1,0
328,152,30027,2,0,B|360:112|320:56,1,90,8|0
256,112,30414,1,0
184,152,30608,1,0
184,152,30705,1,0
184,152,30802,2,0,B|152:112|192:56,1,90,8|0
328,152,31189,5,4
408,192,31383,1,0
408,192,31480,1,0
408,192,31577,1,8
328,232,31770,1,0
184,152,31964,5,0
104,192,32158,1,0
104,192,32255,1,0
104,192,32352,1,8
184,232,32545,1,0
328,232,32739,6,0,B|368:320,1,90,4|0
365,313,33030,1,0
365,313,33127,1,4
256,344,33320,1,0
184,232,33514,2,0,B|144:320,1,90,4|0
146,313,33805,1,0
146,313,33902,1,4
256,344,34095,1,0
256,192,34289,5,4
304,112,34483,1,0
304,112,34580,2,0,B|392:152,1,90
464,192,34967,1,0
464,104,35161,1,0
456,88,35258,1,0
448,72,35355,1,0
440,56,35452,1,0
352,32,35645,6,0,B|256:32,1,90
208,112,36033,1,0
208,112,36130,1,0
256,192,36324,1,0
304,272,36517,5,0
320,296,36614,1,0
312,320,36711,1,0
296,336,36808,1,0
272,344,36905,1,0
240,344,37002,1,0
216,336,37099,1,0
200,320,37195,1,0
192,296,37292,1,0
208,272,37389,1,0
256,192,37583,5,0
256,192,37680,1,0
256,104,37874,1,0
168,104,38067,5,0
168,72,38164,1,0
184,40,38261,1,0
208,24,38358,1,0
240,32,38455,1,0
272,32,38552,1,0
304,24,38649,1,0
328,40,38745,1,0
344,72,38842,1,0
344,104,38939,1,0
344,192,39133,5,0
344,192,39230,1,0
256,192,39424,1,0
168,176,39617,5,0
152,160,39714,1,0
128,152,39811,1,0
104,160,39908,1,0
88,176,40005,1,0
88,208,40102,1,0
104,224,40199,1,0
128,240,40295,1,0
152,224,40392,1,0
168,208,40489,1,4
256,192,40683,5,0
256,192,40780,1,0
344,192,40974,1,0
408,128,41167,1,0
432,144,41264,1,0
440,176,41361,1,0
440,208,41458,1,0
432,240,41555,1,0
408,256,41652,1,0
344,320,41845,5,0
256,288,42039,1,0
168,320,42233,1,0
168,320,42330,1,0
256,288,42524,1,0
256,200,42717,5,0
216,176,42814,1,0
192,136,42911,1,0
192,88,43008,1,0
216,48,43105,1,0
256,24,43202,1,0
296,48,43299,1,0
320,88,43395,1,0
320,136,43492,1,0
296,176,43589,1,4
256,288,43783,5,0
256,288,43880,1,0
256,200,44074,1,0
320,136,44267,5,0
360,112,44364,1,0
400,96,44461,1,0
440,112,44558,1,0
480,136,44655,1,0
480,184,44752,1,0
440,208,44849,1,0
400,224,44945,1,0
360,208,45042,1,0
320,184,45139,1,0
256,248,45333,5,0
256,248,45430,1,0
184,296,45623,1,0
112,248,45817,5,0
96,240,45914,1,0
80,232,46011,1,0
64,224,46108,1,0
48,216,46205,1,0
32,208,46302,1,0
16,200,46398,2,0,B|16:152,2,45
16,200,46689,1,4
256,192,46786,12,4,48239
112,112,48627,5,8
168,48,48820,1,0
208,128,49014,1,2
256,56,49208,1,0
304,128,49402,1,8
344,48,49595,1,0
400,112,49789,1,2
408,288,50177,5,8
336,232,50370,1,0
336,320,50564,1,2
256,280,50758,1,0
176,320,50952,1,8
176,232,51145,1,0
104,288,51339,1,2
256,192,51727,5,8
256,192,51920,2,0,B|184:104|256:24,1,180
251,29,52502,1,8
336,64,52695,1,0
336,64,52889,2,0,B|416:120,1,90,2|0
448,240,53277,2,0,B|368:184,1,90,8|2
296,136,53664,5,0
216,136,53858,1,2
192,224,54052,2,0,B|160:264|184:312,1,90,8|0
320,224,54439,2,0,B|352:264|328:312,1,90,2|0
256,352,54827,1,8
192,224,55020,1,0
320,224,55214,1,2
256,48,55602,5,8
256,48,55795,1,0
256,48,55989,2,0,B|352:24|432:80,1,180,2|8
416,168,56570,2,0,B|416:272|336:336,1,180,2|0
256,328,57152,1,8
168,328,57345,1,0
168,328,57539,1,2
168,328,57927,6,0,B|88:272,1,90,8|0
24,216,58314,2,0,B|24:112|104:48,1,180,2|8
176,88,58895,1,0
256,40,59089,2,0,B|344:8|440:48,1,180,2|8
472,128,59670,1,2
472,128,59864,2,0,B|384:160,1,90,0|2
472,256,60251,1,8
472,256,60445,2,0,B|384:224,1,90,0|4
256,192,60930,5,0
256,192,61026,2,0,B|208:280,1,90,8|2
48,344,61608,1,0
88,264,61801,1,8
136,192,61995,1,0
184,120,62189,2,0,B|248:48|320:144,1,135,2|0
299,120,62576,1,8
352,192,62770,2,0,B|432:272|352:352,1,180,2|2
304,272,63351,6,0,B|296:352|256:352|208:336|208:304|208:256,1,180,8|2
208,136,64030,1,0
208,136,64126,2,0,B|256:56,1,90,8|2
432,48,64708,1,0
488,120,64901,1,8
432,192,65095,1,0
488,264,65289,2,0,B|464:344|368:344,1,135,2|0
344,344,65676,1,8
256,312,65870,2,0,B|312:216|208:224|264:120,1,180,2|2
256,48,66451,6,0,B|160:16|72:88,1,180,8|4
32,200,67130,1,0
32,200,67226,1,8
48,288,67420,2,0,B|120:352|232:304,1,180,2|2
256,232,68001,1,8
296,312,68195,1,0
256,232,68389,2,0,B|256:80,1,135,2|0
256,97,68776,1,8
328,40,68970,1,2
472,152,69358,5,2
472,152,69551,1,8
472,152,69939,2,0,B|432:248,1,90,2|0
437,235,70230,1,0
437,235,70326,1,8
368,296,70520,2,0,B|288:352|192:312,1,180,2|2
120,272,71101,1,8
80,192,71295,1,0
120,104,71489,6,0,B|160:64|208:64,1,90,2|0
198,64,71780,1,0
198,64,71876,1,8
312,64,72070,1,2
256,192,72458,1,2
256,192,72748,1,2
72,168,73039,5,8
80,200,73136,1,0
96,232,73233,1,0
112,256,73330,1,0
136,280,73426,1,0
160,304,73523,1,0
184,328,73620,1,0
216,344,73717,1,0
256,352,73814,1,2
296,344,73911,1,0
328,328,74008,1,0
352,304,74105,1,0
376,280,74201,1,2
400,256,74298,1,0
416,232,74395,1,0
432,200,74492,1,0
440,168,74589,1,4
256,192,74976,5,8
80,144,75364,2,0,B|176:168,1,90,0|0
80,56,75751,2,0,B|176:32,1,90,8|0
256,104,76139,1,0
432,144,76333,2,0,B|336:168,1,90,0|8
432,56,76720,2,0,B|336:32,1,90,0|0
256,104,77108,5,0
256,192,77301,1,8
208,272,77495,1,0
304,272,77689,1,0
256,16,78076,5,8
256,16,78270,2,0,B|360:32|360:152,1,180
360,232,78851,1,8
336,312,79045,1,0
256,352,79239,1,0
176,312,79433,1,0
152,232,79626,1,8
152,232,80014,6,0,B|64:192,1,90,0|0
184,160,80401,2,0,B|96:120,1,90,8|0
40,56,80789,1,4
256,56,81176,1,8
472,56,81564,1,0
409,122,81758,2,0,B|328:160,1,90,0|8
441,194,82145,2,0,B|360:232,1,90,0|0
256,328,82726,1,8
256,192,83114,5,0
208,112,83308,1,0
256,32,83501,1,8
304,112,83695,1,0
400,192,84083,5,0
328,248,84276,1,8
256,192,84470,1,0
112,192,84858,1,0
184,248,85051,1,8
256,192,85245,2,0,B|280:248|348:248,1,90
256,192,85826,2,0,B|232:248|164:248,1,90,8|0
192,128,86408,5,0
216,40,86601,1,8
296,40,86795,1,0
320,128,86989,1,4
256,328,87376,1,8
56,240,87764,6,0,B|136:304,1,90,0|0
456,240,88151,2,0,B|376:304,1,90,8|0
256,328,88539,1,0
256,192,88926,1,8
56,144,89314,6,0,B|136:80,1,90,0|0
456,144,89701,2,0,B|376:80,1,90,8|0
256,56,90282,1,0
256,56,90476,2,0,B|256:160,1,90,8|0
144,288,91057,1,0
208,352,91251,1,8
304,352,91445,1,0
368,288,91639,1,0
256,240,92026,1,8
200,128,92414,6,0,B|144:56,1,90,0|0
312,128,92801,2,0,B|368:56,1,90,8|0
456,192,93189,1,0
256,240,93576,1,8
56,192,93964,1,0
136,232,94157,1,0
200,168,94351,1,8
256,240,94545,1,0
312,168,94739,2,0,B|416:160|472:256,1,180,0|8
304,320,95514,5,0
256,240,95707,1,0
200,168,95901,1,8
200,168,96095,2,0,B|200:72|312:40,1,180
400,40,96676,1,8
464,104,96870,2,0,B|392:184,1,90,0|0
408,264,97257,5,0
344,328,97451,1,8
168,328,97645,1,0
104,264,97839,1,4
256,40,98226,1,4
40,192,98614,1,4
472,192,99001,1,4
256,192,99389,5,4
88,40,99776,1,8
424,40,100164,1,0
176,192,100551,1,8
256,272,100745,1,0
336,192,100939,1,0
256,40,101326,1,8
176,192,101714,6,0,B|112:272,1,90
336,192,102101,2,0,B|400:272,1,90,8|0
256,272,102489,1,0
256,112,102876,1,8
120,112,103070,5,0
120,112,103167,1,0
168,40,103361,1,0
256,24,103554,1,0
256,24,103651,1,8
344,40,103845,1,0
392,112,104039,1,0
256,192,104426,5,8
176,320,104814,1,0
216,344,104911,1,0
256,360,105007,1,0
296,344,105104,1,0
336,320,105201,1,8
256,272,105395,1,0
256,192,105589,1,4
88,120,105976,5,8
424,120,106364,1,0
256,40,106751,2,0,B|256:136,1,90,8|0
256,130,107139,1,0
256,256,107526,1,8
88,344,107914,6,0,B|184:344,1,90
424,344,108301,2,0,B|328:344,1,90,8|0
256,344,108689,1,0
256,192,109076,1,8
136,128,109270,5,0
136,128,109367,1,0
176,48,109560,1,0
256,96,109754,1,0
256,96,109851,1,8
336,48,110045,1,0
376,128,110239,1,0
256,192,110626,5,8
128,336,111014,1,0
160,312,111110,1,0
192,336,111207,1,0
224,312,111304,1,0
256,336,111401,1,8
288,312,111498,1,0
320,336,111595,1,0
352,312,111692,1,0
384,336,111789,1,4
128,48,112176,5,8
128,336,112564,1,0
256,112,112951,1,8
336,192,113145,1,0
256,272,113339,1,0
128,192,113726,1,8
256,112,114114,6,0,B|336:48,1,90
256,272,114501,2,0,B|336:336,1,90,8|0
336,192,114889,1,0
176,192,115276,1,8
176,56,115470,5,0
176,56,115567,1,0
104,104,115760,1,0
88,192,115954,1,0
88,192,116051,1,8
104,280,116245,1,0
176,328,116439,1,0
256,192,116826,5,8
384,112,117214,1,0
408,152,117310,1,0
424,192,117407,1,0
408,232,117504,1,0
384,272,117601,1,8
336,192,117795,1,0
256,192,117989,1,0
336,40,118376,5,8
336,344,118764,1,0
424,192,119151,2,0,B|328:192,1,90,8|0
334,192,119539,1,0
192,192,119926,1,8
104,24,120313,6,0,B|104:120,1,90
104,360,120701,2,0,B|104:264,1,90,8|0
104,192,121088,1,0
256,192,121476,1,8
320,72,121670,5,0
320,72,121767,1,0
400,112,121960,1,0
352,192,122154,1,0
352,192,122251,1,8
400,272,122445,1,0
320,312,122638,1,4
256,192,123026,5,4
112,64,123413,1,4
136,96,123510,1,0
112,128,123607,1,0
136,160,123704,1,0
112,192,123801,1,4
136,224,123898,1,0
112,256,123995,1,0
136,288,124092,1,0
112,320,124188,1,4
256,192,124576,6,0,B|296:288|416:288,1,180,8|0
256,192,125351,2,0,B|296:96|416:96,1,180,8|0
472,192,126126,1,8
384,192,126320,5,0
384,192,126417,1,0
384,192,126513,1,0
320,128,126707,2,0,B|280:80|240:80,1,90,0|8
320,256,127095,2,0,B|280:304|240:304,1,90
128,192,127676,5,8
192,128,127870,1,0
192,128,127967,1,0
256,64,128160,1,0
320,128,128354,1,0
320,128,128451,1,8
384,192,128645,1,0
384,192,128838,1,0
256,336,129226,1,8
256,192,129517,5,0
256,192,129613,1,0
192,128,129807,2,0,B|128:56,1,90,0|8
320,128,130195,2,0,B|384:56,1,90
128,192,130776,1,8
384,192,131163,1,0
192,304,131551,1,8
256,352,131745,1,0
320,304,131938,1,0
256,32,132326,5,8
368,112,132617,1,0
368,112,132713,2,0,B|416:208,1,90
144,112,133101,2,0,B|96:208,1,90,8|0
103,192,133488,1,0
256,192,133876,5,8
184,240,134070,1,0
184,240,134167,1,0
208,320,134360,1,0
304,320,134554,1,0
304,320,134651,1,8
328,240,134845,1,0
256,192,135038,5,4
40,112,135426,1,4
472,112,135813,1,4
120,320,136201,1,4
392,320,136588,1,4
256,40,136976,1,4
256,192,137363,12,4,138138
