osu file format v7

[General]
AudioFilename: moi dix mois - monophobia.mp3
AudioLeadIn: 1985
PreviewTime: -1
Countdown: 1
SampleSet: Normal
StackLeniency: 0.8
Mode: 1
LetterboxInBreaks: 1

[Editor]
DistanceSpacing: 0.699999988079071
BeatDivisor: 4
GridSize: 16

[Metadata]
Title:Monophobia
Artist:Moi dix Mois
Creator:matusiek3
Version:mono-TAIKO-bia
Source:
Tags:Moi dix Mois mana-sama mana monophobia

[Difficulty]
HPDrainRate:3
CircleSize:4
OverallDifficulty:2
SliderMultiplier:0.9
SliderTickRate:2

[Events]
//Background and Video events
0,0,"nocturnal_opera02.jpg"
//Break Periods
//Storyboard Layer 0 (Background)
//Storyboard Layer 1 (Fail)
//Storyboard Layer 2 (Pass)
//Storyboard Layer 3 (Foreground)
//Storyboard Sound Samples
//Background Colour Transformations
3,100,163,162,255

[TimingPoints]
16248.8073143554,576.701268742791,4,1,0,100,1,0

[Colours]
Combo1 : 255,255,255
Combo2 : 0,255,255
Combo3 : 5,5,240
Combo4 : 192,192,192

[HitObjects]
240,240,389,1,2
256,240,677,1,0
272,240,966,1,2
288,224,1110,1,0
320,208,1254,1,0
320,208,1399,1,0
320,208,1543,1,0
320,208,1687,1,4
272,160,2696,5,0
272,160,2984,1,0
272,160,3273,1,0
272,160,3561,1,0
272,160,4138,1,0
128,176,5003,5,0
112,208,5291,1,0
128,176,5579,1,0
240,112,5868,1,0
320,96,6156,1,0
368,112,6444,1,0
368,112,6733,1,0
384,160,7021,1,0
352,240,7309,1,0
272,256,7598,1,0
272,256,7886,1,0
176,144,8174,1,0
176,144,8895,1,0
256,144,9040,1,0
256,144,9184,1,0
208,160,9616,1,0
176,160,9905,1,0
160,160,10049,1,0
128,176,10337,1,0
112,176,10481,1,0
336,160,10625,1,0
368,208,11058,1,0
288,240,11779,1,0
272,240,11923,1,0
240,240,12211,1,0
208,224,12500,1,0
208,224,12788,1,0
288,112,13221,1,0
80,128,15095,1,0
144,128,15672,1,0
208,128,16248,1,0
272,128,16825,1,0
304,128,17113,1,0
336,128,17402,1,0
416,128,18123,1,0
432,128,18267,1,0
448,128,18555,1,0
448,128,18843,1,0
448,128,18988,1,0
448,128,19132,1,0
448,128,19276,1,0
448,128,19420,1,0
448,128,19564,1,0
448,128,19709,1,0
384,224,20718,1,0
320,208,21294,1,0
256,192,21871,1,0
304,160,22448,1,0
336,144,22736,1,0
352,128,22880,1,0
368,112,23025,1,0
368,112,23169,1,0
320,96,23601,1,0
256,96,24178,1,0
224,96,24466,1,0
192,96,24755,1,0
160,96,25043,1,0
128,96,25331,1,0
96,112,25764,1,0
96,112,26052,1,0
96,112,26341,1,0
96,112,26629,1,0
96,112,26917,1,0
96,112,27206,1,0
96,112,27350,1,0
96,112,27638,1,0
96,112,27927,1,0
96,112,28215,1,0
96,112,28936,1,0
96,112,29224,1,0
96,112,29657,1,0
96,112,29945,1,0
96,112,30522,1,0
96,112,31098,1,0
96,112,31675,1,0
96,112,32252,1,0
96,112,32828,1,0
96,112,33405,1,0
96,112,33549,1,0
96,112,33694,1,0
96,112,33838,1,0
96,112,34126,1,0
96,112,34270,1,0
96,112,34414,1,0
96,112,34559,1,0
96,112,35135,1,0
96,112,35712,1,0
96,112,36289,1,0
96,112,36865,1,0
96,112,37442,1,0
96,112,38163,1,0
96,112,38451,1,0
96,112,38740,1,0
96,112,39028,1,0
96,112,39316,1,0
96,112,39893,1,0
96,112,40470,1,0
96,112,40614,1,0
96,112,41046,1,0
96,112,41623,1,0
96,112,41912,1,0
96,112,42777,1,0
96,112,43065,1,0
96,112,43930,1,0
96,112,44218,1,0
96,112,44362,1,0
