osu file format v7

[General]
AudioFilename: moi dix mois - monophobia.mp3
AudioLeadIn: 1985
PreviewTime: -1
Countdown: 1
SampleSet: Normal
StackLeniency: 0.8
Mode: 0
LetterboxInBreaks: 1

[Editor]
DistanceSpacing: 0.699999988079071
BeatDivisor: 4
GridSize: 16

[Metadata]
Title:Monophobia
Artist:Moi dix Mois
Creator:matusiek3
Version:Mono
Source:Nocturnal Opera
Tags:Moi dix Mois mana-sama mana monophobia

[Difficulty]
HPDrainRate:3
CircleSize:4
OverallDifficulty:2
SliderMultiplier:0.9
SliderTickRate:2

[Events]
//Background and Video events
0,0,"nocturnal_opera02.jpg"
//Break Periods
2,61447,66609
//Storyboard Layer 0 (Background)
//Storyboard Layer 1 (Fail)
//Storyboard Layer 2 (Pass)
//Storyboard Layer 3 (Foreground)
//Storyboard Sound Samples
//Background Colour Transformations
3,100,163,162,255

[TimingPoints]
16248.8073143554,576.901268742791,4,1,0,100,1,0

[Colours]
Combo1 : 128,0,255
Combo2 : 255,0,0
Combo3 : 128,255,0
Combo4 : 255,128,0

[HitObjects]
64,192,19710,1,0
128,192,20287,1,0
192,192,20864,1,0
432,192,23027,1,0
464,144,24181,5,8
416,176,24758,1,12
368,144,25335,1,8
320,176,25911,1,4
272,144,26488,1,0
224,176,27065,1,12
176,144,27642,1,8
128,176,28219,1,14
160,96,28940,6,0,C|48:32|96:176|288:272|176:288,1,607.5
208,208,33555,6,0,C|48:32|96:176|288:272|176:288,1,720
256,48,40478,5,0
256,176,41632,1,0
128,176,42786,1,0
256,176,43940,1,0
272,336,45382,2,4,C|192:208,1,135
256,320,47401,5,0
256,176,48555,1,0
384,176,49709,1,0
256,176,50862,1,0
256,304,52016,2,4,C|352:192,1,135
256,320,54180,5,0
256,176,55478,5,0
320,176,56054,1,0
288,128,56631,1,8
176,176,57785,5,0
112,176,58362,1,0
48,176,58939,1,8
48,288,60093,5,0
96,256,60670,1,0
144,288,61247,1,4
256,192,68169,12,4,71631
256,352,72208,5,0
192,352,72785,5,0
192,304,73217,1,0
192,256,73650,1,8
224,256,73938,5,0
320,256,74371,1,0
320,208,74804,1,8
336,192,75092,6,0,C|224:112,2,135
368,224,77400,1,0
240,224,78554,1,2
192,192,79131,1,2
224,144,79707,6,10,C|240:112,8,22.5
336,208,82015,6,0,C|224:208,2,90
368,224,83457,5,0
368,192,83746,1,0
304,192,84323,1,0
240,192,84900,1,0
176,192,85476,5,0
128,144,85765,1,0
128,144,86053,1,4
128,80,86630,5,8
192,80,87207,1,2
256,80,87784,1,8
256,144,88361,1,0
256,208,88938,1,8
320,208,89515,1,2
384,208,90092,1,14
256,192,91245,12,0,95284
