osu file format v11

[General]
AudioFilename: Mohu@ - Soitogeta Android e.mp3
AudioLeadIn: 120
PreviewTime: 203875
Countdown: 0
SampleSet: Soft
StackLeniency: 0.7
Mode: 0
LetterboxInBreaks: 0

[Editor]
DistanceSpacing: 0.7
BeatDivisor: 4
GridSize: 8

[Metadata]
Title:Soitogeta Android e
TitleUnicode:添い遂げたアンドロイドへ
Artist:Mohu@
ArtistUnicode:もふ@ feat. 初音ミク
Creator:Colin Hou
Version:Phalaenopsis
Source:
Tags:Vocaloid2 yasu Tinkle-POP sm17651826 bobo1 Hatsune Miku
BeatmapID:154395
BeatmapSetID:50193

[Difficulty]
HPDrainRate:7
CircleSize:5
OverallDifficulty:8
ApproachRate:9
SliderMultiplier:1.8
SliderTickRate:1

[Events]
//Background and Video events
0,0,"BG.jpg"
Video,-120,"BGV.avi"
//Break Periods
2,68917,72538
2,95443,99696
//Storyboard Layer 0 (Background)
//Storyboard Layer 1 (Fail)
//Storyboard Layer 2 (Pass)
//Storyboard Layer 3 (Foreground)
//Storyboard Sound Samples
//Background Colour Transformations
3,100,243,231,118

[TimingPoints]
15665,315.789473684211,4,2,1,100,1,0
46296,-133.333333333333,4,2,1,100,0,0
47875,-83.3333333333333,4,2,1,100,0,0
48507,-133.333333333333,4,2,1,100,0,0
50401,-83.3333333333333,4,2,1,100,0,0
51349,-133.333333333333,4,2,1,100,0,0
52928,-83.3333333333333,4,2,1,100,0,0
53875,-133.333333333333,4,2,1,100,0,0
55454,-83.3333333333333,4,2,1,100,0,0
56401,-133.333333333333,4,2,1,100,0,0
57980,-83.3333333333333,4,2,1,100,0,0
58612,-133.333333333333,4,2,1,100,0,0
59717,-100,4,2,1,100,0,0
75033,-100,4,2,1,100,0,1
80086,-66.6666666666667,4,2,1,100,0,1
80401,-83.3333333333333,4,2,1,100,0,1
90191,-66.6666666666667,4,2,1,100,0,1
90428,-83.3333333333333,4,2,1,100,0,1
90822,-66.6666666666667,4,2,1,100,0,1
91138,-83.3333333333333,4,2,1,100,0,1
93980,-83.3333333333333,4,2,1,100,0,0
94296,-95.2380952380952,4,2,1,100,0,0
94612,-111.111111111111,4,2,1,100,0,0
94928,-133.333333333333,4,2,1,100,0,0
100296,-100,4,2,1,100,0,0

[Colours]
Combo1 : 87,230,211
Combo2 : 237,146,71
Combo3 : 239,112,217
Combo4 : 252,92,92

[HitObjects]
288,67,15665,2,0,B|280:111|295:161,1,90
283,246,15980,2,0,B|360:201|460:224,1,180
457,223,16375,1,0,0:0:0
457,223,16454,1,0,0:0:0
417,314,16612,1,0,0:0:0
361,201,16770,1,0,0:0:0
442,93,16928,1,0,0:0:0
442,93,17007,1,0,0:0:0
442,93,17086,2,0,B|400:74|353:75,1,90
255,117,17401,1,0,0:0:0
234,146,17480,1,0,0:0:0
214,175,17559,2,0,B|236:214|224:264,1,90
88,329,17875,2,0,B|32:280|48:184,1,135
52,152,18191,6,0,B|100:148|140:142,1,90
230,80,18507,1,0,0:0:0
270,85,18586,1,0,0:0:0
309,90,18665,1,0,0:0:0
397,151,18822,2,0,B|448:146,1,45
490,121,18980,2,0,B|442:195|471:304,1,180
468,294,19454,1,0,0:0:0
468,294,19612,1,0,0:0:0
308,211,19770,1,0,0:0:0
308,211,19849,1,0,0:0:0
308,211,19928,1,0,0:0:0
231,287,20086,2,0,B|140:310,1,90
22,191,20401,2,0,B|109:168,1,90
142,137,20638,1,0,0:0:0
173,105,20717,6,0,B|261:84,2,90
348,146,21349,1,0,0:0:0
348,146,21507,1,0,0:0:0
348,146,21665,2,0,B|436:164,1,90
185,315,22138,2,0,B|97:297,1,90
96,296,22454,1,0,0:0:0
62,87,22612,1,0,0:0:0
62,87,22770,2,0,B|150:105,1,90
214,168,23086,6,0,B|254:142|305:155,1,90
387,217,23401,1,0,0:0:0
355,357,23559,1,0,0:0:0
271,236,23875,6,0,B|231:262|180:249,1,90
214,168,24191,2,0,B|241:82,1,90
156,335,24665,1,0,0:0:0
423,296,24980,1,0,0:0:0
271,236,25138,5,0,0:0:0
271,236,25296,1,0,0:0:0
271,236,25375,1,0,0:0:0
271,236,25454,2,0,B|309:265|360:244|360:244|386:202,1,135
411,152,25770,2,0,B|451:67,2,90
194,280,26401,5,0,0:0:0
119,229,26559,1,0,0:0:0
35,261,26717,1,0,0:0:0
40,350,26875,2,0,B|85:334|99:287|99:287|82:198,1,180
63,109,27349,2,0,B|151:116,1,90
191,92,27586,1,0,0:0:0
232,74,27665,2,0,B|320:81,1,90
465,75,27980,2,0,B|481:164|481:164|457:253,1,180
420,333,28454,1,0,0:0:0
355,270,28612,2,0,B|289:284|289:284|223:268,1,135
179,255,28928,1,0,0:0:0
179,255,29086,2,0,B|92:277,2,90
256,192,29559,5,0,0:0:0
224,96,29717,1,0,0:0:0
300,33,29875,2,0,B|344:93|429:76,1,135
467,62,30191,1,0,0:0:0
467,62,30270,1,0,0:0:0
467,62,30349,2,0,B|492:102|488:151,1,90
410,210,30665,1,0,0:0:0
410,210,30743,1,0,0:0:0
410,210,30822,1,0,0:0:0
480,280,30980,2,0,B|432:290|386:306,1,90
339,141,31296,1,0,0:0:0
314,240,31454,2,0,B|266:250|220:266,2,90
511,184,31928,1,0,0:0:0
359,53,32086,6,0,B|308:73|305:131,1,90,0|0,0:0|0:0,0:0:0
355,205,32401,2,0,P|406:220|446:212,1,90
507,123,32717,1,0,0:0:0
407,123,32875,1,0,0:0:0
307,123,33033,2,0,B|254:167|169:147,1,135
130,135,33349,1,0,0:0:0
35,104,33507,1,0,0:0:0
75,194,33665,5,0,0:0:0
96,221,33743,1,0,0:0:0
94,262,33822,1,0,0:0:0
72,291,33901,1,0,0:0:0
36,295,33980,2,0,B|69:327|119:329,1,90
198,225,34296,1,0,0:0:0
189,297,34454,2,0,B|231:309|280:299,2,90
154,162,34928,6,0,B|212:118|286:130,1,135
324,140,35243,1,0,0:0:0
299,226,35401,1,0,0:0:0
359,292,35559,1,0,0:0:0
447,274,35717,1,0,0:0:0
447,274,35796,1,0,0:0:0
447,274,35875,2,0,B|424:226|444:184,1,90
490,92,36191,2,0,B|425:128|359:111,1,135
319,90,36507,5,0,0:0:0
170,135,36665,1,0,0:0:0
258,156,36822,1,0,0:0:0
152,46,36980,2,0,B|105:100|25:83,1,135
14,72,37296,1,0,0:0:0
14,72,37454,6,0,B|28:114|9:164,2,90
70,1,37928,1,0,0:0:0
139,57,38086,2,0,B|208:74|282:62,1,135
315,47,38401,2,0,B|359:56|407:47,1,90
490,18,38717,1,0,0:0:0
416,137,38875,1,0,0:0:0
399,169,38954,1,0,0:0:0
387,203,39033,2,0,B|431:212|479:203,2,90
269,88,39507,5,0,0:0:0
140,160,39665,2,0,B|184:175|232:155,1,90
213,266,39980,2,0,B|259:257|281:211,1,90
302,181,40217,1,0,0:0:0
302,181,40296,2,0,B|301:264|384:285,1,135
416,298,40612,2,0,B|505:270,1,90
436,208,40928,1,0,0:0:0
436,208,41086,1,0,0:0:0
372,144,41243,6,0,B|440:124|504:92,1,135
493,49,41559,2,0,B|457:103|491:188,1,135
504,204,41875,1,0,0:0:0
417,229,42033,1,0,0:0:0
307,295,42191,2,0,B|337:265|328:212,1,90
169,285,42507,2,0,B|215:293|243:243,1,90
206,77,42822,1,0,0:0:0
206,77,42901,2,0,B|146:124|165:197,1,135
255,196,43296,1,0,0:0:0
345,196,43454,2,0,B|385:198|416:195|416:195|412:207|412:207|452:197|512:199,2,180
282,260,44243,1,0,0:0:0
200,340,44401,2,0,B|228:301|213:251,1,90
8,187,44717,6,0,B|79:224|185:191,2,180
258,165,45665,6,0,B|364:132|435:169,1,180
505,249,46296,1,0,0:0:0
505,249,46454,2,0,B|448:244|420:285|420:285|376:273,1,134.999995976687
319,251,46928,2,0,B|304:293|338:328|338:328|392:348,1,134.999995976687
452,361,47401,2,0,B|446:291|446:291|428:259|440:224,1,134.999995976687
487,180,47875,6,0,B|397:184|345:116,1,162.000003862381
306,63,48191,2,0,B|264:143|167:142,1,162.000003862381
111,131,48507,5,0,0:0:0
91,264,48822,2,0,B|24:277,1,67.4999979883433
135,315,49138,2,0,B|203:280|272:318,1,134.999995976687
319,355,49612,2,0,B|263:300|288:228,1,134.999995976687
320,172,50086,2,0,B|391:184,1,67.4999979883433
455,205,50401,6,0,B|410:282|308:270,1,162.000003862381
297,292,50717,1,0,0:0:0
297,292,50796,1,0,0:0:0
297,292,50875,2,0,B|235:306|184:270,1,108.000002574921
55,70,51349,5,0,0:0:0
55,70,51507,2,0,B|89:35|153:36|184:77,1,134.999995976687
153,132,51980,2,0,B|190:146|222:122|222:122|291:114,1,134.999995976687
241,52,52454,2,0,B|380:36,1,134.999995976687
442,28,52928,6,0,B|394:97|423:184,1,162.000003862381
490,201,53243,2,0,B|396:184|346:264,1,162.000003862381
329,323,53559,1,0,0:0:0
237,223,53875,5,0,0:0:0
286,176,54033,2,0,B|249:136|184:152|172:205,1,134.999995976687
237,223,54507,2,0,B|237:294,1,67.4999979883433
240,357,54822,2,0,B|212:284|281:236,1,134.999995976687
344,227,55296,1,0,0:0:0
344,227,55454,6,0,B|289:297|197:268,1,162.000003862381
172,285,55770,1,0,0:0:0
172,285,55849,1,0,0:0:0
172,285,55928,2,0,B|196:228|162:182,1,108.000002574921
87,62,56401,5,0,0:0:0
51,119,56559,2,0,B|85:139|142:138|177:96,1,134.999995976687
216,45,57033,2,0,B|260:100|342:89,1,134.999995976687
401,67,57507,2,0,B|472:72,2,67.4999979883433
332,60,57980,6,0,B|268:85|260:166|304:203,1,162.000003862381
362,184,58296,2,0,B|224:208|202:213,1,162.000003862381
128,232,58612,5,0,0:0:0
160,341,58928,1,0,0:0:0
160,341,59086,2,0,B|120:322|116:252|156:225,1,134.999995976687
197,282,59559,1,0,0:0:0
168,156,59717,5,0,0:0:0
299,32,60033,1,0,0:0:0
465,101,60349,1,0,0:0:0
451,280,60665,6,0,B|407:258|404:201,1,90
388,65,60980,1,0,0:0:0
189,33,61296,5,0,0:0:0
57,173,61454,2,0,B|97:157|144:157,1,90
381,206,61928,5,0,0:0:0
324,275,62086,1,0,0:0:0
413,289,62243,1,0,0:0:0
289,188,62401,2,0,B|215:254|118:216,1,180
366,76,62875,2,0,B|407:136|381:206,1,135
354,240,63191,6,0,B|387:331,2,90
321,155,63665,2,0,B|308:114,2,45
447,261,63980,2,0,B|496:268,2,45
303,310,64296,2,0,B|275:345,2,45
417,169,64612,5,0,0:0:0
269,228,64770,1,0,0:0:0
170,118,64928,2,0,B|141:84,2,45
208,267,65243,2,0,B|200:317,2,45
303,152,65559,2,0,B|345:136,2,45
129,206,65875,1,0,0:0:0
216,180,66033,5,0,0:0:0
216,180,66112,1,0,0:0:0
216,180,66191,1,0,0:0:0
289,246,66349,1,0,0:0:0
396,240,66507,1,0,0:0:0
477,155,66665,1,0,0:0:0
446,42,66822,1,0,0:0:0
362,124,66980,1,0,0:0:0
421,311,67138,1,0,0:0:0
390,222,67296,5,0,0:0:0
390,222,67375,1,0,0:0:0
390,222,67454,1,0,0:0:0
297,320,67612,1,0,0:0:0
166,283,67770,1,0,0:0:0
141,150,67928,1,0,0:0:0
141,150,68007,1,0,0:0:0
141,150,68086,1,0,0:0:0
256,192,68165,12,0,68717,0:0:0
256,302,73138,5,0,0:0:0
256,265,73770,1,0,0:0:0
256,229,74401,1,0,0:0:0
256,192,75033,6,0,B|232:148|263:105,1,90
327,245,75349,2,0,B|300:287|250:282,1,90
337,155,75665,2,0,B|387:156|407:202,1,90
169,322,75980,2,0,B|145:278|176:235,1,90
485,258,76296,2,0,B|458:300|408:295,1,90
275,18,76612,2,0,B|325:19|345:65,1,90
327,245,76928,5,0,0:0:0
261,107,77086,1,0,0:0:0
407,202,77243,1,0,0:0:0
244,202,77401,1,0,0:0:0
130,271,77559,6,0,B|51:313,1,90
382,113,77875,2,0,B|461:71,1,90
79,198,78191,2,0,B|121:170|168:192,1,90
433,186,78507,2,0,B|391:214|344:192,1,90
215,261,78822,1,0,0:0:0
297,123,78980,1,0,0:0:0
297,261,79138,1,0,0:0:0
215,123,79296,1,0,0:0:0
347,193,79454,2,0,B|443:194,1,90
164,193,79770,2,0,B|69:194,1,90
256,192,80086,6,0,B|277:184|290:162|290:162|308:162|324:149|324:149|347:156|376:149,1,134.999995976687
270,194,80401,2,0,B|334:194|370:158,1,108.000002574921
102,230,80717,6,0,B|123:235|147:225|147:225|161:236|182:235|182:235|196:254|224:265,1,134.999995976687
113,240,81033,2,0,B|164:277|215:269,1,108.000002574921
321,249,81349,1,0,0:0:0
388,165,81507,2,0,B|441:182|441:182|497:171,2,108.000002574921
130,144,81980,2,0,B|253:170|322:78,1,216.000005149841
322,78,82454,1,0,0:0:0
427,99,82612,6,0,B|464:200,1,108.000002574921
331,335,82928,2,0,B|294:234,1,108.000002574921
360,167,83243,2,0,B|397:268,1,108.000002574921
152,217,83559,2,0,B|115:116,1,108.000002574921
181,29,83875,5,0,0:0:0
282,66,84033,1,0,0:0:0
232,162,84191,1,0,0:0:0
333,199,84349,1,0,0:0:0
136,221,84507,5,0,0:0:0
136,221,84586,1,0,0:0:0
136,221,84665,1,0,0:0:0
136,221,84743,1,0,0:0:0
172,235,84822,1,0,0:0:0
210,228,84901,1,0,0:0:0
247,238,84980,1,0,0:0:0
279,260,85059,1,0,0:0:0
303,290,85138,6,0,B|360:364|446:331,2,162.000003862381
403,225,85770,1,0,0:0:0
203,93,85928,1,0,0:0:0
203,93,86007,1,0,0:0:0
203,93,86086,1,0,0:0:0
303,159,86243,1,0,0:0:0
232,339,86401,6,0,B|141:314|81:378,2,162.000003862381
350,351,87033,2,0,B|398:315|396:255,1,108.000002574921
292,198,87349,1,0,0:0:0
324,83,87507,1,0,0:0:0
354,73,87586,1,0,0:0:0
385,63,87665,6,0,P|433:96|444:146,1,107.999996704102
441,179,87901,1,0,0:0:0
431,221,87980,2,0,B|329:256,1,108.000002574921
225,290,88296,1,0,0:0:0
100,224,88454,1,0,0:0:0
29,345,88612,1,0,0:0:0
225,290,88770,1,0,0:0:0
266,276,88849,1,0,0:0:0
307,263,88928,6,0,B|361:329|459:306,2,161.999995056153
321,134,89559,1,0,0:0:0
278,143,89638,1,0,0:0:0
234,139,89717,1,0,0:0:0
193,125,89796,1,0,0:0:0
162,94,89875,1,0,0:0:0
36,199,90033,1,0,0:0:0
36,199,90112,1,0,0:0:0
36,199,90191,6,0,B|53:212|79:211|79:211|88:227|108:233|108:233|114:257|136:277,1,134.999995976687
126,280,90428,1,0,0:0:0
117,283,90507,2,0,B|67:271|33:217,1,108.000002574921
362,85,90822,6,0,B|340:92|316:83|316:83|302:95|282:95|282:95|269:115|242:129,1,134.999995976687
251,134,91059,1,0,0:0:0
258,139,91138,2,0,B|308:143|357:102,1,108.000002574921
168,62,91454,6,0,B|117:132|21:114,2,162.000003862381
297,49,92086,1,0,0:0:0
321,91,92165,1,0,0:0:0
359,119,92243,1,0,0:0:0
483,149,92401,1,0,0:0:0
395,238,92559,1,0,0:0:0
395,238,92638,1,0,0:0:0
395,238,92717,5,0,0:0:0
288,256,92875,1,0,0:0:0
250,357,93033,1,0,0:0:0
324,153,93191,1,0,0:0:0
183,274,93349,1,0,0:0:0
357,342,93507,1,0,0:0:0
218,172,93665,1,0,0:0:0
218,172,93743,1,0,0:0:0
218,172,93822,1,0,0:0:0
218,172,93901,1,0,0:0:0
218,172,93980,6,0,B|226:280,1,107.999996704102
301,140,94296,2,0,B|308:236,1,94.499997116089
142,118,94612,2,0,B|148:202,1,80.9999975280763
371,43,94928,2,0,B|377:115,2,67.5000025749208
82,291,100296,6,0,P|184:281,1,90
