osu file format v9

[General]
AudioFilename: mohombi-in-your-head.mp3
AudioLeadIn: 0
PreviewTime: 40277
Countdown: 0
SampleSet: Normal
StackLeniency: 0.7
Mode: 0
LetterboxInBreaks: 0

[Editor]
DistanceSpacing: 1
BeatDivisor: 4
GridSize: 4

[Metadata]
Title:In Your Head
Artist:Mohombi
Creator:Aleks719
Version:Beamsy
Source:
Tags:IceBeam Reiji-RJ Sieg

[Difficulty]
HPDrainRate:3
CircleSize:4
OverallDifficulty:2
ApproachRate:3
SliderMultiplier:0.400000005960464
SliderTickRate:1

[Events]
//Background and Video events
0,0,"26.jpg"
//Break Periods
2,41290,47318
2,92409,98436
2,123080,131663
2,143527,149555
//Storyboard Layer 0 (Background)
//Storyboard Layer 1 (Fail)
//Storyboard Layer 2 (Pass)
//Storyboard Layer 3 (Foreground)
//Storyboard Sound Samples
//Background Colour Transformations
3,100,177,177,177

[TimingPoints]
10420,319.488817891374,4,1,1,50,1,0
19046,-100,4,2,1,50,0,0
19685,-100,4,1,1,50,0,0
25915,-100,4,2,1,50,0,0
26234,-100,4,1,1,50,0,0
26873,-100,4,2,1,50,0,0
27193,-100,4,1,1,50,0,0
28471,-100,4,2,1,50,0,0
28790,-100,4,1,1,50,0,0
29429,-100,4,2,1,50,0,0
29749,-100,4,1,1,50,0,0
36138,-100,4,2,1,50,0,0
36458,-100,4,1,1,50,0,0
37097,-100,4,2,1,50,0,0
37416,-100,4,1,1,50,0,0
38694,-100,4,2,1,50,0,0
39014,-100,4,1,1,50,0,0
39333,-100,4,2,1,50,0,0
39653,-100,4,1,1,50,0,0
49717,-100,4,1,1,60,0,0
51314,-100,4,1,1,50,0,1
57544,-100,4,2,1,50,0,1
57864,-100,4,1,1,50,0,1
61538,-100,4,1,1,60,0,0
70324,-100,4,2,1,60,0,0
70643,-100,4,1,1,60,0,0
99557,-100,4,1,1,50,0,0
100835,-100,4,1,1,60,0,0
102432,-100,4,1,1,55,0,1
108662,-100,4,2,1,55,0,1
108982,-100,4,1,1,55,0,1
112656,-100,4,1,1,50,0,0
112816,-100,4,2,1,50,0,0
113135,-100,4,1,1,50,0,0
113614,-100,4,2,1,50,0,0
114094,-100,4,1,1,50,0,0
115372,-100,4,2,1,50,0,0
115691,-100,4,1,1,50,0,0
116170,-100,4,2,1,50,0,0
116809,-100,4,1,1,50,0,0
117927,-100,4,2,1,50,0,0
118247,-100,4,1,1,50,0,0
118886,-100,4,2,1,50,0,0
119205,-100,4,1,1,50,0,0
120483,-100,4,2,1,50,0,0
120803,-100,4,1,1,50,0,0
121442,-100,4,2,1,50,0,0
121761,-100,4,1,1,50,0,0
133423,-100,4,2,1,50,0,0
135340,-100,4,1,1,50,0,0
135819,-100,4,2,1,50,0,0
137896,-100,4,1,1,50,0,0
138535,-100,4,2,1,50,0,0
140451,-100,4,1,1,50,0,0
141090,-100,4,1,1,40,0,0
141729,-100,4,1,1,30,0,0
142368,-100,4,1,1,20,0,0
143007,-100,4,1,1,20,0,0
143646,-100,4,1,1,50,0,0
151953,-100,4,1,1,60,0,0
153550,-100,4,1,1,55,0,1
159621,-100,4,2,1,55,0,1
160260,-100,4,1,1,55,0,1
163694,-100,4,1,1,50,0,0
163774,-100,4,1,1,55,0,1
163854,-100,4,1,1,50,0,0
170004,-100,4,2,1,50,0,0
170324,-100,4,1,1,50,0,0
173998,-100,4,1,1,55,0,1
174078,-100,4,1,1,50,0,0
180228,-100,4,2,1,50,0,0
180547,-100,4,1,1,50,0,0
184221,-100,4,1,1,40,0,0

[Colours]
Combo1 : 218,146,185
Combo2 : 0,128,128
Combo3 : 0,0,160
Combo4 : 255,0,0
Combo5 : 255,128,0

[HitObjects]
120,48,10420,1,4
100,124,11058,2,0,B|60:208|116:288,1,160.000002384186,8|8
172,316,12975,1,0
176,320,13614,2,0,B|348:320,1,160.000002384186,8|8
396,264,15531,5,0
336,212,16170,2,0,B|164:212,1,160.000002384186,8|8
128,148,18087,2,0,B|112:112|120:64,1,80.0000011920928,0|8
200,100,19365,2,0,B|216:136|208:184,1,80.0000011920928,2|8
144,228,20643,5,4
176,300,21282,2,0,B|236:288|256:300|276:312|348:292,1,160.000002384186,8|8
388,236,23199,1,0
392,240,23838,2,0,B|416:160|392:72,1,160.000002384186,8|8
316,72,25755,6,0,B|308:28,2,40.0000005960464,4|2|8
288,148,27033,2,0,B|244:144|204:144,1,80.0000011920928,2|8
152,204,28311,2,0,B|148:252,2,40.0000005960464,4|2|8
120,132,29589,2,0,B|116:92|112:44,1,80.0000011920928,2|8
28,52,30867,5,4
32,56,31506,2,0,B|40:140|48:216,1,160.000002384186,8|8
92,284,33423,1,0
168,264,34062,2,0,B|240:224|340:256,1,160.000002384186,8|8
404,264,35979,6,0,B|408:284|408:308,2,40.0000005960464,0|2|8
392,184,37257,2,0,B|384:148|388:96,1,80.0000011920928,2|8
308,96,38535,2,0,B|268:96|228:96,1,80.0000011920928,4|8
228,176,39812,2,0,B|264:176|308:176,1,80.0000011920928,4|8
308,256,41090,5,4
68,136,48758,6,0,B|56:100|64:56,1,80.0000011920928
140,96,50036,2,0,B|152:132|144:176,1,80.0000011920928
114,249,51314,5,4
179,294,51953,2,0,B|224:270|256:286|256:286|288:270|344:302,1,160.000002384186,8|8
408,320,53870,1,4
452,252,54509,2,0,B|484:180|444:84,1,160.000002384186,8|8
372,80,56426,6,0,B|324:72|280:68,1,80.0000011920928,4|8
224,112,57704,2,0,B|220:156|232:200,1,80.0000011920928,2|8
292,232,58982,1,4
296,236,59621,2,0,B|220:188|136:232,1,160.000002384186,8|8
72,264,61538,5,4
72,184,62177,2,0,B|28:112|68:20,1,160.000002384186,8|8
140,56,64094,1,0
144,60,64733,2,0,B|228:56|312:52,1,160.000002384186,8|8
380,32,66650,5,0
424,96,67289,2,0,B|464:176|420:264,1,160.000002384186,8|8
352,276,69205,2,0,B|308:272|264:284,1,80.0000011920928,0|8
196,252,70483,2,0,B|188:224|188:164,1,80.0000011920928,2|8
108,160,71761,5,4
112,164,72400,2,0,B|184:108|276:156,1,160.000002384186,8|8
332,188,74317,1,0
272,244,74956,2,0,B|200:300|108:252,1,160.000002384186,8|8
60,208,76873,5,0
64,212,77512,2,0,B|76:148|64:132|52:112|64:44,1,160.000002384186,8|8
136,24,79429,1,0
208,56,80068,2,0,B|218:114|206:134|194:150|206:214,1,160.000002384186,8|8
168,284,81985,5,4
228,336,82624,2,0,B|300:328|392:328,1,160.000002384186,8|8
396,248,84541,1,0
400,252,85180,2,0,B|420:172|392:84,1,160.000002384186,8|8
432,24,87097,5,0
436,28,87736,2,0,B|428:64|388:92|340:100|288:80,1,160.000002384186,8|8
224,84,89653,2,0,B|184:68|128:80,1,80.0000011920928,4|8
176,156,90931,2,0,B|216:172|272:160,1,80.0000011920928,4|8
304,100,92209,5,4
112,92,99876,6,0,B|152:88|204:88,1,80.0000011920928
196,168,101154,2,0,B|156:168|108:172,1,80.0000011920928
120,252,102432,5,4
124,256,103071,2,0,B|208:252|300:248,1,160.000002384186,8|8
360,276,104988,1,4
432,240,105627,2,0,B|464:164|424:72,1,160.000002384186,8|8
348,88,107544,6,0,B|312:80|264:84,1,80.0000011920928,4|8
220,148,108822,2,0,B|228:196|220:228,1,80.0000011920928,2|8
160,280,110100,1,4
164,284,110739,2,0,B|232:240|328:280,1,160.000002384186,8|8
392,244,112656,6,0,B|424:236|448:240,2,40.0000005960464,4|2|8
340,184,113934,2,0,B|336:148|340:100,1,80.0000011920928,0|8
264,76,115212,2,0,B|260:32,2,40.0000005960464,4|2|8
204,132,116490,2,0,B|164:124|112:140,1,80.0000011920928,2|8
76,200,117768,6,0,B|44:196|24:196,2,40.0000005960464,4|2|8
148,236,119046,2,0,B|148:280|144:324,1,80.0000011920928,2|8
224,316,120324,2,0,B|222:360,2,40.0000005960464,4|2|8
292,276,121602,2,0,B|328:276|384:268,1,80.0000011920928,2|8
452,260,122880,5,4
168,36,133103,5,0
176,116,133742,2,0,B|256:112|348:112,1,160.000002384186,2|2
408,152,135659,1,0
340,192,136298,2,0,B|260:192|172:196,1,160.000002384186,2|2
112,240,138215,5,0
184,276,138854,2,0,B|264:272|356:272,1,160.000002384186,2|2
408,228,140771,2,0,B|416:192|412:140,1,80.0000011920928
360,88,142049,2,0,B|316:92|280:96,1,80.0000011920928
200,108,143327,5,4
88,172,150995,6,0,B|84:132|80:88,1,80.0000011920928
160,80,152273,2,0,B|164:120|168:164,1,80.0000011920928,0|0
136,232,153550,5,4
180,300,154189,2,0,B|232:280|256:304|256:304|280:280|331:302,1,160.000002384186,8|8
404,332,156106,1,4
460,276,156745,2,0,B|480:200|456:116,1,160.000002384186,8|8
380,96,158662,6,0,B|340:76|284:96,1,80.0000011920928,4|8
336,164,159940,2,0,B|376:184|432:164,1,80.0000011920928,2|8
460,104,161218,1,4
464,108,161857,2,0,B|456:188|448:268,1,160.000002384186,8|8
412,340,163774,5,4
336,312,164413,2,0,B|276:300|256:312|236:324|164:304,1,160.000002384186,8|8
120,248,166330,1,4
176,192,166969,2,0,B|236:204|256:192|276:180|348:200,1,160.000002384186,8|8
388,136,168886,6,0,B|392:96|388:52,1,80.0000011920928,4|8
312,80,170164,2,0,B|276:80|232:84,1,80.0000011920928,2|8
152,92,171442,1,4
156,96,172081,2,0,B|156:176|168:260,1,160.000002384186,8|8
104,304,173998,5,4
108,308,174637,2,0,B|176:252|272:300,1,160.000002384186,8|8
336,320,176554,1,4
400,272,177193,2,0,B|436:196|392:112,1,160.000002384186,8|8
324,84,179110,6,0,B|260:80|228:80,1,80.0000011920928,4|8
240,160,180388,2,0,B|284:162|332:164,1,80.0000011920928,2|8
400,168,181666,5,4
256,192,181745,12,4,184221
