osu file format v14

[General]
AudioFilename: U.N Owen is Dead.mp3
AudioLeadIn: 0
PreviewTime: 21211
Countdown: 0
SampleSet: Normal
StackLeniency: 0.7
Mode: 1
LetterboxInBreaks: 0
SkinPreference:taiko
WidescreenStoryboard: 0

[Editor]
Bookmarks: 35,22623,33917,56505,79093,101682,124270,146858,158152,180740,203329,214623,225917,248505,271093,288034,307799,330387,351574,354394,361452,384041,406629,419335
DistanceSpacing: 1
BeatDivisor: 4
GridSize: 32
TimelineZoom: 2.699999

[Metadata]
Title:U.N.Owen is dead
TitleUnicode:U.N.オーエン・イズ・デッド
Artist:Mohican Sandbag
ArtistUnicode:モヒカンサンドバッグ
Creator:OnosakiHito
Version:Oni
Source:東方Project
Tags:touhou ZUN flandre scarlet u.n. owen was her? hardstyle
BeatmapID:428071
BeatmapSetID:177908

[Difficulty]
HPDrainRate:5
CircleSize:5
OverallDifficulty:6
ApproachRate:5
SliderMultiplier:1.4
SliderTickRate:1

[Events]
//Background and Video events
0,0,"Taiko_BG.jpg",0,0
//Break Periods
2,354594,357164
//Storyboard Layer 0 (Background)
//Storyboard Layer 1 (Fail)
//Storyboard Layer 2 (Pass)
//Storyboard Layer 3 (Foreground)
//Storyboard Sound Samples

[TimingPoints]
35,352.941176470588,4,1,1,80,1,0
57211,-200,4,1,1,80,0,0
67799,-133.333333333333,4,1,1,80,0,0
79093,-100,4,1,1,80,0,1
101682,-100,4,1,1,80,0,0
181093,-133.333333333333,4,1,1,80,0,0
203329,-100,4,1,1,80,0,0
214623,-90.9090909090909,4,1,1,80,0,0
225564,-83.3333333333333,4,1,1,80,0,0
225917,-83.3333333333333,4,1,1,80,0,1
246917,-83.3333333333333,4,1,1,80,0,0
247093,-100,4,1,1,80,0,0
271799,-200,4,1,1,80,0,0
291387,-166.666666666667,4,1,1,80,0,0
292093,-142.857142857143,4,1,1,80,0,0
292799,-125,4,1,1,80,0,0
293329,-111.111111111111,4,1,1,80,0,0
293682,-100,4,1,1,80,0,0
304976,-66.6666666666667,4,1,1,80,0,0
307799,-100,4,1,1,80,0,1
351564,285.714285714286,4,1,1,80,1,0
351564,-125,4,1,1,80,0,0
351659,342.857142857143,4,1,1,80,1,8
351659,-103.092783505155,4,1,1,80,0,0
351773,454.545454545455,4,1,1,80,1,8
351773,-78.125,4,1,1,80,0,0
351924,550.45871559633,4,1,1,80,1,8
351924,-64.5161290322581,4,1,1,80,0,0
352107,681.818181818182,4,1,1,80,1,8
352107,-51.8134715025907,4,1,1,80,0,0
352330,833.333333333333,4,1,1,80,1,8
352330,-42.3728813559322,4,1,1,80,0,0
352607,1090.90909090909,4,1,1,80,1,8
352607,-32.3624595469256,4,1,1,80,0,0
352974,352.941176470588,4,1,1,80,1,0
352974,-100,4,1,1,80,0,0
354385,352.941176470588,4,1,1,80,1,8
354394,352.941176470588,4,1,1,80,1,0
354394,-50,4,1,1,80,0,0
359688,-100,4,1,1,80,0,0
419335,-50,4,1,1,80,0,0

[HitObjects]
256,192,35,5,0,0:0:0:0:
256,192,387,1,0,0:0:0:0:
256,192,740,1,0,0:0:0:0:
256,192,1093,5,8,0:0:0:0:
256,192,1446,5,0,0:0:0:0:
256,192,1799,1,0,0:0:0:0:
256,192,2152,1,0,0:0:0:0:
256,192,2505,5,8,0:0:0:0:
256,192,2593,1,8,0:0:0:0:
256,192,2682,1,8,0:0:0:0:
256,192,2770,1,8,0:0:0:0:
256,192,2858,5,0,0:0:0:0:
256,192,3211,1,0,0:0:0:0:
256,192,3564,1,0,0:0:0:0:
256,192,3917,5,8,0:0:0:0:
256,192,4270,5,0,0:0:0:0:
256,192,4623,5,8,0:0:0:0:
256,192,4799,5,0,0:0:0:0:
256,192,4976,1,0,0:0:0:0:
256,192,5152,5,8,0:0:0:0:
256,192,5329,1,8,0:0:0:0:
256,192,5682,5,0,0:0:0:0:
256,192,6034,1,0,0:0:0:0:
256,192,6387,1,0,0:0:0:0:
256,192,6740,5,8,0:0:0:0:
256,192,7093,5,0,0:0:0:0:
256,192,7446,1,0,0:0:0:0:
256,192,7799,5,8,0:0:0:0:
256,192,7976,5,0,0:0:0:0:
256,192,8152,5,8,0:0:0:0:
256,192,8240,1,8,0:0:0:0:
256,192,8329,1,8,0:0:0:0:
256,192,8417,1,8,0:0:0:0:
256,192,8505,5,0,0:0:0:0:
256,192,8858,1,0,0:0:0:0:
256,192,9211,1,0,0:0:0:0:
256,192,9564,5,8,0:0:0:0:
256,192,9917,5,0,0:0:0:0:
256,192,10093,1,0,0:0:0:0:
256,192,10270,5,8,0:0:0:0:
256,192,10446,5,0,0:0:0:0:
256,192,10623,1,0,0:0:0:0:
256,192,10799,5,8,0:0:0:0:
256,192,10976,1,8,0:0:0:0:
256,192,11329,5,0,0:0:0:0:
256,192,11505,5,8,0:0:0:0:
256,192,11682,5,0,0:0:0:0:
256,192,11858,5,8,0:0:0:0:
256,192,12034,5,0,0:0:0:0:
256,192,12387,5,8,0:0:0:0:
256,192,12740,5,0,0:0:0:0:
256,192,12917,5,8,0:0:0:0:
256,192,13093,5,0,0:0:0:0:
256,192,13270,5,8,0:0:0:0:
256,192,13446,5,0,0:0:0:0:
256,192,13799,5,8,0:0:0:0:
256,192,13887,1,8,0:0:0:0:
256,192,13976,1,8,0:0:0:0:
256,192,14064,1,8,0:0:0:0:
256,192,14152,5,0,0:0:0:0:
256,192,14329,5,8,0:0:0:0:
256,192,14505,5,0,0:0:0:0:
256,192,14682,5,8,0:0:0:0:
256,192,14858,5,0,0:0:0:0:
256,192,15211,5,8,0:0:0:0:
256,192,15564,5,0,0:0:0:0:
256,192,15740,1,0,0:0:0:0:
256,192,15917,5,8,0:0:0:0:
256,192,16093,5,0,0:0:0:0:
256,192,16270,1,0,0:0:0:0:
256,192,16446,5,8,0:0:0:0:
256,192,16623,1,8,0:0:0:0:
256,192,16976,5,0,0:0:0:0:
256,192,17152,5,8,0:0:0:0:
256,192,17329,5,0,0:0:0:0:
256,192,17505,5,8,0:0:0:0:
256,192,17682,5,0,0:0:0:0:
256,192,18034,5,8,0:0:0:0:
256,192,18387,5,0,0:0:0:0:
256,192,18564,5,8,0:0:0:0:
256,192,18740,5,0,0:0:0:0:
256,192,18917,5,8,0:0:0:0:
256,192,19093,1,8,0:0:0:0:
256,192,19270,5,0,0:0:0:0:
256,192,19446,5,8,0:0:0:0:
256,192,19534,1,8,0:0:0:0:
256,192,19623,1,8,0:0:0:0:
256,192,19711,1,8,0:0:0:0:
256,192,19799,5,0,0:0:0:0:
256,192,19976,5,8,0:0:0:0:
256,192,20152,5,0,0:0:0:0:
256,192,20329,5,8,0:0:0:0:
256,192,20505,5,0,0:0:0:0:
256,192,20682,5,8,0:0:0:0:
256,192,21211,5,4,0:0:0:0:
256,192,21387,5,12,0:0:0:0:
256,192,21564,5,4,0:0:0:0:
256,192,21740,5,12,0:0:0:0:
256,192,22093,5,4,0:0:0:0:
256,192,22446,5,12,0:0:0:0:
256,192,22623,5,4,0:0:0:0:
256,192,22799,5,8,0:0:0:0:
256,192,22976,5,0,0:0:0:0:
256,192,23152,5,8,0:0:0:0:
256,192,23329,5,0,0:0:0:0:
256,192,23505,5,8,0:0:0:0:
256,192,23682,1,8,0:0:0:0:
256,192,24034,5,0,0:0:0:0:
256,192,24211,5,8,0:0:0:0:
256,192,24387,5,0,0:0:0:0:
256,192,24564,5,8,0:0:0:0:
256,192,24740,5,0,0:0:0:0:
256,192,24917,5,8,0:0:0:0:
256,192,25093,1,8,0:0:0:0:
256,192,25182,1,8,0:0:0:0:
256,192,25270,1,8,0:0:0:0:
256,192,25358,1,8,0:0:0:0:
256,192,25446,5,0,0:0:0:0:
256,192,25623,5,8,0:0:0:0:
256,192,25799,5,0,0:0:0:0:
256,192,25976,5,8,0:0:0:0:
256,192,26152,5,0,0:0:0:0:
256,192,26329,5,8,0:0:0:0:
256,192,26505,1,8,0:0:0:0:
256,192,26858,5,0,0:0:0:0:
256,192,27034,5,8,0:0:0:0:
256,192,27211,1,8,0:0:0:0:
256,192,27387,5,0,0:0:0:0:
256,192,27564,1,0,0:0:0:0:
256,192,27740,5,8,0:0:0:0:
256,192,27917,1,8,0:0:0:0:
256,192,28270,5,0,0:0:0:0:
256,192,28446,5,8,0:0:0:0:
256,192,28623,5,0,0:0:0:0:
256,192,28799,5,8,0:0:0:0:
256,192,28976,5,0,0:0:0:0:
256,192,29152,5,8,0:0:0:0:
256,192,29329,1,8,0:0:0:0:
256,192,29682,5,0,0:0:0:0:
256,192,29858,5,8,0:0:0:0:
256,192,30034,5,0,0:0:0:0:
256,192,30211,5,8,0:0:0:0:
256,192,30387,1,8,0:0:0:0:
256,192,30564,5,0,0:0:0:0:
256,192,30740,5,8,0:0:0:0:
256,192,30829,1,8,0:0:0:0:
256,192,30917,1,8,0:0:0:0:
256,192,31005,1,8,0:0:0:0:
256,192,31093,5,0,0:0:0:0:
256,192,31270,5,8,0:0:0:0:
256,192,31446,5,0,0:0:0:0:
256,192,31623,5,8,0:0:0:0:
256,192,31799,5,0,0:0:0:0:
256,192,31976,5,8,0:0:0:0:
256,192,32152,1,8,0:0:0:0:
256,192,32505,5,0,0:0:0:0:
256,192,32682,1,0,0:0:0:0:
256,192,32858,5,8,0:0:0:0:
256,192,33034,5,0,0:0:0:0:
256,192,33211,1,0,0:0:0:0:
256,192,33387,5,8,0:0:0:0:
256,192,33564,1,8,0:0:0:0:
256,192,33917,5,0,0:0:0:0:
256,192,34182,5,8,0:0:0:0:
256,192,34270,5,0,0:0:0:0:
256,192,34446,5,8,0:0:0:0:
256,192,34623,5,0,0:0:0:0:
256,192,34887,5,8,0:0:0:0:
256,192,34976,5,0,0:0:0:0:
256,192,35152,5,8,0:0:0:0:
256,192,35329,5,0,0:0:0:0:
256,192,35593,5,8,0:0:0:0:
256,192,35682,5,0,0:0:0:0:
256,192,35858,5,8,0:0:0:0:
256,192,36034,5,0,0:0:0:0:
256,192,36211,5,8,0:0:0:0:
256,192,36299,1,8,0:0:0:0:
256,192,36387,5,0,0:0:0:0:
256,192,36564,1,0,0:0:0:0:
256,192,36740,1,0,0:0:0:0:
256,192,37005,5,8,0:0:0:0:
256,192,37093,5,0,0:0:0:0:
256,192,37270,5,8,0:0:0:0:
256,192,37446,5,0,0:0:0:0:
256,192,37711,5,8,0:0:0:0:
256,192,37799,5,0,0:0:0:0:
256,192,37976,5,8,0:0:0:0:
256,192,38152,5,0,0:0:0:0:
256,192,38417,5,8,0:0:0:0:
256,192,38505,5,0,0:0:0:0:
256,192,38682,5,8,0:0:0:0:
256,192,38858,5,0,0:0:0:0:
256,192,39034,1,0,0:0:0:0:
256,192,39211,1,0,0:0:0:0:
256,192,39387,1,0,0:0:0:0:
256,192,39564,1,0,0:0:0:0:
256,192,39829,5,8,0:0:0:0:
256,192,39917,5,0,0:0:0:0:
256,192,40093,5,8,0:0:0:0:
256,192,40270,5,0,0:0:0:0:
256,192,40534,5,8,0:0:0:0:
256,192,40623,5,0,0:0:0:0:
256,192,40799,5,8,0:0:0:0:
256,192,40976,5,0,0:0:0:0:
256,192,41240,5,8,0:0:0:0:
256,192,41329,5,0,0:0:0:0:
256,192,41505,5,8,0:0:0:0:
256,192,41682,5,0,0:0:0:0:
256,192,42034,5,0,0:0:0:0:
256,192,42123,1,0,0:0:0:0:
256,192,42211,1,0,0:0:0:0:
256,192,42299,1,0,0:0:0:0:
256,192,42387,1,0,0:0:0:0:
256,192,42564,1,0,0:0:0:0:
256,192,42740,1,0,0:0:0:0:
256,192,42917,1,0,0:0:0:0:
256,192,43093,5,8,0:0:0:0:
256,192,43270,1,8,0:0:0:0:
256,192,43446,1,8,0:0:0:0:
256,192,43623,1,8,0:0:0:0:
256,192,43799,1,0,0:0:0:0:
256,192,43887,1,0,0:0:0:0:
256,192,43976,1,0,0:0:0:0:
256,192,44064,1,0,0:0:0:0:
256,192,44152,5,8,0:0:0:0:
256,192,44240,1,8,0:0:0:0:
256,192,44329,1,8,0:0:0:0:
256,192,44505,6,0,L|44:192,1,210
256,192,45211,1,0,0:0:0:0:
256,192,45387,5,8,0:0:0:0:
256,192,45476,1,8,0:0:0:0:
256,192,45564,5,0,0:0:0:0:
256,192,45740,5,8,0:0:0:0:
256,192,45917,5,0,0:0:0:0:
256,192,46093,5,8,0:0:0:0:
256,192,46182,1,8,0:0:0:0:
256,192,46270,5,0,0:0:0:0:
256,192,46446,5,8,0:0:0:0:
256,192,46623,5,0,0:0:0:0:
256,192,46799,5,8,0:0:0:0:
256,192,46887,1,8,0:0:0:0:
256,192,46976,5,0,0:0:0:0:
256,192,47152,5,8,0:0:0:0:
256,192,47329,5,0,0:0:0:0:
256,192,47505,5,8,0:0:0:0:
256,192,47593,1,8,0:0:0:0:
256,192,47682,5,0,0:0:0:0:
256,192,47770,1,0,0:0:0:0:
256,192,47858,5,8,0:0:0:0:
256,192,47946,1,8,0:0:0:0:
256,192,48034,5,0,0:0:0:0:
256,192,48211,5,8,0:0:0:0:
256,192,48387,5,0,0:0:0:0:
256,192,48564,5,8,0:0:0:0:
256,192,48652,1,8,0:0:0:0:
256,192,48740,5,0,0:0:0:0:
256,192,48917,5,8,0:0:0:0:
256,192,49093,5,0,0:0:0:0:
256,192,49270,5,8,0:0:0:0:
256,192,49358,1,8,0:0:0:0:
256,192,49446,5,0,0:0:0:0:
256,192,49623,5,8,0:0:0:0:
256,192,49799,5,0,0:0:0:0:
256,192,49976,5,8,0:0:0:0:
256,192,50152,5,0,0:0:0:0:
256,192,50329,5,8,0:0:0:0:
256,192,50505,5,0,0:0:0:0:
256,192,50593,1,0,0:0:0:0:
256,192,50682,5,8,0:0:0:0:
256,192,50770,1,8,0:0:0:0:
256,192,50858,5,0,0:0:0:0:
256,192,51034,5,8,0:0:0:0:
256,192,51211,5,0,0:0:0:0:
256,192,51387,5,8,0:0:0:0:
256,192,51476,1,8,0:0:0:0:
256,192,51564,5,0,0:0:0:0:
256,192,51740,5,8,0:0:0:0:
256,192,51917,5,0,0:0:0:0:
256,192,52093,5,8,0:0:0:0:
256,192,52182,1,8,0:0:0:0:
256,192,52270,5,0,0:0:0:0:
256,192,52446,5,8,0:0:0:0:
256,192,52623,5,0,0:0:0:0:
256,192,52799,5,8,0:0:0:0:
256,192,52976,5,0,0:0:0:0:
256,192,53152,5,8,0:0:0:0:
256,192,53329,5,0,0:0:0:0:
256,192,53505,5,8,0:0:0:0:
256,192,53682,5,0,0:0:0:0:
256,192,53770,1,0,0:0:0:0:
256,192,53858,5,8,0:0:0:0:
256,192,53946,1,8,0:0:0:0:
256,192,54034,5,0,0:0:0:0:
256,192,54123,1,0,0:0:0:0:
256,192,54211,5,8,0:0:0:0:
256,192,54299,1,8,0:0:0:0:
256,192,54387,5,0,0:0:0:0:
256,192,54476,5,8,0:0:0:0:
256,192,54564,5,0,0:0:0:0:
256,192,54652,5,8,0:0:0:0:
256,192,54740,5,0,0:0:0:0:
256,192,54829,5,8,0:0:0:0:
256,192,54917,5,0,0:0:0:0:
256,192,55005,5,8,0:0:0:0:
256,192,55093,5,0,0:0:0:0:
256,192,55270,5,8,0:0:0:0:
256,192,55446,5,0,0:0:0:0:
256,192,55623,5,8,0:0:0:0:
256,192,55976,5,0,0:0:0:0:
256,192,56329,5,8,0:0:0:0:
256,192,57917,1,0,0:0:0:0:
256,192,58270,1,0,0:0:0:0:
256,192,58446,1,0,0:0:0:0:
256,192,58623,1,0,0:0:0:0:
256,192,58976,5,8,0:0:0:0:
256,192,59329,5,4,0:0:0:0:
256,192,60740,5,0,0:0:0:0:
256,192,60917,1,0,0:0:0:0:
256,192,61093,1,0,0:0:0:0:
256,192,61270,1,0,0:0:0:0:
256,192,61446,1,0,0:0:0:0:
256,192,61799,5,8,0:0:0:0:
256,192,62152,5,4,0:0:0:0:
256,192,63564,1,0,0:0:0:0:
256,192,63917,1,0,0:0:0:0:
256,192,64093,1,0,0:0:0:0:
256,192,64270,1,0,0:0:0:0:
256,192,64623,5,8,0:0:0:0:
256,192,64976,5,4,0:0:0:0:
256,192,66387,1,0,0:0:0:0:
256,192,66564,5,8,0:0:0:0:
256,192,67093,1,0,0:0:0:0:
256,192,67446,5,8,0:0:0:0:
256,192,67799,1,4,0:0:0:0:
256,192,68152,5,8,0:0:0:0:
256,192,68858,1,8,0:0:0:0:
256,192,69211,5,0,0:0:0:0:
256,192,69564,1,0,0:0:0:0:
256,192,69740,1,0,0:0:0:0:
256,192,69917,1,0,0:0:0:0:
256,192,70270,5,8,0:0:0:0:
256,192,70623,5,4,0:0:0:0:
256,192,70976,5,8,0:0:0:0:
256,192,71682,1,8,0:0:0:0:
256,192,72034,5,0,0:0:0:0:
256,192,72211,1,0,0:0:0:0:
256,192,72387,1,0,0:0:0:0:
256,192,72564,1,0,0:0:0:0:
256,192,72740,1,0,0:0:0:0:
256,192,73093,5,8,0:0:0:0:
256,192,73446,5,4,0:0:0:0:
256,192,73799,5,8,0:0:0:0:
256,192,74505,1,8,0:0:0:0:
256,192,74858,5,4,0:0:0:0:
256,192,75211,5,8,0:0:0:0:
256,192,75917,1,8,0:0:0:0:
256,192,76270,5,4,0:0:0:0:
256,192,76623,5,8,0:0:0:0:
256,192,76976,5,4,0:0:0:0:
256,192,77329,5,8,0:0:0:0:
256,192,77682,5,0,0:0:0:0:
256,192,77770,1,0,0:0:0:0:
256,192,77858,1,0,0:0:0:0:
256,192,77946,1,0,0:0:0:0:
256,192,78034,1,0,0:0:0:0:
256,192,78123,1,0,0:0:0:0:
256,192,78211,1,0,0:0:0:0:
256,192,78299,1,0,0:0:0:0:
256,192,78387,1,0,0:0:0:0:
256,192,78476,1,0,0:0:0:0:
256,192,78564,1,0,0:0:0:0:
256,192,78652,1,0,0:0:0:0:
256,192,78740,5,8,0:0:0:0:
256,192,79093,5,0,0:0:0:0:
256,192,79270,1,0,0:0:0:0:
256,192,79446,5,8,0:0:0:0:
256,192,79623,5,0,0:0:0:0:
256,192,79799,5,8,0:0:0:0:
256,192,79976,1,8,0:0:0:0:
256,192,80152,5,0,0:0:0:0:
256,192,80329,5,8,0:0:0:0:
256,192,80505,5,0,0:0:0:0:
256,192,80682,1,0,0:0:0:0:
256,192,80858,5,8,0:0:0:0:
256,192,81034,1,8,0:0:0:0:
256,192,81211,5,0,0:0:0:0:
256,192,81299,1,0,0:0:0:0:
256,192,81387,1,0,0:0:0:0:
256,192,81476,1,0,0:0:0:0:
256,192,81564,5,8,0:0:0:0:
256,192,81917,5,0,0:0:0:0:
256,192,82093,1,0,0:0:0:0:
256,192,82270,5,8,0:0:0:0:
256,192,82446,1,8,0:0:0:0:
256,192,82623,5,0,0:0:0:0:
256,192,82799,5,8,0:0:0:0:
256,192,82887,1,8,0:0:0:0:
256,192,82976,5,0,0:0:0:0:
256,192,83152,5,8,0:0:0:0:
256,192,83329,5,0,0:0:0:0:
256,192,83505,5,8,0:0:0:0:
256,192,83682,5,0,0:0:0:0:
256,192,83858,5,8,0:0:0:0:
256,192,84034,5,0,0:0:0:0:
256,192,84123,1,0,0:0:0:0:
256,192,84211,1,0,0:0:0:0:
256,192,84299,1,0,0:0:0:0:
256,192,84387,5,8,0:0:0:0:
256,192,84476,1,8,0:0:0:0:
256,192,84564,1,8,0:0:0:0:
256,192,84652,1,8,0:0:0:0:
256,192,84740,5,0,0:0:0:0:
256,192,84917,1,0,0:0:0:0:
256,192,85093,5,8,0:0:0:0:
256,192,85270,5,0,0:0:0:0:
256,192,85446,5,8,0:0:0:0:
256,192,85623,1,8,0:0:0:0:
256,192,85799,5,0,0:0:0:0:
256,192,85976,5,8,0:0:0:0:
256,192,86152,5,0,0:0:0:0:
256,192,86329,1,0,0:0:0:0:
256,192,86505,5,8,0:0:0:0:
256,192,86682,1,8,0:0:0:0:
256,192,86858,5,0,0:0:0:0:
256,192,86946,1,0,0:0:0:0:
256,192,87034,1,0,0:0:0:0:
256,192,87123,1,0,0:0:0:0:
256,192,87211,5,8,0:0:0:0:
256,192,87564,5,0,0:0:0:0:
256,192,87740,1,0,0:0:0:0:
256,192,87917,5,8,0:0:0:0:
256,192,88093,1,8,0:0:0:0:
256,192,88270,5,0,0:0:0:0:
256,192,88446,5,8,0:0:0:0:
256,192,88534,1,8,0:0:0:0:
256,192,88623,5,0,0:0:0:0:
256,192,88799,5,8,0:0:0:0:
256,192,88976,6,0,L|116:192,3,140
256,192,90387,5,0,0:0:0:0:
256,192,90564,5,8,0:0:0:0:
256,192,90652,1,8,0:0:0:0:
256,192,90740,5,0,0:0:0:0:
256,192,90917,5,8,0:0:0:0:
256,192,91093,5,0,0:0:0:0:
256,192,91182,1,0,0:0:0:0:
256,192,91270,5,8,0:0:0:0:
256,192,91358,1,8,0:0:0:0:
256,192,91446,5,0,0:0:0:0:
256,192,91623,5,8,0:0:0:0:
256,192,91799,5,0,0:0:0:0:
256,192,92064,5,8,0:0:0:0:
256,192,92152,5,0,0:0:0:0:
256,192,92329,5,8,0:0:0:0:
256,192,92505,5,0,0:0:0:0:
256,192,92593,1,0,0:0:0:0:
256,192,92682,1,0,0:0:0:0:
256,192,92770,1,0,0:0:0:0:
256,192,92858,5,8,0:0:0:0:
256,192,93211,5,0,0:0:0:0:
256,192,93387,1,0,0:0:0:0:
256,192,93564,5,8,0:0:0:0:
256,192,93740,1,8,0:0:0:0:
256,192,93917,5,0,0:0:0:0:
256,192,94093,5,8,0:0:0:0:
256,192,94182,1,8,0:0:0:0:
256,192,94270,5,0,0:0:0:0:
256,192,94446,5,8,0:0:0:0:
256,192,94623,5,0,0:0:0:0:
256,192,94799,5,8,0:0:0:0:
256,192,94887,1,8,0:0:0:0:
256,192,94976,5,0,0:0:0:0:
256,192,95152,5,8,0:0:0:0:
256,192,95329,5,0,0:0:0:0:
256,192,95417,1,0,0:0:0:0:
256,192,95505,1,0,0:0:0:0:
256,192,95593,1,0,0:0:0:0:
256,192,95682,5,8,0:0:0:0:
256,192,95770,1,8,0:0:0:0:
256,192,95858,1,8,0:0:0:0:
256,192,95946,1,8,0:0:0:0:
256,192,96034,5,0,0:0:0:0:
256,192,96211,5,8,0:0:0:0:
256,192,96299,1,8,0:0:0:0:
256,192,96387,5,0,0:0:0:0:
256,192,96564,5,8,0:0:0:0:
256,192,96740,5,0,0:0:0:0:
256,192,96829,1,0,0:0:0:0:
256,192,96917,1,0,0:0:0:0:
256,192,97005,1,0,0:0:0:0:
256,192,97093,5,8,0:0:0:0:
256,192,97270,1,8,0:0:0:0:
256,192,97446,5,0,0:0:0:0:
256,192,97711,5,8,0:0:0:0:
256,192,97799,5,0,0:0:0:0:
256,192,97976,5,8,0:0:0:0:
256,192,98152,5,0,0:0:0:0:
256,192,98329,5,8,0:0:0:0:
256,192,98417,1,8,0:0:0:0:
256,192,98505,5,0,0:0:0:0:
256,192,98682,5,8,0:0:0:0:
256,192,98858,5,4,0:0:0:0:
256,192,99211,5,8,0:0:0:0:
256,192,99387,1,8,0:0:0:0:
256,192,99564,5,4,0:0:0:0:
256,192,99917,5,8,0:0:0:0:
256,192,100093,1,8,0:0:0:0:
256,192,100270,5,4,0:0:0:0:
256,192,100623,1,4,0:0:0:0:
256,192,100976,5,12,0:0:0:0:
256,192,101152,1,12,0:0:0:0:
256,192,101329,1,12,0:0:0:0:
256,192,101505,1,12,0:0:0:0:
256,192,101682,5,4,0:0:0:0:
256,192,101858,1,8,0:0:0:0:
256,192,102034,5,0,0:0:0:0:
256,192,102211,5,8,0:0:0:0:
256,192,102387,5,0,0:0:0:0:
256,192,102564,5,8,0:0:0:0:
256,192,102740,5,0,0:0:0:0:
256,192,102829,1,0,0:0:0:0:
256,192,102917,5,8,0:0:0:0:
256,192,103093,5,0,0:0:0:0:
256,192,103270,1,8,0:0:0:0:
256,192,103446,5,0,0:0:0:0:
256,192,103623,5,8,0:0:0:0:
256,192,103799,5,0,0:0:0:0:
256,192,103976,5,8,0:0:0:0:
256,192,104152,5,0,0:0:0:0:
256,192,104240,1,0,0:0:0:0:
256,192,104329,5,8,0:0:0:0:
256,192,104417,1,8,0:0:0:0:
256,192,104505,5,0,0:0:0:0:
256,192,104682,1,8,0:0:0:0:
256,192,104858,5,0,0:0:0:0:
256,192,105034,5,8,0:0:0:0:
256,192,105211,5,0,0:0:0:0:
256,192,105387,5,8,0:0:0:0:
256,192,105564,5,0,0:0:0:0:
256,192,105652,1,0,0:0:0:0:
256,192,105740,5,8,0:0:0:0:
256,192,105917,5,0,0:0:0:0:
256,192,106093,1,8,0:0:0:0:
256,192,106270,5,0,0:0:0:0:
256,192,106446,5,8,0:0:0:0:
256,192,106623,5,0,0:0:0:0:
256,192,106799,5,8,0:0:0:0:
256,192,106887,1,8,0:0:0:0:
256,192,106976,5,0,0:0:0:0:
256,192,107064,1,0,0:0:0:0:
256,192,107152,5,8,0:0:0:0:
256,192,107240,1,8,0:0:0:0:
256,192,107329,5,0,0:0:0:0:
256,192,107505,1,8,0:0:0:0:
256,192,107682,5,0,0:0:0:0:
256,192,107858,5,8,0:0:0:0:
256,192,108034,5,0,0:0:0:0:
256,192,108211,5,8,0:0:0:0:
256,192,108387,5,0,0:0:0:0:
256,192,108476,1,0,0:0:0:0:
256,192,108564,5,8,0:0:0:0:
256,192,108740,5,0,0:0:0:0:
256,192,108917,1,8,0:0:0:0:
256,192,109093,5,0,0:0:0:0:
256,192,109270,5,8,0:0:0:0:
256,192,109446,5,0,0:0:0:0:
256,192,109623,5,8,0:0:0:0:
256,192,109799,5,0,0:0:0:0:
256,192,109887,1,0,0:0:0:0:
256,192,109976,5,8,0:0:0:0:
256,192,110064,1,8,0:0:0:0:
256,192,110152,5,0,0:0:0:0:
256,192,110329,1,8,0:0:0:0:
256,192,110505,5,0,0:0:0:0:
256,192,110682,5,8,0:0:0:0:
256,192,110858,5,0,0:0:0:0:
256,192,111034,5,8,0:0:0:0:
256,192,111211,5,0,0:0:0:0:
256,192,111299,1,0,0:0:0:0:
256,192,111387,5,8,0:0:0:0:
256,192,111564,5,0,0:0:0:0:
256,192,111740,1,8,0:0:0:0:
256,192,111917,5,0,0:0:0:0:
256,192,112093,5,8,0:0:0:0:
256,192,112270,5,0,0:0:0:0:
256,192,112446,5,8,0:0:0:0:
256,192,112534,1,8,0:0:0:0:
256,192,112623,5,0,0:0:0:0:
256,192,112711,1,0,0:0:0:0:
256,192,112799,5,8,0:0:0:0:
256,192,112887,1,8,0:0:0:0:
256,192,112976,1,0,0:0:0:0:
256,192,113152,1,0,0:0:0:0:
256,192,113240,1,0,0:0:0:0:
256,192,113329,1,0,0:0:0:0:
256,192,113505,1,0,0:0:0:0:
256,192,113593,1,0,0:0:0:0:
256,192,113682,1,0,0:0:0:0:
256,192,113858,1,0,0:0:0:0:
256,192,113946,1,0,0:0:0:0:
256,192,114034,5,8,0:0:0:0:
256,192,114211,5,0,0:0:0:0:
256,192,114387,1,0,0:0:0:0:
256,192,114564,1,0,0:0:0:0:
256,192,114652,1,0,0:0:0:0:
256,192,114740,1,0,0:0:0:0:
256,192,114917,1,0,0:0:0:0:
256,192,115005,1,0,0:0:0:0:
256,192,115093,1,0,0:0:0:0:
256,192,115270,1,0,0:0:0:0:
256,192,115358,1,0,0:0:0:0:
256,192,115446,5,8,0:0:0:0:
256,192,115534,1,8,0:0:0:0:
256,192,115623,1,8,0:0:0:0:
256,192,115711,1,8,0:0:0:0:
256,192,115799,5,0,0:0:0:0:
256,192,115976,1,0,0:0:0:0:
256,192,116064,1,0,0:0:0:0:
256,192,116152,1,0,0:0:0:0:
256,192,116329,1,0,0:0:0:0:
256,192,116417,1,0,0:0:0:0:
256,192,116505,1,0,0:0:0:0:
256,192,116682,1,0,0:0:0:0:
256,192,116770,1,0,0:0:0:0:
256,192,116858,5,8,0:0:0:0:
256,192,117034,5,0,0:0:0:0:
256,192,117211,1,0,0:0:0:0:
256,192,117387,1,0,0:0:0:0:
256,192,117476,1,0,0:0:0:0:
256,192,117564,1,0,0:0:0:0:
256,192,117740,1,0,0:0:0:0:
256,192,117829,1,0,0:0:0:0:
256,192,117917,1,0,0:0:0:0:
256,192,118093,1,0,0:0:0:0:
256,192,118182,1,0,0:0:0:0:
256,192,118270,5,8,0:0:0:0:
256,192,118358,1,8,0:0:0:0:
256,192,118446,1,8,0:0:0:0:
256,192,118534,1,8,0:0:0:0:
256,192,118623,5,0,0:0:0:0:
256,192,118799,1,0,0:0:0:0:
256,192,118887,1,0,0:0:0:0:
256,192,118976,1,0,0:0:0:0:
256,192,119152,1,0,0:0:0:0:
256,192,119240,1,0,0:0:0:0:
256,192,119329,1,0,0:0:0:0:
256,192,119417,1,0,0:0:0:0:
256,192,119505,1,0,0:0:0:0:
256,192,119593,1,0,0:0:0:0:
256,192,119682,5,8,0:0:0:0:
256,192,119858,5,0,0:0:0:0:
256,192,120034,1,0,0:0:0:0:
256,192,120211,1,0,0:0:0:0:
256,192,120299,1,0,0:0:0:0:
256,192,120387,1,0,0:0:0:0:
256,192,120564,1,0,0:0:0:0:
256,192,120652,1,0,0:0:0:0:
256,192,120740,1,0,0:0:0:0:
256,192,120917,1,0,0:0:0:0:
256,192,121093,5,8,0:0:0:0:
256,192,121182,1,8,0:0:0:0:
256,192,121270,1,8,0:0:0:0:
256,192,121358,1,8,0:0:0:0:
256,192,121446,5,0,0:0:0:0:
256,192,121623,1,0,0:0:0:0:
256,192,121711,1,0,0:0:0:0:
256,192,121799,1,0,0:0:0:0:
256,192,121976,1,0,0:0:0:0:
256,192,122152,1,0,0:0:0:0:
256,192,122505,5,8,0:0:0:0:
256,192,122858,6,0,L|116:192,3,140
256,192,124270,5,4,0:0:0:0:
256,192,124446,5,8,0:0:0:0:
256,192,124534,1,8,0:0:0:0:
256,192,124623,5,0,0:0:0:0:
256,192,124799,5,8,0:0:0:0:
256,192,124976,5,0,0:0:0:0:
256,192,125064,1,0,0:0:0:0:
256,192,125152,5,8,0:0:0:0:
256,192,125329,5,0,0:0:0:0:
256,192,125505,5,8,0:0:0:0:
256,192,125593,1,8,0:0:0:0:
256,192,125682,5,0,0:0:0:0:
256,192,125858,5,8,0:0:0:0:
256,192,126034,5,0,0:0:0:0:
256,192,126123,1,0,0:0:0:0:
256,192,126211,5,8,0:0:0:0:
256,192,126299,1,8,0:0:0:0:
256,192,126387,5,0,0:0:0:0:
256,192,126564,5,8,0:0:0:0:
256,192,126652,1,8,0:0:0:0:
256,192,126740,5,0,0:0:0:0:
256,192,126917,5,8,0:0:0:0:
256,192,127093,5,0,0:0:0:0:
256,192,127270,5,8,0:0:0:0:
256,192,127358,1,8,0:0:0:0:
256,192,127446,5,0,0:0:0:0:
256,192,127623,5,8,0:0:0:0:
256,192,127799,5,0,0:0:0:0:
256,192,127887,1,0,0:0:0:0:
256,192,127976,5,8,0:0:0:0:
256,192,128152,5,0,0:0:0:0:
256,192,128329,5,8,0:0:0:0:
256,192,128417,1,8,0:0:0:0:
256,192,128505,5,0,0:0:0:0:
256,192,128593,1,0,0:0:0:0:
256,192,128682,5,8,0:0:0:0:
256,192,128858,5,0,0:0:0:0:
256,192,129034,5,8,0:0:0:0:
256,192,129123,1,8,0:0:0:0:
256,192,129211,5,0,0:0:0:0:
256,192,129387,5,8,0:0:0:0:
256,192,129476,1,8,0:0:0:0:
256,192,129564,1,8,0:0:0:0:
256,192,129652,1,8,0:0:0:0:
256,192,129740,5,0,0:0:0:0:
256,192,129917,1,0,0:0:0:0:
256,192,130093,5,8,0:0:0:0:
256,192,130182,1,8,0:0:0:0:
256,192,130270,5,0,0:0:0:0:
256,192,130446,5,8,0:0:0:0:
256,192,130623,5,0,0:0:0:0:
256,192,130711,1,0,0:0:0:0:
256,192,130799,5,8,0:0:0:0:
256,192,130976,5,0,0:0:0:0:
256,192,131152,5,8,0:0:0:0:
256,192,131240,1,8,0:0:0:0:
256,192,131329,5,0,0:0:0:0:
256,192,131505,5,8,0:0:0:0:
256,192,131682,5,0,0:0:0:0:
256,192,131770,1,0,0:0:0:0:
256,192,131858,5,8,0:0:0:0:
256,192,131946,1,8,0:0:0:0:
256,192,132034,5,0,0:0:0:0:
256,192,132211,5,8,0:0:0:0:
256,192,132299,1,8,0:0:0:0:
256,192,132387,5,0,0:0:0:0:
256,192,132564,5,8,0:0:0:0:
256,192,132740,5,0,0:0:0:0:
256,192,132917,5,8,0:0:0:0:
256,192,133005,1,8,0:0:0:0:
256,192,133093,5,0,0:0:0:0:
256,192,133270,5,8,0:0:0:0:
256,192,133446,5,0,0:0:0:0:
256,192,133534,1,0,0:0:0:0:
256,192,133623,5,8,0:0:0:0:
256,192,133799,5,0,0:0:0:0:
256,192,133976,5,8,0:0:0:0:
256,192,134064,1,8,0:0:0:0:
256,192,134152,5,0,0:0:0:0:
256,192,134240,1,0,0:0:0:0:
256,192,134329,5,8,0:0:0:0:
256,192,134505,5,0,0:0:0:0:
256,192,134682,5,8,0:0:0:0:
256,192,135034,1,8,0:0:0:0:
256,192,135387,1,8,0:0:0:0:
256,192,135564,5,4,0:0:0:0:
256,192,135740,5,8,0:0:0:0:
256,192,135829,1,8,0:0:0:0:
256,192,135917,5,0,0:0:0:0:
256,192,136093,5,8,0:0:0:0:
256,192,136270,5,0,0:0:0:0:
256,192,136358,1,0,0:0:0:0:
256,192,136446,5,8,0:0:0:0:
256,192,136623,5,0,0:0:0:0:
256,192,136799,5,8,0:0:0:0:
256,192,136887,1,8,0:0:0:0:
256,192,136976,5,0,0:0:0:0:
256,192,137064,1,0,0:0:0:0:
256,192,137152,5,8,0:0:0:0:
256,192,137329,5,0,0:0:0:0:
256,192,137505,5,8,0:0:0:0:
256,192,137593,1,8,0:0:0:0:
256,192,137682,5,0,0:0:0:0:
256,192,137858,5,8,0:0:0:0:
256,192,138034,5,0,0:0:0:0:
256,192,138123,1,0,0:0:0:0:
256,192,138211,5,8,0:0:0:0:
256,192,138299,1,8,0:0:0:0:
256,192,138387,5,0,0:0:0:0:
256,192,138564,5,8,0:0:0:0:
256,192,138740,5,0,0:0:0:0:
256,192,138829,1,0,0:0:0:0:
256,192,138917,5,8,0:0:0:0:
256,192,139093,5,0,0:0:0:0:
256,192,139270,5,8,0:0:0:0:
256,192,139358,1,8,0:0:0:0:
256,192,139446,5,0,0:0:0:0:
256,192,139623,5,8,0:0:0:0:
256,192,139799,5,0,0:0:0:0:
256,192,139887,1,0,0:0:0:0:
256,192,139976,5,8,0:0:0:0:
256,192,140064,1,8,0:0:0:0:
256,192,140152,5,0,0:0:0:0:
256,192,140329,5,8,0:0:0:0:
256,192,140505,5,0,0:0:0:0:
256,192,140682,5,8,0:0:0:0:
256,192,140770,1,8,0:0:0:0:
256,192,140858,5,0,0:0:0:0:
256,192,141034,5,8,0:0:0:0:
256,192,141211,5,0,0:0:0:0:
256,192,141299,1,0,0:0:0:0:
256,192,141387,5,8,0:0:0:0:
256,192,141564,5,0,0:0:0:0:
256,192,141740,5,8,0:0:0:0:
256,192,141917,5,0,0:0:0:0:
256,192,142005,1,0,0:0:0:0:
256,192,142093,5,8,0:0:0:0:
256,192,142182,1,8,0:0:0:0:
256,192,142270,5,0,0:0:0:0:
256,192,142446,5,8,0:0:0:0:
256,192,142623,5,0,0:0:0:0:
256,192,142711,1,0,0:0:0:0:
256,192,142799,5,8,0:0:0:0:
256,192,142976,5,0,0:0:0:0:
256,192,143152,5,8,0:0:0:0:
256,192,143240,1,8,0:0:0:0:
256,192,143329,5,0,0:0:0:0:
256,192,143417,1,0,0:0:0:0:
256,192,143505,5,8,0:0:0:0:
256,192,143593,1,8,0:0:0:0:
256,192,143682,5,0,0:0:0:0:
256,192,143858,5,8,0:0:0:0:
256,192,144034,5,0,0:0:0:0:
256,192,144123,1,0,0:0:0:0:
256,192,144211,5,8,0:0:0:0:
256,192,144387,5,0,0:0:0:0:
256,192,144564,5,8,0:0:0:0:
256,192,144652,1,8,0:0:0:0:
256,192,144740,5,0,0:0:0:0:
256,192,144829,1,0,0:0:0:0:
256,192,144917,5,8,0:0:0:0:
256,192,145093,5,0,0:0:0:0:
256,192,145270,5,8,0:0:0:0:
256,192,145358,1,8,0:0:0:0:
256,192,145446,5,0,0:0:0:0:
256,192,145799,5,8,0:0:0:0:
256,192,145976,5,0,0:0:0:0:
256,192,146329,5,8,0:0:0:0:
256,192,146682,1,8,0:0:0:0:
256,192,146858,5,4,0:0:0:0:
256,192,147034,5,8,0:0:0:0:
256,192,147123,1,8,0:0:0:0:
256,192,147211,1,8,0:0:0:0:
256,192,147387,1,8,0:0:0:0:
256,192,147564,5,4,0:0:0:0:
256,192,147740,5,8,0:0:0:0:
256,192,147829,1,8,0:0:0:0:
256,192,147917,1,8,0:0:0:0:
256,192,148093,5,0,0:0:0:0:
256,192,148270,1,4,0:0:0:0:
256,192,148446,5,8,0:0:0:0:
256,192,148534,1,8,0:0:0:0:
256,192,148623,5,0,0:0:0:0:
256,192,148799,5,8,0:0:0:0:
256,192,148976,5,4,0:0:0:0:
256,192,149152,5,8,0:0:0:0:
256,192,149240,1,8,0:0:0:0:
256,192,149329,1,8,0:0:0:0:
256,192,149417,1,8,0:0:0:0:
256,192,149505,1,8,0:0:0:0:
256,192,149682,5,4,0:0:0:0:
256,192,149858,5,8,0:0:0:0:
256,192,149946,1,8,0:0:0:0:
256,192,150034,1,8,0:0:0:0:
256,192,150211,1,8,0:0:0:0:
256,192,150387,5,4,0:0:0:0:
256,192,150564,5,8,0:0:0:0:
256,192,150652,1,8,0:0:0:0:
256,192,150740,1,8,0:0:0:0:
256,192,150917,5,0,0:0:0:0:
256,192,151093,1,4,0:0:0:0:
256,192,151270,5,8,0:0:0:0:
256,192,151358,1,8,0:0:0:0:
256,192,151446,5,0,0:0:0:0:
256,192,151623,5,8,0:0:0:0:
256,192,151799,5,4,0:0:0:0:
256,192,151976,5,8,0:0:0:0:
256,192,152064,1,8,0:0:0:0:
256,192,152152,5,0,0:0:0:0:
256,192,152240,1,0,0:0:0:0:
256,192,152329,5,8,0:0:0:0:
256,192,152505,5,4,0:0:0:0:
256,192,152682,5,8,0:0:0:0:
256,192,152770,1,8,0:0:0:0:
256,192,152858,1,8,0:0:0:0:
256,192,153034,1,8,0:0:0:0:
256,192,153211,5,4,0:0:0:0:
256,192,153387,5,8,0:0:0:0:
256,192,153476,1,8,0:0:0:0:
256,192,153564,1,8,0:0:0:0:
256,192,153652,1,8,0:0:0:0:
256,192,153740,5,0,0:0:0:0:
256,192,153917,1,4,0:0:0:0:
256,192,154093,5,8,0:0:0:0:
256,192,154182,1,8,0:0:0:0:
256,192,154270,5,0,0:0:0:0:
256,192,154446,5,8,0:0:0:0:
256,192,154623,5,4,0:0:0:0:
256,192,154799,5,8,0:0:0:0:
256,192,154887,1,8,0:0:0:0:
256,192,154976,1,8,0:0:0:0:
256,192,155152,1,8,0:0:0:0:
256,192,155329,5,4,0:0:0:0:
256,192,155505,5,8,0:0:0:0:
256,192,155593,1,8,0:0:0:0:
256,192,155682,1,8,0:0:0:0:
256,192,155770,1,8,0:0:0:0:
256,192,155858,1,8,0:0:0:0:
256,192,156034,5,4,0:0:0:0:
256,192,156211,5,8,0:0:0:0:
256,192,156299,1,8,0:0:0:0:
256,192,156387,1,8,0:0:0:0:
256,192,156564,5,0,0:0:0:0:
256,192,156740,1,4,0:0:0:0:
256,192,157093,5,12,0:0:0:0:
256,192,157270,5,4,0:0:0:0:
256,192,158152,5,0,0:0:0:0:
256,192,158329,5,8,0:0:0:0:
256,192,158417,5,0,0:0:0:0:
256,192,158593,5,8,0:0:0:0:
256,192,158682,5,0,0:0:0:0:
256,192,158858,5,8,0:0:0:0:
256,192,159034,1,8,0:0:0:0:
256,192,159123,1,8,0:0:0:0:
256,192,159299,1,8,0:0:0:0:
256,192,159387,1,8,0:0:0:0:
256,192,159564,5,0,0:0:0:0:
256,192,159740,5,8,0:0:0:0:
256,192,159829,5,0,0:0:0:0:
256,192,160005,5,8,0:0:0:0:
256,192,160093,5,0,0:0:0:0:
256,192,160270,5,8,0:0:0:0:
256,192,160446,1,8,0:0:0:0:
256,192,160534,1,8,0:0:0:0:
256,192,160711,1,8,0:0:0:0:
256,192,160799,1,8,0:0:0:0:
256,192,160887,1,8,0:0:0:0:
256,192,160976,5,0,0:0:0:0:
256,192,161152,5,8,0:0:0:0:
256,192,161240,5,0,0:0:0:0:
256,192,161417,5,8,0:0:0:0:
256,192,161505,5,0,0:0:0:0:
256,192,161682,5,8,0:0:0:0:
256,192,161858,1,8,0:0:0:0:
256,192,161946,1,8,0:0:0:0:
256,192,162123,1,8,0:0:0:0:
256,192,162211,1,8,0:0:0:0:
256,192,162387,5,0,0:0:0:0:
256,192,162564,5,8,0:0:0:0:
256,192,162652,5,0,0:0:0:0:
256,192,162829,5,8,0:0:0:0:
256,192,162917,5,0,0:0:0:0:
256,192,163093,5,8,0:0:0:0:
256,192,163270,1,8,0:0:0:0:
256,192,163358,1,8,0:0:0:0:
256,192,163534,5,0,0:0:0:0:
256,192,163623,1,0,0:0:0:0:
256,192,163711,5,8,0:0:0:0:
256,192,163799,5,0,0:0:0:0:
256,192,163976,5,8,0:0:0:0:
256,192,164064,5,0,0:0:0:0:
256,192,164240,5,8,0:0:0:0:
256,192,164329,5,0,0:0:0:0:
256,192,164505,5,8,0:0:0:0:
256,192,164682,5,0,0:0:0:0:
256,192,164770,5,8,0:0:0:0:
256,192,164946,5,0,0:0:0:0:
256,192,165034,5,8,0:0:0:0:
256,192,165211,5,0,0:0:0:0:
256,192,165387,5,8,0:0:0:0:
256,192,165476,5,0,0:0:0:0:
256,192,165652,5,8,0:0:0:0:
256,192,165740,5,0,0:0:0:0:
256,192,165917,5,8,0:0:0:0:
256,192,166093,5,0,0:0:0:0:
256,192,166182,5,8,0:0:0:0:
256,192,166358,5,0,0:0:0:0:
256,192,166446,5,8,0:0:0:0:
256,192,166534,1,8,0:0:0:0:
256,192,166623,5,0,0:0:0:0:
256,192,166799,5,8,0:0:0:0:
256,192,166887,5,0,0:0:0:0:
256,192,167064,5,8,0:0:0:0:
256,192,167152,5,0,0:0:0:0:
256,192,167329,5,8,0:0:0:0:
256,192,167505,5,0,0:0:0:0:
256,192,167593,5,8,0:0:0:0:
256,192,167770,5,0,0:0:0:0:
256,192,167858,5,8,0:0:0:0:
256,192,168034,5,0,0:0:0:0:
256,192,168211,5,8,0:0:0:0:
256,192,168299,5,0,0:0:0:0:
256,192,168476,5,8,0:0:0:0:
256,192,168564,5,0,0:0:0:0:
256,192,168740,5,8,0:0:0:0:
256,192,168917,5,0,0:0:0:0:
256,192,169005,5,8,0:0:0:0:
256,192,169093,1,8,0:0:0:0:
256,192,169182,5,0,0:0:0:0:
256,192,169270,5,8,0:0:0:0:
256,192,169446,5,4,0:0:0:0:
256,192,169623,1,0,0:0:0:0:
256,192,169799,5,8,0:0:0:0:
256,192,169887,5,0,0:0:0:0:
256,192,170064,1,0,0:0:0:0:
256,192,170152,5,8,0:0:0:0:
256,192,170329,1,8,0:0:0:0:
256,192,170417,5,0,0:0:0:0:
256,192,170593,1,0,0:0:0:0:
256,192,170682,5,8,0:0:0:0:
256,192,170858,5,0,0:0:0:0:
256,192,171034,5,8,0:0:0:0:
256,192,171123,5,0,0:0:0:0:
256,192,171299,1,0,0:0:0:0:
256,192,171387,5,8,0:0:0:0:
256,192,171564,5,0,0:0:0:0:
256,192,171740,5,8,0:0:0:0:
256,192,171829,5,0,0:0:0:0:
256,192,172005,1,0,0:0:0:0:
256,192,172093,5,8,0:0:0:0:
256,192,172270,5,0,0:0:0:0:
256,192,172446,1,0,0:0:0:0:
256,192,172623,5,8,0:0:0:0:
256,192,172711,5,0,0:0:0:0:
256,192,172887,1,0,0:0:0:0:
256,192,172976,5,8,0:0:0:0:
256,192,173152,1,8,0:0:0:0:
256,192,173240,5,0,0:0:0:0:
256,192,173417,1,0,0:0:0:0:
256,192,173505,5,8,0:0:0:0:
256,192,173593,1,8,0:0:0:0:
256,192,173682,5,0,0:0:0:0:
256,192,173858,5,8,0:0:0:0:
256,192,173946,5,0,0:0:0:0:
256,192,174123,1,0,0:0:0:0:
256,192,174211,5,8,0:0:0:0:
256,192,174387,5,0,0:0:0:0:
256,192,174564,5,8,0:0:0:0:
256,192,174652,5,0,0:0:0:0:
256,192,174740,5,8,0:0:0:0:
256,192,174829,5,0,0:0:0:0:
256,192,174917,5,8,0:0:0:0:
256,192,175093,5,4,0:0:0:0:
256,192,175270,1,0,0:0:0:0:
256,192,175446,5,8,0:0:0:0:
256,192,175534,5,0,0:0:0:0:
256,192,175711,1,0,0:0:0:0:
256,192,175799,5,8,0:0:0:0:
256,192,175976,1,8,0:0:0:0:
256,192,176064,5,0,0:0:0:0:
256,192,176240,1,0,0:0:0:0:
256,192,176329,5,8,0:0:0:0:
256,192,176505,5,4,0:0:0:0:
256,192,176682,5,8,0:0:0:0:
256,192,176770,5,0,0:0:0:0:
256,192,176946,1,0,0:0:0:0:
256,192,177034,5,8,0:0:0:0:
256,192,177211,5,4,0:0:0:0:
256,192,177387,5,8,0:0:0:0:
256,192,177476,5,0,0:0:0:0:
256,192,177652,1,0,0:0:0:0:
256,192,177740,5,8,0:0:0:0:
256,192,177917,5,4,0:0:0:0:
256,192,178093,5,8,0:0:0:0:
256,192,178270,5,4,0:0:0:0:
256,192,178446,5,8,0:0:0:0:
256,192,178623,5,4,0:0:0:0:
256,192,178799,5,8,0:0:0:0:
256,192,178976,5,4,0:0:0:0:
256,192,179152,5,8,0:0:0:0:
256,192,179329,6,4,L|112:192,4,140
256,192,183564,1,0,0:0:0:0:
256,192,186034,1,0,0:0:0:0:
256,192,186387,1,0,0:0:0:0:
256,192,189211,1,0,0:0:0:0:
256,192,190623,5,8,0:0:0:0:
256,192,191152,1,8,0:0:0:0:
256,192,191505,1,8,0:0:0:0:
256,192,191682,1,8,0:0:0:0:
256,192,191858,1,8,0:0:0:0:
256,192,192034,5,4,0:0:0:0:
256,192,192387,5,8,0:0:0:0:
256,192,193093,1,8,0:0:0:0:
256,192,193446,5,0,0:0:0:0:
256,192,193799,1,8,0:0:0:0:
256,192,193976,1,8,0:0:0:0:
256,192,194152,5,0,0:0:0:0:
256,192,194505,1,8,0:0:0:0:
256,192,194858,5,4,0:0:0:0:
256,192,195211,5,8,0:0:0:0:
256,192,195917,1,8,0:0:0:0:
256,192,196270,5,0,0:0:0:0:
256,192,196446,1,0,0:0:0:0:
256,192,196623,5,8,0:0:0:0:
256,192,196799,1,8,0:0:0:0:
256,192,196976,5,0,0:0:0:0:
256,192,197329,5,8,0:0:0:0:
256,192,197682,5,4,0:0:0:0:
256,192,198034,5,8,0:0:0:0:
256,192,198740,1,8,0:0:0:0:
256,192,199093,5,0,0:0:0:0:
256,192,199446,5,8,0:0:0:0:
256,192,199623,1,8,0:0:0:0:
256,192,199799,5,0,0:0:0:0:
256,192,200152,5,8,0:0:0:0:
256,192,200505,5,4,0:0:0:0:
256,192,200858,5,8,0:0:0:0:
256,192,201564,1,8,0:0:0:0:
256,192,201917,5,4,0:0:0:0:
256,192,203329,1,4,0:0:0:0:
256,192,203682,5,8,0:0:0:0:
256,192,204034,5,0,0:0:0:0:
256,192,204387,5,8,0:0:0:0:
256,192,204740,5,0,0:0:0:0:
256,192,205093,5,8,0:0:0:0:
256,192,205270,1,8,0:0:0:0:
256,192,205446,5,0,0:0:0:0:
256,192,205799,5,8,0:0:0:0:
256,192,206152,5,0,0:0:0:0:
256,192,206329,1,0,0:0:0:0:
256,192,206505,5,8,0:0:0:0:
256,192,206682,1,8,0:0:0:0:
256,192,206858,5,0,0:0:0:0:
256,192,207211,5,8,0:0:0:0:
256,192,207387,1,8,0:0:0:0:
256,192,207564,5,0,0:0:0:0:
256,192,207740,5,8,0:0:0:0:
256,192,207917,5,0,0:0:0:0:
256,192,208093,5,8,0:0:0:0:
256,192,208270,5,0,0:0:0:0:
256,192,208623,1,0,0:0:0:0:
256,192,208976,1,4,0:0:0:0:
256,192,209329,5,8,0:0:0:0:
256,192,209682,5,0,0:0:0:0:
256,192,210034,5,8,0:0:0:0:
256,192,210387,5,0,0:0:0:0:
256,192,210740,5,8,0:0:0:0:
256,192,210917,1,8,0:0:0:0:
256,192,211093,5,0,0:0:0:0:
256,192,211446,5,8,0:0:0:0:
256,192,211799,5,0,0:0:0:0:
256,192,211976,1,0,0:0:0:0:
256,192,212152,5,8,0:0:0:0:
256,192,212329,1,8,0:0:0:0:
256,192,212505,5,0,0:0:0:0:
256,192,212858,5,8,0:0:0:0:
256,192,213034,1,8,0:0:0:0:
256,192,213211,5,0,0:0:0:0:
256,192,213564,1,0,0:0:0:0:
256,192,213917,1,0,0:0:0:0:
256,192,214093,5,8,0:0:0:0:
256,192,214182,1,8,0:0:0:0:
256,192,214270,5,0,0:0:0:0:
256,192,214358,1,0,0:0:0:0:
256,192,214446,5,8,0:0:0:0:
256,192,214623,1,0,0:0:0:0:
256,192,214799,5,8,0:0:0:0:
256,192,214887,1,8,0:0:0:0:
256,192,214976,5,0,0:0:0:0:
256,192,215152,5,8,0:0:0:0:
256,192,215329,5,0,0:0:0:0:
256,192,215417,5,8,0:0:0:0:
256,192,215593,1,8,0:0:0:0:
256,192,215682,5,0,0:0:0:0:
256,192,215858,5,8,0:0:0:0:
256,192,216034,5,0,0:0:0:0:
256,192,216211,5,8,0:0:0:0:
256,192,216299,1,8,0:0:0:0:
256,192,216387,5,0,0:0:0:0:
256,192,216564,5,8,0:0:0:0:
256,192,216740,5,0,0:0:0:0:
256,192,216829,1,0,0:0:0:0:
256,192,216917,1,0,0:0:0:0:
256,192,217005,1,0,0:0:0:0:
256,192,217093,5,8,0:0:0:0:
256,192,217446,5,0,0:0:0:0:
256,192,217623,5,8,0:0:0:0:
256,192,217711,1,8,0:0:0:0:
256,192,217799,5,0,0:0:0:0:
256,192,217976,5,8,0:0:0:0:
256,192,218152,5,0,0:0:0:0:
256,192,218240,5,8,0:0:0:0:
256,192,218417,1,8,0:0:0:0:
256,192,218505,5,0,0:0:0:0:
256,192,218682,5,8,0:0:0:0:
256,192,218858,5,0,0:0:0:0:
256,192,218946,1,0,0:0:0:0:
256,192,219034,5,8,0:0:0:0:
256,192,219123,1,8,0:0:0:0:
256,192,219211,5,0,0:0:0:0:
256,192,219387,5,8,0:0:0:0:
256,192,219564,5,0,0:0:0:0:
256,192,219652,1,0,0:0:0:0:
256,192,219740,1,0,0:0:0:0:
256,192,219829,1,0,0:0:0:0:
256,192,219917,5,8,0:0:0:0:
256,192,220270,5,0,0:0:0:0:
256,192,220446,5,8,0:0:0:0:
256,192,220534,1,8,0:0:0:0:
256,192,220623,5,0,0:0:0:0:
256,192,220799,5,8,0:0:0:0:
256,192,220976,5,0,0:0:0:0:
256,192,221064,5,8,0:0:0:0:
256,192,221240,1,8,0:0:0:0:
256,192,221329,5,0,0:0:0:0:
256,192,221417,1,0,0:0:0:0:
256,192,221505,5,8,0:0:0:0:
256,192,221682,5,0,0:0:0:0:
256,192,221858,5,8,0:0:0:0:
256,192,221946,1,8,0:0:0:0:
256,192,222034,5,0,0:0:0:0:
256,192,222211,5,8,0:0:0:0:
256,192,222387,5,0,0:0:0:0:
256,192,222476,1,0,0:0:0:0:
256,192,222564,1,0,0:0:0:0:
256,192,222652,1,0,0:0:0:0:
256,192,222740,5,8,0:0:0:0:
256,192,223093,5,0,0:0:0:0:
256,192,223270,5,8,0:0:0:0:
256,192,223358,1,8,0:0:0:0:
256,192,223446,5,0,0:0:0:0:
256,192,223623,5,8,0:0:0:0:
256,192,223799,5,0,0:0:0:0:
256,192,223887,5,8,0:0:0:0:
256,192,224064,1,8,0:0:0:0:
256,192,224152,5,0,0:0:0:0:
256,192,224240,1,0,0:0:0:0:
256,192,224329,5,8,0:0:0:0:
256,192,224505,5,0,0:0:0:0:
256,192,225564,5,0,0:0:0:0:
256,192,225917,1,0,0:0:0:0:
256,192,226093,5,8,0:0:0:0:
256,192,226182,1,8,0:0:0:0:
256,192,226358,1,8,0:0:0:0:
256,192,226446,1,8,0:0:0:0:
256,192,226623,5,0,0:0:0:0:
256,192,226799,5,8,0:0:0:0:
256,192,226887,5,0,0:0:0:0:
256,192,227064,5,8,0:0:0:0:
256,192,227152,5,0,0:0:0:0:
256,192,227329,1,0,0:0:0:0:
256,192,227505,5,8,0:0:0:0:
256,192,227593,1,8,0:0:0:0:
256,192,227770,1,8,0:0:0:0:
256,192,227858,1,8,0:0:0:0:
256,192,228034,5,0,0:0:0:0:
256,192,228211,5,8,0:0:0:0:
256,192,228299,1,8,0:0:0:0:
256,192,228476,1,8,0:0:0:0:
256,192,228564,5,0,0:0:0:0:
256,192,228740,1,0,0:0:0:0:
256,192,228917,5,8,0:0:0:0:
256,192,229005,1,8,0:0:0:0:
256,192,229182,1,8,0:0:0:0:
256,192,229270,1,8,0:0:0:0:
256,192,229446,5,0,0:0:0:0:
256,192,229623,5,8,0:0:0:0:
256,192,229711,5,0,0:0:0:0:
256,192,229887,5,8,0:0:0:0:
256,192,229976,5,0,0:0:0:0:
256,192,230152,1,0,0:0:0:0:
256,192,230329,5,8,0:0:0:0:
256,192,230417,1,8,0:0:0:0:
256,192,230593,1,8,0:0:0:0:
256,192,230682,1,8,0:0:0:0:
256,192,230858,5,0,0:0:0:0:
256,192,230946,5,8,0:0:0:0:
256,192,231123,1,8,0:0:0:0:
256,192,231211,5,0,0:0:0:0:
256,192,231387,5,8,0:0:0:0:
256,192,231564,5,0,0:0:0:0:
256,192,231740,5,8,0:0:0:0:
256,192,231829,1,8,0:0:0:0:
256,192,232005,1,8,0:0:0:0:
256,192,232093,1,8,0:0:0:0:
256,192,232270,5,0,0:0:0:0:
256,192,232446,5,8,0:0:0:0:
256,192,232534,5,0,0:0:0:0:
256,192,232711,5,8,0:0:0:0:
256,192,232799,5,0,0:0:0:0:
256,192,232976,1,0,0:0:0:0:
256,192,233152,5,8,0:0:0:0:
256,192,233240,1,8,0:0:0:0:
256,192,233417,1,8,0:0:0:0:
256,192,233505,1,8,0:0:0:0:
256,192,233682,5,0,0:0:0:0:
256,192,233858,5,8,0:0:0:0:
256,192,233946,1,8,0:0:0:0:
256,192,234123,1,8,0:0:0:0:
256,192,234211,5,0,0:0:0:0:
256,192,234387,1,0,0:0:0:0:
256,192,234564,5,8,0:0:0:0:
256,192,234652,1,8,0:0:0:0:
256,192,234829,1,8,0:0:0:0:
256,192,234917,1,8,0:0:0:0:
256,192,235093,5,0,0:0:0:0:
256,192,235270,5,8,0:0:0:0:
256,192,235358,5,0,0:0:0:0:
256,192,235534,1,0,0:0:0:0:
256,192,235623,5,8,0:0:0:0:
256,192,235799,5,0,0:0:0:0:
256,192,235976,5,8,0:0:0:0:
256,192,236064,1,8,0:0:0:0:
256,192,236240,1,8,0:0:0:0:
256,192,236329,1,8,0:0:0:0:
256,192,236505,5,0,0:0:0:0:
256,192,236682,5,8,0:0:0:0:
256,192,236770,1,8,0:0:0:0:
256,192,236858,5,0,0:0:0:0:
256,192,236946,5,8,0:0:0:0:
256,192,237123,1,8,0:0:0:0:
256,192,237211,5,0,0:0:0:0:
256,192,237387,5,8,0:0:0:0:
256,192,237476,1,8,0:0:0:0:
256,192,237564,5,0,0:0:0:0:
256,192,237740,5,8,0:0:0:0:
256,192,237917,5,0,0:0:0:0:
256,192,238005,5,8,0:0:0:0:
256,192,238182,1,8,0:0:0:0:
256,192,238270,5,0,0:0:0:0:
256,192,238446,5,8,0:0:0:0:
256,192,238623,5,0,0:0:0:0:
256,192,238799,5,8,0:0:0:0:
256,192,238887,1,0,0:0:0:0:
256,192,238976,5,0,0:0:0:0:
256,192,239064,5,8,0:0:0:0:
256,192,239240,1,8,0:0:0:0:
256,192,239329,5,0,0:0:0:0:
256,192,239505,5,8,0:0:0:0:
256,192,239593,1,8,0:0:0:0:
256,192,239682,5,0,0:0:0:0:
256,192,239858,5,8,0:0:0:0:
256,192,240034,5,0,0:0:0:0:
256,192,240211,5,8,0:0:0:0:
256,192,240299,1,8,0:0:0:0:
256,192,240387,5,0,0:0:0:0:
256,192,240564,5,8,0:0:0:0:
256,192,240740,5,0,0:0:0:0:
256,192,240829,5,8,0:0:0:0:
256,192,241005,1,8,0:0:0:0:
256,192,241093,5,0,0:0:0:0:
256,192,241270,5,8,0:0:0:0:
256,192,241446,5,0,0:0:0:0:
256,192,241534,5,8,0:0:0:0:
256,192,241711,1,8,0:0:0:0:
256,192,241799,5,0,0:0:0:0:
256,192,241976,5,8,0:0:0:0:
256,192,242152,5,0,0:0:0:0:
256,192,242240,5,8,0:0:0:0:
256,192,242329,5,0,0:0:0:0:
256,192,242417,5,8,0:0:0:0:
256,192,242505,5,0,0:0:0:0:
256,192,242682,5,8,0:0:0:0:
256,192,242858,5,0,0:0:0:0:
256,192,243034,5,8,0:0:0:0:
256,192,243123,1,8,0:0:0:0:
256,192,243211,5,0,0:0:0:0:
256,192,243387,5,8,0:0:0:0:
256,192,243564,5,0,0:0:0:0:
256,192,243652,5,8,0:0:0:0:
256,192,243829,1,8,0:0:0:0:
256,192,243917,5,0,0:0:0:0:
256,192,244093,5,8,0:0:0:0:
256,192,244270,5,0,0:0:0:0:
256,192,244446,5,8,0:0:0:0:
256,192,244534,1,8,0:0:0:0:
256,192,244623,5,0,0:0:0:0:
256,192,244711,5,8,0:0:0:0:
256,192,244887,1,8,0:0:0:0:
256,192,244976,5,0,0:0:0:0:
256,192,245152,5,8,0:0:0:0:
256,192,245240,1,8,0:0:0:0:
256,192,245329,5,0,0:0:0:0:
256,192,245505,5,8,0:0:0:0:
256,192,245682,5,0,0:0:0:0:
256,192,245858,5,8,0:0:0:0:
256,192,245946,1,8,0:0:0:0:
256,192,246034,5,0,0:0:0:0:
256,192,246211,5,8,0:0:0:0:
256,192,246387,5,0,0:0:0:0:
256,192,246476,5,8,0:0:0:0:
256,192,246652,1,8,0:0:0:0:
256,192,246740,5,0,0:0:0:0:
256,192,246917,5,8,0:0:0:0:
256,192,247270,1,8,0:0:0:0:
256,192,247534,1,8,0:0:0:0:
256,192,247799,1,8,0:0:0:0:
256,192,248064,1,8,0:0:0:0:
256,192,248329,1,8,0:0:0:0:
256,192,248505,5,4,0:0:0:0:
256,192,248770,5,8,0:0:0:0:
256,192,248858,5,0,0:0:0:0:
256,192,249034,5,8,0:0:0:0:
256,192,249211,5,0,0:0:0:0:
256,192,249387,5,8,0:0:0:0:
256,192,249476,1,8,0:0:0:0:
256,192,249564,5,0,0:0:0:0:
256,192,249740,5,8,0:0:0:0:
256,192,249917,5,0,0:0:0:0:
256,192,250005,1,0,0:0:0:0:
256,192,250093,5,8,0:0:0:0:
256,192,250270,5,0,0:0:0:0:
256,192,250446,5,8,0:0:0:0:
256,192,250534,1,8,0:0:0:0:
256,192,250623,5,0,0:0:0:0:
256,192,250799,5,8,0:0:0:0:
256,192,250976,5,0,0:0:0:0:
256,192,251152,5,8,0:0:0:0:
256,192,251329,5,0,0:0:0:0:
256,192,251593,5,8,0:0:0:0:
256,192,251682,5,0,0:0:0:0:
256,192,251858,5,8,0:0:0:0:
256,192,252034,5,0,0:0:0:0:
256,192,252211,5,8,0:0:0:0:
256,192,252299,1,8,0:0:0:0:
256,192,252387,5,0,0:0:0:0:
256,192,252564,5,8,0:0:0:0:
256,192,252740,5,0,0:0:0:0:
256,192,252829,1,0,0:0:0:0:
256,192,252917,5,8,0:0:0:0:
256,192,253005,1,8,0:0:0:0:
256,192,253093,5,0,0:0:0:0:
256,192,253270,5,8,0:0:0:0:
256,192,253358,1,8,0:0:0:0:
256,192,253446,5,0,0:0:0:0:
256,192,253623,5,8,0:0:0:0:
256,192,253711,1,8,0:0:0:0:
256,192,253799,1,8,0:0:0:0:
256,192,253887,1,8,0:0:0:0:
256,192,253976,1,8,0:0:0:0:
256,192,254152,5,0,0:0:0:0:
256,192,254417,5,8,0:0:0:0:
256,192,254505,5,0,0:0:0:0:
256,192,254682,5,8,0:0:0:0:
256,192,254858,5,0,0:0:0:0:
256,192,254946,1,0,0:0:0:0:
256,192,255034,5,8,0:0:0:0:
256,192,255211,5,0,0:0:0:0:
256,192,255387,5,8,0:0:0:0:
256,192,255476,1,8,0:0:0:0:
256,192,255564,5,0,0:0:0:0:
256,192,255652,1,0,0:0:0:0:
256,192,255740,5,8,0:0:0:0:
256,192,255917,5,0,0:0:0:0:
256,192,256093,5,8,0:0:0:0:
256,192,256182,1,8,0:0:0:0:
256,192,256270,5,0,0:0:0:0:
256,192,256446,5,8,0:0:0:0:
256,192,256623,5,0,0:0:0:0:
256,192,256799,5,8,0:0:0:0:
256,192,256976,5,0,0:0:0:0:
256,192,257240,5,8,0:0:0:0:
256,192,257329,5,0,0:0:0:0:
256,192,257505,5,8,0:0:0:0:
256,192,257682,5,0,0:0:0:0:
256,192,257858,5,8,0:0:0:0:
256,192,257946,1,8,0:0:0:0:
256,192,258034,5,0,0:0:0:0:
256,192,258211,5,8,0:0:0:0:
256,192,258387,5,0,0:0:0:0:
256,192,258740,5,8,0:0:0:0:
256,192,258917,5,0,0:0:0:0:
256,192,259270,5,8,0:0:0:0:
256,192,259623,1,8,0:0:0:0:
256,192,259799,5,4,0:0:0:0:
256,192,259976,5,8,0:0:0:0:
256,192,260064,1,8,0:0:0:0:
256,192,260152,5,0,0:0:0:0:
256,192,260240,5,8,0:0:0:0:
256,192,260329,1,8,0:0:0:0:
256,192,260505,5,0,0:0:0:0:
256,192,260682,5,8,0:0:0:0:
256,192,260770,1,8,0:0:0:0:
256,192,260858,5,0,0:0:0:0:
256,192,261034,5,8,0:0:0:0:
256,192,261211,5,0,0:0:0:0:
256,192,261299,5,8,0:0:0:0:
256,192,261476,1,8,0:0:0:0:
256,192,261564,5,0,0:0:0:0:
256,192,261740,5,8,0:0:0:0:
256,192,261917,5,0,0:0:0:0:
256,192,262093,5,8,0:0:0:0:
256,192,262182,1,8,0:0:0:0:
256,192,262270,5,0,0:0:0:0:
256,192,262358,1,0,0:0:0:0:
256,192,262446,5,8,0:0:0:0:
256,192,262623,5,0,0:0:0:0:
256,192,262799,5,8,0:0:0:0:
256,192,262887,1,8,0:0:0:0:
256,192,262976,5,0,0:0:0:0:
256,192,263064,5,8,0:0:0:0:
256,192,263152,1,8,0:0:0:0:
256,192,263329,5,0,0:0:0:0:
256,192,263505,5,8,0:0:0:0:
256,192,263593,1,8,0:0:0:0:
256,192,263682,5,0,0:0:0:0:
256,192,263858,5,8,0:0:0:0:
256,192,264034,5,0,0:0:0:0:
256,192,264123,5,8,0:0:0:0:
256,192,264299,1,8,0:0:0:0:
256,192,264387,5,0,0:0:0:0:
256,192,264564,5,8,0:0:0:0:
256,192,264740,5,0,0:0:0:0:
256,192,264917,5,8,0:0:0:0:
256,192,265005,1,8,0:0:0:0:
256,192,265093,1,8,0:0:0:0:
256,192,265182,1,8,0:0:0:0:
256,192,265270,1,8,0:0:0:0:
256,192,265446,5,4,0:0:0:0:
256,192,265623,5,8,0:0:0:0:
256,192,265711,1,8,0:0:0:0:
256,192,265799,5,0,0:0:0:0:
256,192,265887,5,8,0:0:0:0:
256,192,265976,1,8,0:0:0:0:
256,192,266152,5,0,0:0:0:0:
256,192,266329,5,8,0:0:0:0:
256,192,266417,1,8,0:0:0:0:
256,192,266505,5,0,0:0:0:0:
256,192,266682,5,8,0:0:0:0:
256,192,266858,5,4,0:0:0:0:
256,192,267034,5,8,0:0:0:0:
256,192,267123,1,8,0:0:0:0:
256,192,267211,5,0,0:0:0:0:
256,192,267387,5,8,0:0:0:0:
256,192,267564,5,4,0:0:0:0:
256,192,267740,5,8,0:0:0:0:
256,192,267829,5,0,0:0:0:0:
256,192,267917,5,8,0:0:0:0:
256,192,268093,5,0,0:0:0:0:
256,192,268270,5,12,0:0:0:0:
256,192,268446,5,0,0:0:0:0:
256,192,268623,5,12,0:0:0:0:
256,192,268799,5,0,0:0:0:0:
256,192,268976,5,12,0:0:0:0:
256,192,269152,5,0,0:0:0:0:
256,192,269329,5,12,0:0:0:0:
256,192,269505,5,0,0:0:0:0:
256,192,269682,5,8,0:0:0:0:
256,192,269770,1,8,0:0:0:0:
256,192,269858,1,8,0:0:0:0:
256,192,269946,1,8,0:0:0:0:
256,192,270034,5,0,0:0:0:0:
256,192,270123,1,0,0:0:0:0:
256,192,270211,1,0,0:0:0:0:
256,192,270299,1,0,0:0:0:0:
256,192,270387,5,8,0:0:0:0:
256,192,270476,1,8,0:0:0:0:
256,192,270564,1,8,0:0:0:0:
256,192,270652,1,8,0:0:0:0:
256,192,270740,5,0,0:0:0:0:
256,192,270829,1,0,0:0:0:0:
256,192,270917,5,8,0:0:0:0:
256,192,271005,1,8,0:0:0:0:
256,192,271093,5,0,0:0:0:0:
256,192,272505,1,8,0:0:0:0:
256,192,273034,1,8,0:0:0:0:
256,192,273387,1,8,0:0:0:0:
256,192,273740,1,8,0:0:0:0:
256,192,273917,5,0,0:0:0:0:
256,192,274799,5,8,0:0:0:0:
256,192,275152,1,8,0:0:0:0:
256,192,275329,5,0,0:0:0:0:
256,192,275682,5,8,0:0:0:0:
256,192,275858,5,0,0:0:0:0:
256,192,276211,5,8,0:0:0:0:
256,192,276564,1,8,0:0:0:0:
256,192,276740,5,0,0:0:0:0:
256,192,277623,5,8,0:0:0:0:
256,192,277976,1,8,0:0:0:0:
256,192,278152,5,0,0:0:0:0:
256,192,278505,5,8,0:0:0:0:
256,192,278682,1,8,0:0:0:0:
256,192,279034,1,8,0:0:0:0:
256,192,279387,1,8,0:0:0:0:
256,192,279564,5,0,0:0:0:0:
256,192,280446,5,8,0:0:0:0:
256,192,280799,1,8,0:0:0:0:
256,192,280976,5,0,0:0:0:0:
256,192,281329,5,8,0:0:0:0:
256,192,281505,5,0,0:0:0:0:
256,192,281858,5,8,0:0:0:0:
256,192,282034,1,8,0:0:0:0:
256,192,282211,1,8,0:0:0:0:
256,192,282387,5,0,0:0:0:0:
256,192,282740,5,8,0:0:0:0:
256,192,283270,1,8,0:0:0:0:
256,192,283799,5,0,0:0:0:0:
256,192,284682,5,8,0:0:0:0:
256,192,285211,5,0,0:0:0:0:
256,192,285740,5,8,0:0:0:0:
256,192,285917,5,0,0:0:0:0:
256,192,286446,5,8,0:0:0:0:
256,192,286623,5,0,0:0:0:0:
256,192,286976,1,0,0:0:0:0:
256,192,287329,1,0,0:0:0:0:
256,192,288034,5,8,0:0:0:0:
256,192,288387,1,8,0:0:0:0:
256,192,288917,1,8,0:0:0:0:
256,192,289270,1,8,0:0:0:0:
256,192,289446,5,0,0:0:0:0:
256,192,290329,5,8,0:0:0:0:
256,192,290682,1,8,0:0:0:0:
256,192,290858,5,0,0:0:0:0:
256,192,291387,5,8,0:0:0:0:
256,192,291564,5,0,0:0:0:0:
256,192,292093,5,8,0:0:0:0:
256,192,292270,5,0,0:0:0:0:
256,192,292976,5,8,0:0:0:0:
256,192,293682,5,4,0:0:0:0:
256,192,294564,5,8,0:0:0:0:
256,192,294917,1,8,0:0:0:0:
256,192,295093,1,8,0:0:0:0:
256,192,295270,1,8,0:0:0:0:
256,192,295976,1,8,0:0:0:0:
256,192,296329,1,8,0:0:0:0:
256,192,296505,5,4,0:0:0:0:
256,192,296858,5,8,0:0:0:0:
256,192,297034,1,8,0:0:0:0:
256,192,297211,5,0,0:0:0:0:
256,192,297476,5,8,0:0:0:0:
256,192,297564,5,0,0:0:0:0:
256,192,297740,5,8,0:0:0:0:
256,192,297917,5,0,0:0:0:0:
256,192,298093,5,8,0:0:0:0:
256,192,298182,1,8,0:0:0:0:
256,192,298270,5,0,0:0:0:0:
256,192,298446,5,8,0:0:0:0:
256,192,298623,5,0,0:0:0:0:
256,192,298976,5,8,0:0:0:0:
256,192,299329,5,4,0:0:0:0:
256,192,299682,5,8,0:0:0:0:
256,192,300034,5,0,0:0:0:0:
256,192,300387,5,8,0:0:0:0:
256,192,300740,5,4,0:0:0:0:
256,192,301005,5,8,0:0:0:0:
256,192,301093,5,0,0:0:0:0:
256,192,301270,5,8,0:0:0:0:
256,192,301446,5,0,0:0:0:0:
256,192,301799,5,8,0:0:0:0:
256,192,302152,5,4,0:0:0:0:
256,192,302329,5,8,0:0:0:0:
256,192,302417,1,8,0:0:0:0:
256,192,302505,5,0,0:0:0:0:
256,192,302682,5,8,0:0:0:0:
256,192,302858,5,4,0:0:0:0:
256,192,303034,5,8,0:0:0:0:
256,192,303123,1,8,0:0:0:0:
256,192,303211,5,0,0:0:0:0:
256,192,303387,5,8,0:0:0:0:
256,192,303564,5,0,0:0:0:0:
256,192,303652,1,0,0:0:0:0:
256,192,303740,1,0,0:0:0:0:
256,192,303829,1,0,0:0:0:0:
256,192,303917,5,8,0:0:0:0:
256,192,304005,1,8,0:0:0:0:
256,192,304093,1,8,0:0:0:0:
256,192,304182,1,8,0:0:0:0:
256,192,304270,5,0,0:0:0:0:
256,192,304329,1,0,0:0:0:0:
256,192,304387,1,0,0:0:0:0:
256,192,304446,1,0,0:0:0:0:
256,192,304505,1,0,0:0:0:0:
256,192,304564,1,0,0:0:0:0:
256,192,304976,6,0,L|32:192,7,210.000008010865
256,192,307799,5,0,0:0:0:0:
256,192,307976,5,8,0:0:0:0:
256,192,308064,1,8,0:0:0:0:
256,192,308152,5,0,0:0:0:0:
256,192,308329,5,8,0:0:0:0:
256,192,308505,5,0,0:0:0:0:
256,192,308593,5,8,0:0:0:0:
256,192,308770,1,8,0:0:0:0:
256,192,308858,5,0,0:0:0:0:
256,192,309034,5,8,0:0:0:0:
256,192,309211,5,0,0:0:0:0:
256,192,309387,5,8,0:0:0:0:
256,192,309476,1,8,0:0:0:0:
256,192,309564,5,0,0:0:0:0:
256,192,309740,5,8,0:0:0:0:
256,192,309917,5,0,0:0:0:0:
256,192,310005,1,0,0:0:0:0:
256,192,310093,5,8,0:0:0:0:
256,192,310270,5,0,0:0:0:0:
256,192,310446,5,8,0:0:0:0:
256,192,310623,5,0,0:0:0:0:
256,192,310799,5,8,0:0:0:0:
256,192,310887,1,8,0:0:0:0:
256,192,310976,5,0,0:0:0:0:
256,192,311152,5,8,0:0:0:0:
256,192,311329,5,0,0:0:0:0:
256,192,311417,5,8,0:0:0:0:
256,192,311593,1,8,0:0:0:0:
256,192,311682,5,0,0:0:0:0:
256,192,311858,5,8,0:0:0:0:
256,192,312034,5,0,0:0:0:0:
256,192,312123,5,0,0:0:0:0:
256,192,312211,5,8,0:0:0:0:
256,192,312299,1,8,0:0:0:0:
256,192,312387,5,0,0:0:0:0:
256,192,312476,1,0,0:0:0:0:
256,192,312564,5,8,0:0:0:0:
256,192,312740,5,0,0:0:0:0:
256,192,312917,1,0,0:0:0:0:
256,192,313093,5,8,0:0:0:0:
256,192,313182,1,8,0:0:0:0:
256,192,313270,1,8,0:0:0:0:
256,192,313446,5,0,0:0:0:0:
256,192,313623,5,8,0:0:0:0:
256,192,313711,1,8,0:0:0:0:
256,192,313799,5,0,0:0:0:0:
256,192,313976,5,8,0:0:0:0:
256,192,314152,5,0,0:0:0:0:
256,192,314240,5,8,0:0:0:0:
256,192,314417,1,8,0:0:0:0:
256,192,314505,5,0,0:0:0:0:
256,192,314682,5,8,0:0:0:0:
256,192,314858,5,0,0:0:0:0:
256,192,315034,5,8,0:0:0:0:
256,192,315123,1,8,0:0:0:0:
256,192,315211,5,0,0:0:0:0:
256,192,315387,5,8,0:0:0:0:
256,192,315564,5,0,0:0:0:0:
256,192,315652,5,0,0:0:0:0:
256,192,315740,5,8,0:0:0:0:
256,192,315917,5,0,0:0:0:0:
256,192,316093,5,8,0:0:0:0:
256,192,316270,5,0,0:0:0:0:
256,192,316446,5,8,0:0:0:0:
256,192,316534,1,8,0:0:0:0:
256,192,316623,5,0,0:0:0:0:
256,192,316799,5,8,0:0:0:0:
256,192,316976,5,0,0:0:0:0:
256,192,317064,1,0,0:0:0:0:
256,192,317152,1,8,0:0:0:0:
256,192,317240,5,8,0:0:0:0:
256,192,317329,5,0,0:0:0:0:
256,192,317505,5,8,0:0:0:0:
256,192,317682,5,0,0:0:0:0:
256,192,317858,5,8,0:0:0:0:
256,192,317946,1,8,0:0:0:0:
256,192,318034,1,8,0:0:0:0:
256,192,318211,1,8,0:0:0:0:
256,192,318387,1,8,0:0:0:0:
256,192,318564,5,8,0:0:0:0:
256,192,318740,5,8,0:0:0:0:
256,192,318829,1,8,0:0:0:0:
256,192,318917,1,8,0:0:0:0:
256,192,319093,5,4,0:0:0:0:
256,192,319270,5,8,0:0:0:0:
256,192,319358,1,8,0:0:0:0:
256,192,319446,5,0,0:0:0:0:
256,192,319623,5,8,0:0:0:0:
256,192,319799,5,0,0:0:0:0:
256,192,319887,5,8,0:0:0:0:
256,192,320064,1,8,0:0:0:0:
256,192,320152,5,0,0:0:0:0:
256,192,320329,5,8,0:0:0:0:
256,192,320505,5,4,0:0:0:0:
256,192,320682,5,8,0:0:0:0:
256,192,320770,1,8,0:0:0:0:
256,192,320858,5,0,0:0:0:0:
256,192,321034,5,8,0:0:0:0:
256,192,321211,5,0,0:0:0:0:
256,192,321299,5,8,0:0:0:0:
256,192,321564,5,4,0:0:0:0:
256,192,321917,1,4,0:0:0:0:
256,192,322093,5,8,0:0:0:0:
256,192,322182,1,8,0:0:0:0:
256,192,322270,5,0,0:0:0:0:
256,192,322446,5,8,0:0:0:0:
256,192,322623,5,0,0:0:0:0:
256,192,322711,5,8,0:0:0:0:
256,192,322887,1,8,0:0:0:0:
256,192,322976,5,0,0:0:0:0:
256,192,323152,5,8,0:0:0:0:
256,192,323329,5,4,0:0:0:0:
256,192,323505,5,8,0:0:0:0:
256,192,323593,1,8,0:0:0:0:
256,192,323682,5,0,0:0:0:0:
256,192,323770,1,0,0:0:0:0:
256,192,323858,5,8,0:0:0:0:
256,192,324034,5,0,0:0:0:0:
256,192,324211,1,0,0:0:0:0:
256,192,324387,5,8,0:0:0:0:
256,192,324476,1,8,0:0:0:0:
256,192,324564,1,8,0:0:0:0:
256,192,324740,5,4,0:0:0:0:
256,192,324917,5,8,0:0:0:0:
256,192,325005,1,8,0:0:0:0:
256,192,325093,5,0,0:0:0:0:
256,192,325270,5,8,0:0:0:0:
256,192,325446,5,0,0:0:0:0:
256,192,325534,5,8,0:0:0:0:
256,192,325711,1,8,0:0:0:0:
256,192,325799,5,0,0:0:0:0:
256,192,325976,5,8,0:0:0:0:
256,192,326152,5,4,0:0:0:0:
256,192,326329,5,8,0:0:0:0:
256,192,326417,1,8,0:0:0:0:
256,192,326505,5,0,0:0:0:0:
256,192,326682,5,8,0:0:0:0:
256,192,326858,5,0,0:0:0:0:
256,192,326946,5,8,0:0:0:0:
256,192,327211,5,4,0:0:0:0:
256,192,327564,5,4,0:0:0:0:
256,192,327740,5,8,0:0:0:0:
256,192,327829,1,8,0:0:0:0:
256,192,327917,5,0,0:0:0:0:
256,192,328093,5,8,0:0:0:0:
256,192,328270,5,0,0:0:0:0:
256,192,328358,5,8,0:0:0:0:
256,192,328534,1,8,0:0:0:0:
256,192,328623,5,0,0:0:0:0:
256,192,328799,5,8,0:0:0:0:
256,192,328976,5,4,0:0:0:0:
256,192,329152,5,8,0:0:0:0:
256,192,329240,1,8,0:0:0:0:
256,192,329329,1,8,0:0:0:0:
256,192,329505,1,8,0:0:0:0:
256,192,329593,1,8,0:0:0:0:
256,192,329682,1,8,0:0:0:0:
256,192,329858,1,8,0:0:0:0:
256,192,329946,1,8,0:0:0:0:
256,192,330034,1,8,0:0:0:0:
256,192,330211,1,8,0:0:0:0:
256,192,330387,5,4,0:0:0:0:
256,192,330652,5,8,0:0:0:0:
256,192,330740,5,0,0:0:0:0:
256,192,330917,5,8,0:0:0:0:
256,192,331093,5,0,0:0:0:0:
256,192,331182,1,0,0:0:0:0:
256,192,331358,1,0,0:0:0:0:
256,192,331446,5,8,0:0:0:0:
256,192,331623,1,8,0:0:0:0:
256,192,331799,5,4,0:0:0:0:
256,192,331976,5,8,0:0:0:0:
256,192,332064,1,8,0:0:0:0:
256,192,332152,5,0,0:0:0:0:
256,192,332240,5,8,0:0:0:0:
256,192,332417,1,8,0:0:0:0:
256,192,332505,5,0,0:0:0:0:
256,192,332682,1,0,0:0:0:0:
256,192,332858,5,12,0:0:0:0:
256,192,333211,5,4,0:0:0:0:
256,192,333476,5,8,0:0:0:0:
256,192,333564,5,0,0:0:0:0:
256,192,333740,5,8,0:0:0:0:
256,192,333917,5,0,0:0:0:0:
256,192,334005,5,8,0:0:0:0:
256,192,334182,1,8,0:0:0:0:
256,192,334270,5,0,0:0:0:0:
256,192,334446,5,8,0:0:0:0:
256,192,334623,5,4,0:0:0:0:
256,192,334799,5,8,0:0:0:0:
256,192,334887,1,8,0:0:0:0:
256,192,334976,5,0,0:0:0:0:
256,192,335152,5,8,0:0:0:0:
256,192,335240,1,8,0:0:0:0:
256,192,335329,5,0,0:0:0:0:
256,192,335417,1,0,0:0:0:0:
256,192,335505,1,0,0:0:0:0:
256,192,335682,5,12,0:0:0:0:
256,192,336034,5,4,0:0:0:0:
256,192,336299,5,8,0:0:0:0:
256,192,336387,5,0,0:0:0:0:
256,192,336564,5,8,0:0:0:0:
256,192,336740,5,0,0:0:0:0:
256,192,336829,1,0,0:0:0:0:
256,192,337005,1,0,0:0:0:0:
256,192,337093,5,8,0:0:0:0:
256,192,337270,1,8,0:0:0:0:
256,192,337446,5,4,0:0:0:0:
256,192,337623,5,8,0:0:0:0:
256,192,337711,1,8,0:0:0:0:
256,192,337799,5,0,0:0:0:0:
256,192,337887,5,8,0:0:0:0:
256,192,338064,1,8,0:0:0:0:
256,192,338152,5,0,0:0:0:0:
256,192,338329,1,0,0:0:0:0:
256,192,338505,5,12,0:0:0:0:
256,192,338858,5,4,0:0:0:0:
256,192,339123,5,8,0:0:0:0:
256,192,339211,5,0,0:0:0:0:
256,192,339387,5,8,0:0:0:0:
256,192,339564,5,0,0:0:0:0:
256,192,339652,5,8,0:0:0:0:
256,192,339829,1,8,0:0:0:0:
256,192,339917,5,0,0:0:0:0:
256,192,340005,1,0,0:0:0:0:
256,192,340093,5,8,0:0:0:0:
256,192,340270,5,0,0:0:0:0:
256,192,340358,1,0,0:0:0:0:
256,192,340446,5,8,0:0:0:0:
256,192,340534,1,8,0:0:0:0:
256,192,340623,5,0,0:0:0:0:
256,192,340711,1,0,0:0:0:0:
256,192,340799,5,8,0:0:0:0:
256,192,340887,1,8,0:0:0:0:
256,192,340976,5,0,0:0:0:0:
256,192,341152,1,0,0:0:0:0:
256,192,341240,1,0,0:0:0:0:
256,192,341329,5,8,0:0:0:0:
256,192,341417,1,8,0:0:0:0:
256,192,341505,1,8,0:0:0:0:
256,192,341682,5,4,0:0:0:0:
256,192,341858,5,8,0:0:0:0:
256,192,341946,1,8,0:0:0:0:
256,192,342034,5,0,0:0:0:0:
256,192,342211,5,8,0:0:0:0:
256,192,342387,5,4,0:0:0:0:
256,192,342564,5,8,0:0:0:0:
256,192,342652,1,8,0:0:0:0:
256,192,342740,1,8,0:0:0:0:
256,192,342917,1,8,0:0:0:0:
256,192,343093,5,4,0:0:0:0:
256,192,343270,5,8,0:0:0:0:
256,192,343358,5,0,0:0:0:0:
256,192,343446,5,8,0:0:0:0:
256,192,343623,1,8,0:0:0:0:
256,192,343799,5,4,0:0:0:0:
256,192,343976,5,8,0:0:0:0:
256,192,344152,5,4,0:0:0:0:
256,192,344329,5,8,0:0:0:0:
256,192,344505,5,4,0:0:0:0:
256,192,344682,5,8,0:0:0:0:
256,192,344770,1,8,0:0:0:0:
256,192,344858,5,0,0:0:0:0:
256,192,345034,5,8,0:0:0:0:
256,192,345211,5,4,0:0:0:0:
256,192,345387,5,8,0:0:0:0:
256,192,345476,1,8,0:0:0:0:
256,192,345564,1,8,0:0:0:0:
256,192,345740,1,8,0:0:0:0:
256,192,345917,5,4,0:0:0:0:
256,192,346093,5,8,0:0:0:0:
256,192,346182,1,8,0:0:0:0:
256,192,346270,5,0,0:0:0:0:
256,192,346446,5,8,0:0:0:0:
256,192,346623,5,4,0:0:0:0:
256,192,346799,5,8,0:0:0:0:
256,192,346976,5,4,0:0:0:0:
256,192,347152,1,4,0:0:0:0:
256,192,347329,1,4,0:0:0:0:
256,192,347505,5,8,0:0:0:0:
256,192,347593,1,8,0:0:0:0:
256,192,347682,5,0,0:0:0:0:
256,192,347858,5,8,0:0:0:0:
256,192,348034,5,4,0:0:0:0:
256,192,348211,5,8,0:0:0:0:
256,192,348299,1,8,0:0:0:0:
256,192,348387,1,8,0:0:0:0:
256,192,348564,1,8,0:0:0:0:
256,192,348740,5,4,0:0:0:0:
256,192,348917,5,8,0:0:0:0:
256,192,349005,5,0,0:0:0:0:
256,192,349093,5,8,0:0:0:0:
256,192,349270,1,8,0:0:0:0:
256,192,349446,5,4,0:0:0:0:
256,192,349623,5,8,0:0:0:0:
256,192,349799,5,4,0:0:0:0:
256,192,349976,1,0,0:0:0:0:
256,192,350152,5,12,0:0:0:0:
256,192,350505,1,12,0:0:0:0:
256,192,350858,1,12,0:0:0:0:
256,192,351034,1,12,0:0:0:0:
256,192,351211,1,12,0:0:0:0:
256,192,351387,1,12,0:0:0:0:
256,192,351564,1,8,0:0:0:0:
256,192,351659,1,8,0:0:0:0:
256,192,351773,1,8,0:0:0:0:
256,192,351924,1,8,0:0:0:0:
256,192,352107,1,8,0:0:0:0:
256,192,352330,1,8,0:0:0:0:
256,192,352607,1,8,0:0:0:0:
256,192,352974,1,12,0:0:0:0:
256,192,354394,5,4,0:0:0:0:
256,192,358364,6,4,L|160:192,11,70
256,192,359864,5,0,0:0:0:0:
256,192,359952,1,0,0:0:0:0:
256,192,360041,5,8,0:0:0:0:
256,192,360217,1,8,0:0:0:0:
256,192,360394,1,8,0:0:0:0:
256,192,360570,5,0,0:0:0:0:
256,192,360658,5,8,0:0:0:0:
256,192,360835,1,8,0:0:0:0:
256,192,361011,5,0,0:0:0:0:
256,192,361099,1,0,0:0:0:0:
256,192,361188,1,0,0:0:0:0:
256,192,361276,5,8,0:0:0:0:
256,192,361452,5,4,0:0:0:0:
256,192,361629,1,8,0:0:0:0:
256,192,361805,5,0,0:0:0:0:
256,192,361982,5,8,0:0:0:0:
256,192,362158,5,0,0:0:0:0:
256,192,362335,5,8,0:0:0:0:
256,192,362511,5,0,0:0:0:0:
256,192,362599,1,0,0:0:0:0:
256,192,362688,5,8,0:0:0:0:
256,192,362864,5,0,0:0:0:0:
256,192,363041,1,8,0:0:0:0:
256,192,363217,5,0,0:0:0:0:
256,192,363394,5,8,0:0:0:0:
256,192,363570,5,0,0:0:0:0:
256,192,363746,5,8,0:0:0:0:
256,192,363923,5,0,0:0:0:0:
256,192,364011,1,0,0:0:0:0:
256,192,364099,5,8,0:0:0:0:
256,192,364188,1,8,0:0:0:0:
256,192,364276,5,0,0:0:0:0:
256,192,364452,1,8,0:0:0:0:
256,192,364629,5,0,0:0:0:0:
256,192,364805,5,8,0:0:0:0:
256,192,364982,5,0,0:0:0:0:
256,192,365158,5,8,0:0:0:0:
256,192,365335,5,0,0:0:0:0:
256,192,365423,1,0,0:0:0:0:
256,192,365511,5,8,0:0:0:0:
256,192,365688,5,0,0:0:0:0:
256,192,365864,1,8,0:0:0:0:
256,192,366041,5,0,0:0:0:0:
256,192,366217,5,8,0:0:0:0:
256,192,366394,5,0,0:0:0:0:
256,192,366570,5,8,0:0:0:0:
256,192,366746,5,0,0:0:0:0:
256,192,366835,1,0,0:0:0:0:
256,192,366923,5,8,0:0:0:0:
256,192,367011,1,8,0:0:0:0:
256,192,367099,5,0,0:0:0:0:
256,192,367276,1,8,0:0:0:0:
256,192,367452,5,0,0:0:0:0:
256,192,367629,5,8,0:0:0:0:
256,192,367805,5,0,0:0:0:0:
256,192,367982,5,8,0:0:0:0:
256,192,368158,5,0,0:0:0:0:
256,192,368246,1,0,0:0:0:0:
256,192,368335,5,8,0:0:0:0:
256,192,368511,5,0,0:0:0:0:
256,192,368688,1,8,0:0:0:0:
256,192,368864,5,0,0:0:0:0:
256,192,369041,5,8,0:0:0:0:
256,192,369217,5,0,0:0:0:0:
256,192,369394,5,8,0:0:0:0:
256,192,369570,5,0,0:0:0:0:
256,192,369658,1,0,0:0:0:0:
256,192,369746,1,8,0:0:0:0:
256,192,369835,1,8,0:0:0:0:
256,192,369923,5,0,0:0:0:0:
256,192,370099,1,8,0:0:0:0:
256,192,370276,5,0,0:0:0:0:
256,192,370452,5,8,0:0:0:0:
256,192,370629,5,0,0:0:0:0:
256,192,370805,5,8,0:0:0:0:
256,192,370982,5,0,0:0:0:0:
256,192,371070,1,0,0:0:0:0:
256,192,371158,5,8,0:0:0:0:
256,192,371335,5,0,0:0:0:0:
256,192,371511,1,8,0:0:0:0:
256,192,371688,5,0,0:0:0:0:
256,192,371864,5,8,0:0:0:0:
256,192,372041,5,0,0:0:0:0:
256,192,372217,5,8,0:0:0:0:
256,192,372394,5,0,0:0:0:0:
256,192,372482,1,0,0:0:0:0:
256,192,372570,5,8,0:0:0:0:
256,192,372746,5,4,0:0:0:0:
256,192,372923,1,8,0:0:0:0:
256,192,373099,5,0,0:0:0:0:
256,192,373276,5,8,0:0:0:0:
256,192,373452,5,0,0:0:0:0:
256,192,373629,5,8,0:0:0:0:
256,192,373805,5,0,0:0:0:0:
256,192,373894,1,0,0:0:0:0:
256,192,373982,5,8,0:0:0:0:
256,192,374158,5,0,0:0:0:0:
256,192,374335,1,8,0:0:0:0:
256,192,374511,5,0,0:0:0:0:
256,192,374688,5,8,0:0:0:0:
256,192,374864,5,0,0:0:0:0:
256,192,375041,5,8,0:0:0:0:
256,192,375217,5,8,0:0:0:0:
256,192,375305,1,8,0:0:0:0:
256,192,375394,1,8,0:0:0:0:
256,192,375482,1,8,0:0:0:0:
256,192,375570,5,0,0:0:0:0:
256,192,375746,1,8,0:0:0:0:
256,192,375923,5,0,0:0:0:0:
256,192,376099,5,8,0:0:0:0:
256,192,376276,5,0,0:0:0:0:
256,192,376452,5,8,0:0:0:0:
256,192,376629,5,0,0:0:0:0:
256,192,376717,1,0,0:0:0:0:
256,192,376805,5,8,0:0:0:0:
256,192,376982,5,0,0:0:0:0:
256,192,377158,1,8,0:0:0:0:
256,192,377335,5,0,0:0:0:0:
256,192,377511,5,8,0:0:0:0:
256,192,377688,5,0,0:0:0:0:
256,192,377864,5,8,0:0:0:0:
256,192,378041,5,8,0:0:0:0:
256,192,378129,1,8,0:0:0:0:
256,192,378217,1,8,0:0:0:0:
256,192,378305,1,8,0:0:0:0:
256,192,378394,5,0,0:0:0:0:
256,192,378570,1,8,0:0:0:0:
256,192,378746,5,0,0:0:0:0:
256,192,378923,5,8,0:0:0:0:
256,192,379099,5,0,0:0:0:0:
256,192,379276,5,8,0:0:0:0:
256,192,379452,5,0,0:0:0:0:
256,192,379541,1,0,0:0:0:0:
256,192,379629,5,8,0:0:0:0:
256,192,379805,5,0,0:0:0:0:
256,192,379982,1,8,0:0:0:0:
256,192,380158,5,0,0:0:0:0:
256,192,380335,5,8,0:0:0:0:
256,192,380511,5,0,0:0:0:0:
256,192,380688,5,8,0:0:0:0:
256,192,380864,1,8,0:0:0:0:
256,192,380952,1,8,0:0:0:0:
256,192,381041,1,8,0:0:0:0:
256,192,381129,1,8,0:0:0:0:
256,192,381217,5,0,0:0:0:0:
256,192,381394,1,8,0:0:0:0:
256,192,381570,5,0,0:0:0:0:
256,192,381746,5,8,0:0:0:0:
256,192,381923,5,0,0:0:0:0:
256,192,382099,5,8,0:0:0:0:
256,192,382276,5,0,0:0:0:0:
256,192,382629,6,0,L|112:192,3,140,0|0|0|0,0:0|0:0|0:0|0:0,0:0:0:0:
256,192,384041,5,0,0:0:0:0:
256,192,384217,5,8,0:0:0:0:
256,192,384394,5,0,0:0:0:0:
256,192,384570,5,8,0:0:0:0:
256,192,384746,5,0,0:0:0:0:
256,192,384923,5,8,0:0:0:0:
256,192,385099,1,8,0:0:0:0:
256,192,385452,5,0,0:0:0:0:
256,192,385629,5,8,0:0:0:0:
256,192,385805,5,0,0:0:0:0:
256,192,385982,5,8,0:0:0:0:
256,192,386158,5,0,0:0:0:0:
256,192,386335,5,8,0:0:0:0:
256,192,386511,1,8,0:0:0:0:
256,192,386599,1,8,0:0:0:0:
256,192,386688,1,8,0:0:0:0:
256,192,386776,1,8,0:0:0:0:
256,192,386864,5,0,0:0:0:0:
256,192,387041,5,8,0:0:0:0:
256,192,387217,5,0,0:0:0:0:
256,192,387394,5,8,0:0:0:0:
256,192,387570,5,0,0:0:0:0:
256,192,387746,5,8,0:0:0:0:
256,192,387923,1,8,0:0:0:0:
256,192,388276,5,0,0:0:0:0:
256,192,388452,5,8,0:0:0:0:
256,192,388629,1,8,0:0:0:0:
256,192,388805,5,0,0:0:0:0:
256,192,388982,1,0,0:0:0:0:
256,192,389158,5,8,0:0:0:0:
256,192,389335,1,8,0:0:0:0:
256,192,389688,5,0,0:0:0:0:
256,192,389864,5,8,0:0:0:0:
256,192,390041,5,0,0:0:0:0:
256,192,390217,5,8,0:0:0:0:
256,192,390394,5,0,0:0:0:0:
256,192,390570,5,8,0:0:0:0:
256,192,390746,1,8,0:0:0:0:
256,192,391099,5,0,0:0:0:0:
256,192,391276,5,8,0:0:0:0:
256,192,391452,5,0,0:0:0:0:
256,192,391629,5,8,0:0:0:0:
256,192,391805,1,8,0:0:0:0:
256,192,391982,5,0,0:0:0:0:
256,192,392158,5,8,0:0:0:0:
256,192,392246,1,8,0:0:0:0:
256,192,392335,1,8,0:0:0:0:
256,192,392423,1,8,0:0:0:0:
256,192,392511,5,0,0:0:0:0:
256,192,392688,5,8,0:0:0:0:
256,192,392864,5,0,0:0:0:0:
256,192,393041,5,8,0:0:0:0:
256,192,393217,5,0,0:0:0:0:
256,192,393394,5,8,0:0:0:0:
256,192,393570,1,8,0:0:0:0:
256,192,393923,5,0,0:0:0:0:
256,192,394099,1,0,0:0:0:0:
256,192,394276,5,8,0:0:0:0:
256,192,394452,5,0,0:0:0:0:
256,192,394629,1,0,0:0:0:0:
256,192,394805,5,8,0:0:0:0:
256,192,394982,1,8,0:0:0:0:
256,192,395335,5,0,0:0:0:0:
256,192,395599,5,8,0:0:0:0:
256,192,395688,5,0,0:0:0:0:
256,192,395864,5,8,0:0:0:0:
256,192,396041,5,0,0:0:0:0:
256,192,396305,5,8,0:0:0:0:
256,192,396394,5,0,0:0:0:0:
256,192,396570,5,8,0:0:0:0:
256,192,396746,5,0,0:0:0:0:
256,192,397011,5,8,0:0:0:0:
256,192,397099,5,0,0:0:0:0:
256,192,397276,5,8,0:0:0:0:
256,192,397452,5,0,0:0:0:0:
256,192,397629,5,8,0:0:0:0:
256,192,397717,1,8,0:0:0:0:
256,192,397805,5,0,0:0:0:0:
256,192,397982,1,0,0:0:0:0:
256,192,398158,1,0,0:0:0:0:
256,192,398423,5,8,0:0:0:0:
256,192,398511,5,0,0:0:0:0:
256,192,398688,5,8,0:0:0:0:
256,192,398864,5,0,0:0:0:0:
256,192,399129,5,8,0:0:0:0:
256,192,399217,5,0,0:0:0:0:
256,192,399394,5,8,0:0:0:0:
256,192,399570,5,0,0:0:0:0:
256,192,399835,5,8,0:0:0:0:
256,192,399923,5,0,0:0:0:0:
256,192,400099,5,8,0:0:0:0:
256,192,400276,5,0,0:0:0:0:
256,192,400452,1,0,0:0:0:0:
256,192,400629,1,0,0:0:0:0:
256,192,400805,1,0,0:0:0:0:
256,192,400982,1,0,0:0:0:0:
256,192,401246,5,8,0:0:0:0:
256,192,401335,5,0,0:0:0:0:
256,192,401511,5,8,0:0:0:0:
256,192,401688,5,0,0:0:0:0:
256,192,401952,5,8,0:0:0:0:
256,192,402041,5,0,0:0:0:0:
256,192,402217,5,8,0:0:0:0:
256,192,402394,5,0,0:0:0:0:
256,192,402658,5,8,0:0:0:0:
256,192,402746,5,0,0:0:0:0:
256,192,402923,5,8,0:0:0:0:
256,192,403099,5,0,0:0:0:0:
256,192,403452,5,0,0:0:0:0:
256,192,403541,1,0,0:0:0:0:
256,192,403629,1,0,0:0:0:0:
256,192,403717,1,0,0:0:0:0:
256,192,403805,1,0,0:0:0:0:
256,192,403982,1,0,0:0:0:0:
256,192,404158,1,0,0:0:0:0:
256,192,404335,1,0,0:0:0:0:
256,192,404511,5,8,0:0:0:0:
256,192,404688,1,8,0:0:0:0:
256,192,404864,1,8,0:0:0:0:
256,192,405041,1,8,0:0:0:0:
256,192,405217,1,0,0:0:0:0:
256,192,405305,1,0,0:0:0:0:
256,192,405393,1,0,0:0:0:0:
256,192,405482,1,0,0:0:0:0:
256,192,405570,5,8,0:0:0:0:
256,192,405658,1,8,0:0:0:0:
256,192,405746,1,8,0:0:0:0:
256,192,405923,6,0,L|44:192,1,210
256,192,406629,1,0,0:0:0:0:
256,192,406805,5,8,0:0:0:0:
256,192,406893,1,8,0:0:0:0:
256,192,406982,5,0,0:0:0:0:
256,192,407158,5,8,0:0:0:0:
256,192,407335,5,0,0:0:0:0:
256,192,407511,5,8,0:0:0:0:
256,192,407599,1,8,0:0:0:0:
256,192,407688,5,0,0:0:0:0:
256,192,407864,5,8,0:0:0:0:
256,192,408041,5,0,0:0:0:0:
256,192,408217,5,8,0:0:0:0:
256,192,408305,1,8,0:0:0:0:
256,192,408393,5,0,0:0:0:0:
256,192,408570,5,8,0:0:0:0:
256,192,408746,5,0,0:0:0:0:
256,192,408923,5,8,0:0:0:0:
256,192,409011,1,8,0:0:0:0:
256,192,409099,5,0,0:0:0:0:
256,192,409188,1,0,0:0:0:0:
256,192,409276,5,8,0:0:0:0:
256,192,409364,1,8,0:0:0:0:
256,192,409452,5,0,0:0:0:0:
256,192,409629,5,8,0:0:0:0:
256,192,409805,5,0,0:0:0:0:
256,192,409982,5,8,0:0:0:0:
256,192,410070,1,8,0:0:0:0:
256,192,410158,5,0,0:0:0:0:
256,192,410335,5,8,0:0:0:0:
256,192,410511,5,0,0:0:0:0:
256,192,410688,5,8,0:0:0:0:
256,192,410776,1,8,0:0:0:0:
256,192,410864,5,0,0:0:0:0:
256,192,411041,5,8,0:0:0:0:
256,192,411217,5,0,0:0:0:0:
256,192,411393,5,8,0:0:0:0:
256,192,411570,5,0,0:0:0:0:
256,192,411746,5,8,0:0:0:0:
256,192,411923,5,0,0:0:0:0:
256,192,412011,1,0,0:0:0:0:
256,192,412099,5,8,0:0:0:0:
256,192,412188,1,8,0:0:0:0:
256,192,412276,5,0,0:0:0:0:
256,192,412452,5,8,0:0:0:0:
256,192,412629,5,0,0:0:0:0:
256,192,412805,5,8,0:0:0:0:
256,192,412893,1,8,0:0:0:0:
256,192,412982,5,0,0:0:0:0:
256,192,413158,5,8,0:0:0:0:
256,192,413335,5,0,0:0:0:0:
256,192,413511,5,8,0:0:0:0:
256,192,413599,1,8,0:0:0:0:
256,192,413688,5,0,0:0:0:0:
256,192,413864,5,8,0:0:0:0:
256,192,414041,5,0,0:0:0:0:
256,192,414217,5,8,0:0:0:0:
256,192,414393,5,0,0:0:0:0:
256,192,414570,5,8,0:0:0:0:
256,192,414746,5,0,0:0:0:0:
256,192,414923,5,8,0:0:0:0:
256,192,415099,5,0,0:0:0:0:
256,192,415188,5,8,0:0:0:0:
256,192,415276,5,0,0:0:0:0:
256,192,415364,5,8,0:0:0:0:
256,192,415452,5,0,0:0:0:0:
256,192,415541,5,8,0:0:0:0:
256,192,415629,5,0,0:0:0:0:
256,192,415717,1,8,0:0:0:0:
256,192,415805,5,0,0:0:0:0:
256,192,415893,1,0,0:0:0:0:
256,192,415982,1,0,0:0:0:0:
256,192,416070,1,0,0:0:0:0:
256,192,416158,1,0,0:0:0:0:
256,192,416246,1,0,0:0:0:0:
256,192,416335,1,0,0:0:0:0:
256,192,416423,1,0,0:0:0:0:
256,192,416511,1,0,0:0:0:0:
256,192,416688,5,8,0:0:0:0:
256,192,416864,5,0,0:0:0:0:
256,192,417041,5,8,0:0:0:0:
256,192,417393,5,0,0:0:0:0:
256,192,417746,5,8,0:0:0:0:
256,192,419335,5,4,0:0:0:0:
