osu file format v14

[General]
AudioFilename: Soitogeta Andoroide e Short Ver.mp3
AudioLeadIn: 0
PreviewTime: 4
Countdown: 1
SampleSet: None
StackLeniency: 0.7
Mode: 0
LetterboxInBreaks: 1
WidescreenStoryboard: 0

[Editor]
Bookmarks: 9244,49665,55980,59770
DistanceSpacing: 1.2
BeatDivisor: 4
GridSize: 4
TimelineZoom: 2.3

[Metadata]
Title:Soitogeta Android he
TitleUnicode:添い遂げたアンドロイドへ
Artist:Mofu@
ArtistUnicode:もふ@
Creator:-PC
Version:Soitogeta Asfano he
Source:
Tags:Vocaloid Hatsune Miku
BeatmapID:693998
BeatmapSetID:310479

[Difficulty]
HPDrainRate:5
CircleSize:4
OverallDifficulty:8
ApproachRate:9
SliderMultiplier:1.7
SliderTickRate:1

[Events]
//Background and Video events
0,0,"asfanobg.jpg",0,0
//Break Periods
//Storyboard Layer 0 (Background)
//Storyboard Layer 1 (Fail)
//Storyboard Layer 2 (Pass)
//Storyboard Layer 3 (Foreground)
//Storyboard Sound Samples

[TimingPoints]
9244,315.789473684211,4,1,0,60,1,0
18717,-111.111111111111,4,1,0,60,0,0
19349,-90.9090909090909,4,1,0,60,0,0
29454,-76.9230769230769,4,1,0,70,0,1
49665,-100,4,1,0,70,0,1
56296,-83.3333333333333,4,1,0,70,0,1
59773,-100,4,1,0,70,0,0

[HitObjects]
64,228,9244,5,0,0:0:0:0:
100,116,9401,1,0,0:0:0:0:
216,256,9875,5,0,0:0:0:0:
180,112,10033,1,0,0:0:0:0:
296,288,10507,5,0,0:0:0:0:
376,236,10665,1,0,0:0:0:0:
380,336,10980,5,0,0:0:0:0:
464,204,11138,1,0,0:0:0:0:
288,200,11296,1,0,0:0:0:0:
464,300,11454,1,0,0:0:0:0:
372,144,11612,1,0,0:0:0:0:
220,248,11770,5,0,0:0:0:0:
288,120,11928,1,0,0:0:0:0:
132,272,12401,5,0,0:0:0:0:
184,120,12559,1,0,0:0:0:0:
200,332,13033,5,0,0:0:0:0:
156,200,13191,1,0,0:0:0:0:
296,352,13507,5,0,0:0:0:0:
424,228,13665,1,0,0:0:0:0:
268,256,13822,1,0,0:0:0:0:
400,344,13980,1,0,0:0:0:0:
328,172,14138,1,0,0:0:0:0:
236,176,14296,5,0,0:0:0:0:
408,148,14454,1,0,0:0:0:0:
336,92,14928,5,0,0:0:0:0:
176,124,15086,1,0,0:0:0:0:
160,200,15559,5,0,0:0:0:0:
17,110,15717,1,0,0:0:0:0:
56,284,16033,5,0,0:0:0:0:
92,132,16191,1,0,0:0:0:0:
188,320,16349,1,0,0:0:0:0:
40,188,16507,1,0,0:0:0:0:
216,252,16665,1,0,0:0:0:0:
104,352,16822,5,0,0:0:0:0:
216,252,16980,1,0,0:0:0:0:
408,352,17454,5,0,0:0:0:0:
296,252,17612,1,0,0:0:0:0:
396,72,18086,6,0,B|396:96|396:96|412:136|404:180,1,85
480,164,18717,6,0,B|464:224|416:232|416:232|364:288,1,152.999995330811
76,64,19349,6,0,B|136:40|200:52|200:52|204:80|160:96,1,187.000005706787
128,256,19980,2,0,B|104:232|104:232|96:164|76:136,1,93.5000028533936
184,184,20612,2,0,B|264:148|272:88|272:88|308:92|304:128,1,187.000005706787
344,224,21086,5,0,0:0:0:0:
216,260,21244,1,0,0:0:0:0:
348,316,21401,1,0,0:0:0:0:
256,340,21559,1,0,0:0:0:0:
272,172,21717,1,0,0:0:0:0:
48,244,21875,6,0,B|76:264|76:264|88:344|88:344|140:320|172:348,1,187.000005706787
408,136,22507,2,0,P|352:120|308:136,1,93.5000028533936
240,108,23138,2,0,B|250:107|233:138|233:138|245:174|289:226|289:226|273:274,1,187.000005706787
148,352,23612,5,0,0:0:0:0:
56,200,23770,1,0,0:0:0:0:
248,216,23928,1,0,0:0:0:0:
48,328,24086,1,0,0:0:0:0:
140,256,24244,1,0,0:0:0:0:
32,160,24401,6,0,B|76:172|115:167|115:167|120:152|96:136,1,93.5000028533936
115,158,24717,1,0,0:0:0:0:
228,40,25033,2,0,B|237:77|237:77|227:101|227:101|229:137,1,93.5000028533936
228,130,25349,1,0,0:0:0:0:
284,320,25665,2,0,B|254:294|254:294|266:258|250:242,1,93.5000028533936
250,242,25980,1,0,0:0:0:0:
136,100,26138,5,0,0:0:0:0:
376,72,26296,2,0,P|308:80|276:104,1,93.5000028533936
188,176,26612,1,0,0:0:0:0:
308,176,26770,1,0,0:0:0:0:
36,336,26928,6,0,P|114:338|148:336,1,93.5000028533936
168,332,27244,1,0,0:0:0:0:
372,284,27401,1,0,0:0:0:0:
333,279,27560,6,0,P|286:277|239:280,1,93.5000028533936
204,292,27875,1,0,0:0:0:0:
108,148,28033,1,0,0:0:0:0:
96,184,28191,6,0,P|92:272|96:296,1,93.5000028533936
208,336,28507,1,0,0:0:0:0:
238,347,28585,1,0,0:0:0:0:
270,351,28664,1,0,0:0:0:0:
303,348,28743,1,0,0:0:0:0:
333,337,28822,1,0,0:0:0:0:
345,297,28900,1,0,0:0:0:0:
371,263,28979,1,0,0:0:0:0:
407,242,29058,1,0,0:0:0:0:
448,234,29138,1,0,0:0:0:0:
486,258,29216,1,0,0:0:0:0:
490,303,29295,1,0,0:0:0:0:
456,332,29374,1,0,0:0:0:0:
412,323,29454,6,0,P|332:288|296:248,1,110.499994941712
96,84,29770,2,0,P|176:119|212:159,1,110.499994941712
188,352,30086,2,0,P|174:293|182:233,1,110.499994941712
292,8,30401,2,0,P|306:67|298:127,1,110.499994941712
301,116,30717,2,0,P|315:175|307:235,1,110.499994941712
408,336,31033,5,0,0:0:0:0:
184,144,31191,1,0,0:0:0:0:
416,204,31349,1,0,0:0:0:0:
224,312,31507,1,0,0:0:0:0:
312,116,31665,1,0,0:0:0:0:
120,260,31822,1,0,0:0:0:0:
452,248,31980,6,0,P|362:217|312:216,1,110.499994941712
28,268,32296,2,0,P|117:298|168:300,1,110.499994941712
236,24,32612,2,0,P|237:97|252:152,1,110.499994941712
248,360,32928,2,0,P|246:286|232:232,1,110.499994941712
373,30,33243,5,0,0:0:0:0:
443,142,33401,1,0,0:0:0:0:
330,213,33559,1,0,0:0:0:0:
260,100,33717,1,0,0:0:0:0:
69,242,33875,5,0,0:0:0:0:
139,354,34033,1,0,0:0:0:0:
252,284,34191,1,0,0:0:0:0:
182,171,34349,1,0,0:0:0:0:
300,360,34507,6,0,P|332:308|328:244,1,110.499994941712
423,237,34822,6,0,P|394:184|337:155,1,110.499994941712
284,56,35138,6,0,P|252:108|256:172,1,110.499994941712
152,188,35454,6,0,P|181:241|238:270,1,110.499994941712
348,264,35770,6,0,P|319:211|262:182,1,110.499994941712
176,76,36086,1,0,0:0:0:0:
100,292,36244,1,0,0:0:0:0:
300,116,36401,1,0,0:0:0:0:
228,344,36559,1,0,0:0:0:0:
98,178,36717,1,0,0:0:0:0:
264,49,36875,1,0,0:0:0:0:
393,214,37033,5,0,0:0:0:0:
98,178,37191,1,0,0:0:0:0:
336,316,37349,1,0,0:0:0:0:
132,68,37507,1,0,0:0:0:0:
480,180,37665,2,0,B|404:136|404:136|352:136,1,110.499994941712
72,328,37980,2,0,B|148:284|148:284|168:256,1,110.499994941712
379,224,38296,5,0,0:0:0:0:
226,282,38454,1,0,0:0:0:0:
168,130,38612,1,0,0:0:0:0:
321,71,38770,1,0,0:0:0:0:
315,284,38928,1,0,0:0:0:0:
165,218,39086,1,0,0:0:0:0:
232,68,39244,1,0,0:0:0:0:
381,136,39401,1,0,0:0:0:0:
60,40,39559,6,0,P|60:104|68:156,1,110.499994941712
176,343,39875,2,0,P|176:279|168:227,1,110.499994941712
248,80,40191,2,0,P|248:144|256:196,1,110.499994941712
364,383,40507,2,0,P|364:319|356:267,1,110.499994941712
396,20,40822,2,0,P|396:84|404:136,1,110.499994941712
512,323,41138,2,0,P|512:259|504:207,1,110.499994941712
380,104,41454,5,0,0:0:0:0:
364,260,41612,1,0,0:0:0:0:
184,168,41770,1,0,0:0:0:0:
456,176,41928,1,0,0:0:0:0:
232,268,42086,6,0,P|152:248|104:208,1,110.499994941712
296,156,42401,2,0,P|376:176|424:216,1,110.499994941712
152,344,42717,2,0,P|83:297|52:243,1,110.499994941712
320,240,43033,2,0,P|388:286|419:340,1,110.499994941712
312,340,43349,2,0,P|243:293|212:239,1,110.499994941712
172,76,43665,5,0,0:0:0:0:
392,108,43822,1,0,0:0:0:0:
160,212,43980,1,0,0:0:0:0:
348,40,44138,1,0,0:0:0:0:
256,280,44296,1,0,0:0:0:0:
244,40,44454,1,0,0:0:0:0:
200,336,44612,6,0,P|216:232|240:196,1,110.499994941712
296,64,44928,2,0,P|280:168|256:204,1,110.499994941712
188,316,45244,2,0,P|204:212|228:176,1,110.499994941712
284,44,45560,2,0,P|268:148|244:184,1,110.499994941712
232,180,45875,1,0,0:0:0:0:
352,324,46033,5,0,0:0:0:0:
412,128,46191,1,0,0:0:0:0:
264,276,46349,1,0,0:0:0:0:
512,272,46507,1,0,0:0:0:0:
296,112,46665,1,0,0:0:0:0:
160,192,46822,1,0,0:0:0:0:
184,64,46980,1,0,0:0:0:0:
212,288,47138,5,0,0:0:0:0:
380,152,47296,1,0,0:0:0:0:
360,352,47454,5,0,0:0:0:0:
312,96,47612,1,0,0:0:0:0:
276,340,47770,5,0,0:0:0:0:
232,92,47928,1,0,0:0:0:0:
60,244,48086,5,0,0:0:0:0:
152,80,48244,1,0,0:0:0:0:
124,280,48401,5,0,0:0:0:0:
72,104,48559,1,0,0:0:0:0:
288,248,48717,5,0,0:0:0:0:
140,160,48875,1,0,0:0:0:0:
316,160,49033,5,0,0:0:0:0:
200,228,49191,1,0,0:0:0:0:
296,68,49349,5,0,0:0:0:0:
228,136,49507,1,0,0:0:0:0:
388,96,49665,5,0,0:0:0:0:
422,119,49743,1,0,0:0:0:0:
444,155,49822,1,0,0:0:0:0:
456,196,49901,1,0,0:0:0:0:
462,238,49980,1,0,0:0:0:0:
466,280,50059,1,0,0:0:0:0:
472,323,50138,1,0,0:0:0:0:
429,317,50216,1,0,0:0:0:0:
387,316,50295,1,0,0:0:0:0:
344,318,50374,1,0,0:0:0:0:
302,324,50453,1,0,0:0:0:0:
261,334,50532,1,0,0:0:0:0:
221,347,50611,1,0,0:0:0:0:
182,364,50690,1,0,0:0:0:0:
144,382,50770,1,0,0:0:0:0:
106,366,50849,5,0,0:0:0:0:
91,328,50928,1,0,0:0:0:0:
109,291,51007,1,0,0:0:0:0:
123,251,51086,1,0,0:0:0:0:
128,208,51165,1,0,0:0:0:0:
122,166,51244,1,0,0:0:0:0:
107,127,51323,1,0,0:0:0:0:
83,92,51402,1,0,0:0:0:0:
51,63,51481,1,0,0:0:0:0:
93,73,51559,1,0,0:0:0:0:
135,79,51638,1,0,0:0:0:0:
177,82,51717,1,0,0:0:0:0:
220,81,51796,1,0,0:0:0:0:
262,77,51875,1,0,0:0:0:0:
304,69,51954,1,0,0:0:0:0:
345,58,52033,1,0,0:0:0:0:
379,81,52112,5,0,0:0:0:0:
390,121,52191,1,0,0:0:0:0:
372,158,52270,1,0,0:0:0:0:
334,175,52349,1,0,0:0:0:0:
294,162,52428,1,0,0:0:0:0:
253,153,52507,1,0,0:0:0:0:
211,158,52586,1,0,0:0:0:0:
168,172,52665,1,0,0:0:0:0:
140,204,52744,1,0,0:0:0:0:
119,240,52823,1,0,0:0:0:0:
110,282,52902,1,0,0:0:0:0:
141,310,52980,1,0,0:0:0:0:
180,328,53059,1,0,0:0:0:0:
222,333,53138,1,0,0:0:0:0:
264,325,53217,1,0,0:0:0:0:
282,286,53296,1,0,0:0:0:0:
290,245,53375,5,0,0:0:0:0:
287,202,53454,1,0,0:0:0:0:
273,162,53533,1,0,0:0:0:0:
249,127,53612,1,0,0:0:0:0:
277,97,53690,1,0,0:0:0:0:
312,73,53769,1,0,0:0:0:0:
351,55,53848,1,0,0:0:0:0:
392,46,53927,1,0,0:0:0:0:
434,44,54006,1,0,0:0:0:0:
476,51,54085,1,0,0:0:0:0:
454,87,54163,1,0,0:0:0:0:
441,127,54242,1,0,0:0:0:0:
439,170,54321,1,0,0:0:0:0:
447,211,54400,1,0,0:0:0:0:
406,219,54479,1,0,0:0:0:0:
364,210,54558,1,0,0:0:0:0:
330,185,54637,5,0,0:0:0:0:
309,149,54716,1,0,0:0:0:0:
284,114,54795,1,0,0:0:0:0:
253,86,54874,1,0,0:0:0:0:
215,66,54953,1,0,0:0:0:0:
174,55,55032,1,0,0:0:0:0:
132,54,55111,1,0,0:0:0:0:
90,63,55190,1,0,0:0:0:0:
52,82,55269,1,0,0:0:0:0:
66,122,55348,1,0,0:0:0:0:
74,163,55427,1,0,0:0:0:0:
75,206,55506,1,0,0:0:0:0:
70,248,55585,1,0,0:0:0:0:
58,289,55664,1,0,0:0:0:0:
65,329,55743,1,0,0:0:0:0:
100,351,55822,1,0,0:0:0:0:
139,339,55901,1,0,0:0:0:0:
155,301,55980,1,0,0:0:0:0:
308,248,56138,5,0,0:0:0:0:
284,336,56296,2,0,P|352:328|396:272,1,101.999996887207
480,240,56612,1,0,0:0:0:0:
376,160,56770,1,0,0:0:0:0:
488,96,56928,1,0,0:0:0:0:
396,64,57086,1,0,0:0:0:0:
396,64,57165,1,0,0:0:0:0:
396,64,57244,2,0,P|332:76|288:124,1,101.999996887207
32,144,57559,5,0,0:0:0:0:
128,232,57717,1,0,0:0:0:0:
24,288,57875,1,0,0:0:0:0:
132,128,58033,2,0,P|204:156|220:192,1,101.999996887207
224,292,58349,1,0,0:0:0:0:
224,292,58428,1,0,0:0:0:0:
224,292,58507,2,0,P|280:268|316:216,1,101.999996887207
257,54,58822,5,0,0:0:0:0:
172,304,58980,1,0,0:0:0:0:
388,152,59138,1,0,0:0:0:0:
124,147,59296,1,0,0:0:0:0:
335,306,59454,1,0,0:0:0:0:
256,192,59612,1,0,0:0:0:0:
256,192,59770,12,0,61428,0:0:0:0:
