osu file format v5

[General]
AudioFilename: Mobb Deep - Shook Ones Part 2.mp3
AudioLeadIn: 0
PreviewTime: -1
Countdown: 1
SampleSet: Soft
StackLeniency: 0.7
Mode: 0

[Metadata]
Title:Shook Ones Pt. 2
Artist:Mobb Deep
Creator:SSR15
Version:Easy
Source:Mobb Deep
Tags:Mobb Deep G-Unit Shook Ones Pt 2 Two Part Rap

[Difficulty]
HPDrainRate:5
CircleSize:5
OverallDifficulty:5
SliderMultiplier:1.4
SliderTickRate:1

[Events]
//Background and Video events
0,0,"newyork.jpg"
//Break Periods
2,120700,123300
2,212200,216800
//Storyboard Layer 0 (Background)
//Storyboard Layer 1 (Failing)
//Storyboard Layer 2 (Passing)
//Storyboard Layer 3 (Foreground)
//Storyboard Sound Samples
//Background Colour Transformations
3,100,163,162,255

[TimingPoints]
0,1000,3,1,0,100
0,1000,3,2,1,100
0,1000,3,2,0,100

[HitObjects]
256,192,4000,1,0
256,32,5500,1,0
256,288,8000,1,0
256,64,10000,1,0
288,288,12000,1,0
192,160,23500,1,4
224,160,25000,1,0
288,224,26000,1,0
256,64,28500,1,0
256,128,33000,1,0
192,128,39000,1,0
96,96,44000,2,0,B|224:256|320:320,1,280
128,96,47500,1,4
224,128,51500,1,0
320,160,54000,1,0
192,128,57500,5,0
384,128,63500,1,0
160,128,67000,1,2
256,128,69000,1,2
256,128,72000,1,4
256,128,74500,1,4
256,192,76500,1,4
288,128,79000,1,4
256,192,86000,12,4,91500
224,192,99000,1,4
320,192,103500,1,4
192,96,109500,1,4
256,192,111500,12,4,120500
224,160,124500,5,4
320,192,132500,1,0
224,96,135500,1,0
288,96,141000,1,0
288,96,141500,1,0
396,85,150000,2,0,B|128:256|0:64,1,420
64,96,157500,2,0,B|448:96,2,350
160,128,168500,1,0
224,192,171000,1,0
224,128,173500,1,0
320,160,176500,1,0
224,128,179000,1,0
192,192,182000,1,0
192,192,182500,1,0
128,160,191500,1,0
160,160,192000,1,0
128,128,195000,1,0
256,192,196000,1,0
128,160,197500,1,0
256,96,199000,1,0
248,128,204500,1,0
290,135,207500,1,0
256,192,209500,12,0,212000
303,124,218000,1,0
211,132,220500,1,0
243,163,226500,1,0
188,117,229500,1,0
188,117,230000,1,0
284,125,232000,1,0
284,125,232500,1,0
132,112,234500,1,0
132,112,235000,1,0
132,112,235500,1,0
300,118,237000,1,0
300,118,237500,1,0
300,118,238000,1,0
256,192,245000,12,0,256500
228,152,262000,1,0
274,141,264000,1,0
256,192,267000,12,0,273000
256,192,281500,12,4,285000
