osu file format v9

[General]
AudioFilename: Philosophyz.mp3
AudioLeadIn: 0
PreviewTime: 77290
Countdown: 0
SampleSet: Soft
StackLeniency: 0.2
Mode: 0
LetterboxInBreaks: 1

[Editor]
Bookmarks: 6878,15128,39128,63128,102128,114128,126128,150128,161378,167940,174128
DistanceSpacing: 1
BeatDivisor: 4
GridSize: 4

[Metadata]
Title:Philosophyz
Artist:Mizutani Runa
Creator:Pookz
Version:AR9
Source:Rewrite
Tags:key

[Difficulty]
HPDrainRate:7
CircleSize:5
OverallDifficulty:7
ApproachRate:9
SliderMultiplier:1.76
SliderTickRate:0.5

[Events]
//Background and Video events
0,0,"BG2.jpg"
//Break Periods
//Storyboard Layer 0 (Background)
//Storyboard Layer 1 (Fail)
//Storyboard Layer 2 (Pass)
//Storyboard Layer 3 (Foreground)
//Storyboard Sound Samples
//Background Colour Transformations
3,100,163,162,255

[TimingPoints]
1628,375,4,2,1,80,1,0
1628,-117.647058823529,4,2,1,50,0,0
6878,-117.647058823529,4,2,1,60,0,0
7628,-117.647058823529,4,2,1,70,0,0
13253,-66.6666666666667,4,2,1,80,0,0
13440,-117.647058823529,4,2,1,5,0,0
13628,-200,4,2,1,80,0,0
14565,-100,4,2,1,80,0,0
38378,-100,4,2,1,50,0,0
39128,-117.647058823529,4,2,1,65,0,0
63128,-100,4,2,1,75,0,0
77378,-100,4,2,1,5,0,0
78128,-83.3333333333333,4,2,1,85,0,0
78315,-83.3333333333333,4,2,1,5,0,0
78409,-83.3333333333333,4,2,1,85,0,0
102128,-83.3333333333333,4,2,1,5,0,0
102315,-166.666666666667,4,2,1,50,0,0
114128,-166.666666666667,4,2,1,55,0,0
125753,-83.3333333333333,4,2,1,60,0,0
126128,-117.647058823529,4,2,1,70,0,0
129128,-83.3333333333333,4,2,1,85,0,0
161378,-83.3333333333333,4,1,1,65,0,0
162128,-83.3333333333333,4,2,1,85,0,0
168128,-83.3333333333333,4,2,1,80,0,0
168503,-83.3333333333333,4,2,1,75,0,0
168878,-83.3333333333333,4,2,1,70,0,0
169253,-83.3333333333333,4,2,1,65,0,0
169628,-83.3333333333333,4,2,1,60,0,0
170003,-83.3333333333333,4,2,1,55,0,0
170378,-83.3333333333333,4,2,1,50,0,0
170753,-83.3333333333333,4,2,1,45,0,0
171128,-83.3333333333333,4,2,1,40,0,0
171503,-83.3333333333333,4,2,1,35,0,0
171878,-83.3333333333333,4,2,1,30,0,0
172253,-83.3333333333333,4,2,1,25,0,0
172628,-83.3333333333333,4,2,1,20,0,0
173003,-83.3333333333333,4,2,1,15,0,0
173378,-83.3333333333333,4,2,1,10,0,0
173753,-83.3333333333333,4,2,1,5,0,0

[Colours]
Combo1 : 255,128,0
Combo2 : 128,0,255
Combo3 : 0,64,128
Combo4 : 128,0,0

[HitObjects]
184,87,1628,2,0,B|220:80|257:75,1,74.7999968791009
360,124,2003,1,0
271,195,2190,2,0,B|236:187|197:188,1,74.7999968791009
132,280,2565,2,0,B|167:288|206:287,1,74.7999968791009
356,284,2940,5,0
440,207,3128,2,0,B|472:180|480:146,2,74.7999968791009
336,168,3690,2,0,B|315:204|319:239,2,74.7999968791009
324,56,4253,6,0,B|228:40,1,74.7999968791009
116,112,4628,5,0
184,200,4815,2,0,B|272:184,1,74.7999968791009
364,224,5190,1,0
296,312,5378,2,0,B|208:328,1,74.7999968791009
124,268,5753,1,0
12,280,5940,2,0,B|24:376,1,74.7999968791009
156,235,6315,6,0,B|228:216|261:137,1,149.599993758202
412,116,6878,5,0
416,144,6971,1,0
420,172,7065,1,0
424,200,7159,1,0
428,228,7253,6,0,B|436:276,3,37.3999984395505
440,300,7628,2,0,B|389:270|308:264,1,112.199995318651
296,272,8003,2,0,B|200:288,2,74.7999968791009
424,192,8565,5,0
484,96,8753,1,0
328,132,8940,6,0,B|347:211|336:288,1,149.599993758202
256,200,9503,1,0
148,220,9690,2,0,B|152:260,3,37.3999984395505
156,288,10065,2,0,B|124:268|72:256,1,74.7999968791009
24,352,10440,1,0
136,364,10628,2,0,B|192:356|256:312,2,112.199995318651
48,124,11378,5,0
120,112,11565,1,0
192,100,11753,1,0
263,92,11940,2,0,B|196:144|182:214,1,149.599993758202
392,264,12503,6,0,B|368:176,1,74.7999968791009
488,220,12878,5,0
480,324,13065,1,0
379,356,13253,2,0,B|312:360|251:332,1,131.999996066094
172,88,13628,6,0,B|232:152|212:252,1,176
140,176,14565,5,0
184,168,14659,1,0
228,160,14753,1,0
272,152,14846,1,0
316,144,14940,1,0
440,192,15128,5,4
440,192,15409,2,0,B|428:240,1,44,0|8
368,296,15690,2,0,B|300:244|200:236,1,176
212,104,16253,6,8,B|304:88,1,88,8|8
300,280,16815,2,8,B|208:296,1,88
108,312,17190,1,0
108,312,17284,1,0
108,312,17378,1,0
152,235,17565,6,0,B|176:200|172:151,1,88,0|8
359,148,18128,2,0,B|336:184|339:232,1,88
339,232,18409,1,0
339,232,18503,1,8
440,208,18690,1,0
440,208,18784,2,0,B|447:130|395:89,1,132,0|0
340,180,19253,1,8
363,283,19440,2,0,B|280:260|190:257,1,176
84,136,20003,6,0,B|92:244,1,88,8|0
116,328,20378,1,8
116,328,20471,1,0
116,328,20565,1,0
168,175,20753,6,0,B|208:124|279:109,1,132,8|0
312,104,21128,2,0,B|128:72,1,176,4|8
52,192,21690,6,0,B|36:88,1,88
168,176,22065,1,0
148,216,22159,1,0
128,256,22253,1,8
244,192,22440,6,0,B|308:148|415:144,1,176,8|8
316,52,23003,2,0,B|360:176,1,132,8|0
324,148,23378,2,0,B|292:118|232:104,1,88
88,128,23753,6,0,B|64:268,1,132,8|0
60,292,24128,1,0
60,292,24409,2,0,B|84:336,1,44,0|8
164,356,24690,2,0,B|224:292|348:272,1,176,0|0
448,240,25253,6,8,B|452:288|429:325,1,88,8|8
63,143,25815,2,8,B|60:96|82:58,1,88
168,160,26190,1,0
168,160,26284,1,0
168,160,26378,1,8
104,244,26565,1,8
188,308,26753,1,8
188,308,26846,1,0
188,308,26940,1,0
256,220,27128,6,0,B|312:184|404:180,1,132,4|0
424,172,27503,2,0,B|464:76,2,88,8|0|0
384,268,28065,1,0
240,72,28253,5,8
172,151,28440,2,0,B|264:152|341:194,1,176
216,240,29003,6,0,B|147:239|89:208,1,132,8|0
212,280,29378,2,0,B|152:245|118:189,1,132,0|0
188,312,29753,2,0,B|153:252|152:186,1,132,8|0
151,327,30128,6,0,B|151:258|182:200,1,132
163,240,30503,2,0,B|136:272|89:284,1,88,8|0
88,180,30878,1,0
132,172,30971,1,0
176,164,31065,1,0
332,192,31253,5,8
351,275,31440,2,0,B|280:216|193:204,1,176,8|8
64,228,32003,2,0,B|72:332,1,88,8|0
116,136,32378,1,8
116,136,32471,2,0,B|108:32,1,88
96,80,32753,2,0,B|72:120|32:144,1,88,8|0
220,32,33128,6,0,B|288:40|352:80,1,132,4|0
380,100,33503,1,8
400,184,33690,2,0,B|424:296,2,88
380,100,34253,1,8
284,192,34440,6,0,B|200:208|88:176,1,176,8|8
28,248,35003,1,8
76,340,35190,1,0
120,328,35284,1,0
164,316,35378,2,0,B|272:280,1,88
412,228,35753,5,8
424,316,35940,2,0,B|376:272|300:240,1,132,4|0
272,236,36315,2,0,B|176:268,1,88,0|8
24,224,36690,6,0,B|108:196|188:104,1,176
232,40,37253,1,8
284,132,37440,2,0,B|360:248,1,132,4|0
364,200,37815,2,0,B|380:156|424:120,1,88,0|8
436,276,38190,1,0
112,208,38378,6,0,B|60:216,2,44,8|0|8
400,176,38753,2,0,B|452:168,2,44,8|0|8
240,48,39128,5,0
240,48,39315,1,0
240,48,39503,2,0,B|231:114|256:176,1,112.199995318651,0|0
264,192,39878,2,0,B|240:280,1,74.7999968791009,8|0
128,324,40253,6,0,B|112:236,1,74.7999968791009,0|0
384,324,40815,2,0,B|400:236,1,74.7999968791009,0|0
260,120,41284,6,0,B|220:164,1,37.3999984395505,0|8
179,199,41565,2,0,B|147:137|75:95,1,149.599993758202
140,280,42128,5,0
140,280,42315,1,0
140,280,42503,2,0,B|210:283|282:242,1,149.599993758202,0|8
460,260,43253,5,0
460,260,43440,2,0,B|373:281|340:376,1,149.599993758202
260,332,44003,1,0
280,244,44190,1,0
280,244,44284,5,0
288,207,44378,2,0,B|300:172|294:133,1,74.7999968791009,8|0
294,133,45128,6,0,B|300:172|288:208,1,74.7999968791009,0|0
212,156,45503,2,0,B|224:72|296:20,2,149.599993758202,0|8|0
356,220,46440,6,0,B|350:262|320:284,1,74.7999968791009,0|0
155,163,46815,2,0,B|168:80,2,74.7999968791009
148,196,47284,2,0,B|140:252,1,37.3999984395505,0|8
132,320,47565,2,0,B|198:293|296:288,1,149.599993758202
436,224,48128,5,0
352,192,48315,1,0
268,160,48503,2,0,B|236:208|232:280,1,112.199995318651
228,296,48878,2,0,B|164:248,1,74.7999968791009,8|0
100,96,49253,5,0
108,184,49440,2,0,B|148:116|240:76,1,149.599993758202,4|0
384,112,50003,6,0,B|396:204,1,74.7999968791009,8|0
264,304,50378,2,0,B|276:216,1,74.7999968791009,8|0
136,100,50753,1,8
132,136,50846,1,0
128,172,50940,1,8
56,308,51128,5,0
56,308,51315,1,0
56,308,51503,1,0
56,308,51878,6,0,B|188:280,1,112.199995318651,8|0
200,276,52253,1,0
288,264,52440,2,0,B|364:286|436:348,1,149.599993758202
412,244,53003,1,0
452,164,53190,1,0
452,164,53284,5,0
444,128,53378,2,0,B|424:56,1,74.7999968791009,8|0
88,55,53940,2,0,B|68:128,1,74.7999968791009,0|0
68,128,54315,1,0
52,224,54503,6,0,B|88:180|160:160,1,112.199995318651,0|0
180,156,54878,2,0,B|218:164|268:188,1,74.7999968791009,8|0
140,336,55253,6,0,B|101:327|52:304,1,74.7999968791009,0|0
444,288,55815,1,0
444,288,56003,6,0,B|411:303|373:312,1,74.7999968791009,0|0
336,308,56284,5,0
336,308,56378,1,8
204,276,56565,6,0,B|207:199|244:96,1,149.599993758202
400,108,57128,6,0,B|426:141|444:188,1,74.7999968791009
375,227,57503,2,0,B|316:188|237:173,2,149.599993758202,0|8|0
437,172,58440,2,0,B|468:88,1,74.7999968791009
396,24,58815,2,0,B|365:108,1,74.7999968791009
288,136,59190,1,0
288,136,59284,6,0,B|244:92,1,37.3999984395505,0|8
184,64,59565,2,0,B|151:134|52:168,1,149.599993758202
112,304,60128,5,0
200,284,60315,1,0
288,264,60503,2,0,B|368:272|424:320,1,149.599993758202,0|8
480,252,61065,1,0
504,108,61253,5,0
416,120,61440,2,0,B|344:124|248:112,1,149.599993758202,4|0
132,300,62003,6,0,B|169:308|206:305,1,74.7999968791009,8|0
399,207,62378,2,0,B|368:200|325:200,1,74.7999968791009,8|0
116,120,62753,5,8
108,156,62846,1,0
100,192,62940,1,8
384,136,63128,5,4
384,136,63409,2,0,B|372:84,1,44,0|8
472,156,63690,5,0
400,208,63878,2,0,B|333:211|248:176,1,132
232,168,64253,1,8
244,256,64440,2,0,B|256:348,1,88
164,224,64815,5,0
148,136,65003,1,8
132,48,65190,1,0
80,192,65378,5,0
80,192,65471,2,0,B|96:288,1,88
100,316,65753,2,0,B|72:348|20:360,1,88,8|0
244,256,66128,5,4
244,256,66409,2,0,B|300:296,1,44,0|8
356,328,66690,1,0
340,239,66878,2,0,B|368:200|409:187,1,88
496,172,67253,1,8
364,72,67440,6,0,B|328:104|308:156,1,88,4|0
98,158,67815,2,0,B|143:173|198:164,1,88,0|8
305,345,68190,5,0
269,266,68378,1,8
269,266,68471,1,0
269,266,68565,1,0
355,136,68753,5,8
348,224,68941,1,8
348,224,69034,1,0
348,224,69128,1,4
348,224,69409,6,0,B|344:288,1,44,0|8
340,356,69690,1,0
340,356,69878,2,0,B|269:307|164:292,1,176,0|8
84,184,70440,6,0,B|82:231|92:288,1,88,4|0
244,172,70815,2,0,B|256:132|256:72,1,88,0|8
400,196,71190,2,0,B|402:241|392:300,1,88,0|0
384,316,71471,2,0,B|304:236,1,88
296,228,71753,2,0,B|288:269|290:315,1,88,8|0
480,271,72128,6,0,B|492:204|465:142,1,132,4|0
444,104,72503,2,0,B|348:80,1,88,8|0
232,116,72878,5,0
232,116,72971,1,0
232,116,73065,1,0
316,180,73253,1,8
220,220,73440,2,0,B|121:194|56:108,1,176,4|0
68,296,74003,5,8
352,376,74378,1,0
444,88,74753,1,8
152,4,75128,5,4
159,92,75315,2,0,B|148:140|113:164,1,88,0|8
36,208,75690,1,0
36,208,75784,2,0,B|110:215|145:272,1,132
184,352,76253,1,8
184,352,76440,2,0,B|255:279|276:164,1,176,8|8
268,199,77003,1,8
36,208,77378,5,0
476,176,77753,1,0
476,176,78128,6,0,B|432:212|416:292,1,105.6000025177,4|0
416,320,78409,2,0,B|424:376,1,52.8000012588501,0|8
319,275,78690,6,0,B|264:220|175:218,1,158.40000377655,4|0
132,224,79065,2,0,B|92:184|99:127,1,105.6000025177,0|8
288,108,79440,6,0,B|329:75|396:64,1,105.6000025177,4|0
345,196,79815,2,0,B|389:226|420:285,1,105.6000025177,0|8
279,278,80190,2,0,B|264:329|217:377,1,105.6000025177,4|0
180,241,80565,1,0
78,218,80753,1,8
78,218,80846,1,0
78,218,80940,2,0,B|60:168|69:101,1,105.6000025177,8|4
434,166,81409,6,0,B|442:190|438:224,1,52.8000012588501,0|8
336,192,81690,2,0,B|348:108|444:60,1,158.40000377655,4|0
468,64,82065,2,0,B|425:26|348:20,1,105.6000025177,0|8
296,96,82440,2,0,B|242:139|128:160,1,158.40000377655,4|0
108,160,82815,2,0,B|72:200|72:264,1,105.6000025177,0|8
196,228,83190,1,4
320,256,83378,5,0
340,292,83471,1,0
364,328,83565,1,0
444,232,83753,2,0,B|454:184|456:124,1,105.6000025177,8|0
303,32,84128,6,0,B|268:104|272:185,1,158.40000377655,4|0
280,228,84503,2,0,B|271:291|226:313,1,105.6000025177,8|0
226,70,85065,6,0,B|271:92|280:155,1,105.6000025177,0|8
380,192,85440,2,0,B|432:188|472:143|472:143|492:205|448:282,1,211.200005035401,4|0
359,295,86003,6,0,B|299:294|261:327,1,105.6000025177,8|0
160,296,86378,1,0
160,296,86565,1,0
236,223,86753,2,0,B|262:186|267:124,1,105.6000025177,8|0
164,148,87128,5,4
212,284,87315,1,0
348,236,87503,1,8
300,100,87690,1,4
72,104,87971,5,0
72,104,88065,2,0,B|50:152|48:240,1,105.6000025177,0|8
108,294,88440,2,0,B|164:236|242:213,1,158.40000377655,4|0
284,204,88815,1,0
388,200,89003,2,0,B|423:242|433:294,1,105.6000025177,8|0
488,164,89378,5,8
472,132,89471,1,0
456,100,89565,1,8
344,40,89753,1,8
328,84,89846,1,0
308,128,89940,1,8
219,215,90128,6,0,B|172:196|145:144,1,105.6000025177,4|0
128,104,90409,2,0,B|134:76|152:48,1,52.8000012588501,0|8
236,116,90690,2,0,B|208:168|164:200|164:200|116:204|40:176,1,211.200005035401,4|0
128,272,91253,1,8
220,320,91440,2,0,B|296:340|344:300|344:300|384:308|420:372,1,211.200005035401,4|0
484,276,92003,1,8
420,192,92190,2,0,B|380:128|292:112|292:112|252:196,1,211.200005035401,4|0
172,296,92753,5,8
172,296,92846,1,0
172,296,92940,1,8
152,108,93128,5,4
340,88,93315,1,0
360,276,93503,1,8
172,296,93690,2,0,B|132:320|100:296|100:296|60:296|32:352,1,158.40000377655,4|0
72,304,94065,5,0
108,204,94253,1,8
47,115,94440,2,0,B|36:88|40:56|40:56|76:88|130:87,1,158.40000377655,4|0
172,88,94815,2,0,B|224:116|234:169,1,105.6000025177,0|8
336,96,95190,5,4
424,136,95378,2,0,B|496:144,2,52.8000012588501,8|0|8
344,192,95753,1,8
264,248,95940,2,0,B|192:240,2,52.8000012588501,8|0|4
440,328,96409,5,0
440,328,96503,2,0,B|388:320|312:328,1,105.6000025177,8|0
232,348,96878,1,0
55,263,97065,6,0,B|109:259|160:272,1,105.6000025177,0|8
264,248,97440,2,0,B|296:176|264:104|296:32,1,211.200005035401
388,124,98003,6,0,B|411:174|412:240,1,105.6000025177,8|0
131,111,98378,2,0,B|162:65|219:32,1,105.6000025177
248,340,98753,2,0,B|193:335|136:303,1,105.6000025177,8|0
60,216,99128,6,0,B|144:228|216:203,1,158.40000377655,4|0
256,188,99503,2,0,B|304:224|312:274,1,105.6000025177,8|8
312,274,99784,1,0
312,274,99878,1,0
400,215,100065,2,0,B|436:176|492:169,1,105.6000025177,0|8
344,128,100440,6,0,B|226:114|160:20,1,211.200005035401,4|0
100,112,101003,2,0,B|99:172|87:216,1,105.6000025177,8|0
212,200,101378,6,0,B|280:224,3,52.8000012588501,8|0|0|0
288,224,101753,2,0,B|360:212,3,52.8000012588501,8|0|0|0
392,220,102128,5,0
392,220,102503,6,0,B|448:232|484:268,2,105.6000025177
348,172,103628,2,0,B|345:115|371:70,2,105.6000025177
348,172,104565,2,0,B|323:221|260:248,1,105.6000025177
272,242,105128,6,0,B|220:264|184:304|184:304|88:276|116:128|116:128|64:180|64:180|88:32|228:32|228:32|216:96|252:132|252:132|316:128|364:80,1,844.800020141602
380,148,108503,6,0,B|336:187|336:240,1,105.6000025177
352,304,109253,1,0
291,283,109628,2,0,B|244:264|188:270,1,105.6000025177
128,284,110378,1,0
128,284,110565,1,0
128,284,111128,6,0,B|153:222|110:146|110:146|82:151|49:175,1,211.200005035401
293,165,112628,2,0,B|333:154|345:114|345:114|413:122|463:175,1,211.200005035401
462,174,113753,5,0
436,232,113940,1,0
436,232,114034,1,0
435,232,114128,2,0,B|412:284|365:308,1,105.6000025177
131,327,114878,2,0,B|98:281|100:228,1,105.6000025177
200,16,115628,2,0,B|257:10|302:38,1,105.6000025177
228,140,116378,5,0
208,200,116565,1,0
208,200,116659,1,0
208,200,116753,2,0,B|191:227|188:264,1,52.8000012588501
284,251,117128,6,0,B|308:216|347:206,1,79.2000018882752
380,200,117503,2,0,B|376:177|344:140,1,52.8000012588501
400,108,117878,2,0,B|412:56,2,52.8000012588501
359,292,118628,6,0,B|328:340|274:349,1,105.6000025177
136,220,119378,5,0
256,144,119659,1,0
376,220,119940,1,0
237,349,120128,6,0,B|184:340|152:292,1,105.6000025177
274,34,120878,2,0,B|328:44|359:91,1,105.6000025177
359,91,121440,1,0
384,148,121628,6,0,B|404:188|442:199,1,79.2000018882752
472,212,122003,2,0,B|464:248|436:268,1,52.8000012588501
368,308,122378,6,0,B|331:300|311:272,1,52.8000012588501
280,236,122753,1,0
280,236,122846,2,0,B|281:200|312:152,2,79.2000018882752
268,264,123503,2,0,B|248:288|212:296,1,52.8000012588501
152,320,123878,6,0,B|104:360,2,52.8000012588501
151,319,124628,6,0,B|152:268|178:218,1,105.6000025177
197,38,125378,6,0,B|219:50|234:74,1,52.8000012588501
248,96,125659,1,0
260,120,125753,2,0,B|303:146|372:152,1,105.6000025177
440,192,126128,5,4
448,228,126221,1,0
456,264,126315,1,0
464,300,126409,1,0
464,300,127065,5,0
464,300,127253,1,8
463,299,127440,2,0,B|381:297|319:332,1,149.599993758202,4|0
248,352,128003,2,0,B|215:345|160:300,1,74.7999968791009,8|0
56,200,128378,5,8
56,200,128471,1,0
56,200,128565,1,8
132,244,128753,1,8
216,220,128940,1,0
300,124,129128,6,0,B|333:165|352:228,1,105.6000025177,4|0
356,268,129409,5,0
356,268,129503,2,0,B|376:221|432:184,1,105.6000025177,8|0
456,284,129878,1,0
340,336,130065,6,0,B|293:315|256:260,1,105.6000025177,0|8
180,172,130440,6,0,B|122:182|76:216,1,105.6000025177,4|0
276,267,130815,2,0,B|315:312|366:335,1,105.6000025177,0|8
311,136,131190,2,0,B|330:80|325:24,1,105.6000025177,4|0
325,32,131471,1,0
325,32,131565,1,0
216,52,131753,2,0,B|196:107|202:164,1,105.6000025177,8|0
257,303,132128,6,0,B|344:304|393:235,1,158.40000377655,4|0
416,188,132503,2,0,B|475:212|492:257,1,105.6000025177,8|0
368,288,132878,2,0,B|309:263|291:219,1,105.6000025177,0|0
152,276,133253,5,8
180,380,133440,2,0,B|264:328|404:348,1,211.200005035401,4|0
227,203,134003,6,0,B|184:176|120:176,1,105.6000025177,8|0
152,276,134378,1,0
152,276,134565,1,0
228,204,134753,2,0,B|271:176|335:176,1,105.6000025177,8|0
436,180,135128,6,0,B|480:288,2,105.6000025177,4|0|8
388,88,135690,2,0,B|335:83|276:56,1,105.6000025177,4|0
84,72,136065,5,8
136,88,136159,1,0
188,104,136253,1,8
91,176,136440,6,0,B|48:208|26:257,1,105.6000025177,4|0
132,268,136815,1,8
132,268,136909,1,0
132,268,137003,1,8
228,228,137190,1,0
188,136,137377,5,8
200,100,137471,1,0
216,64,137565,1,0
380,116,137753,1,8
408,160,137846,1,0
440,204,137940,1,0
348,316,138128,5,4
244,332,138315,1,0
244,332,138409,6,0,B|172:344,1,52.8000012588501,0|8
37,307,138690,6,0,B|120:296|173:234,1,158.40000377655,4|0
204,192,139065,2,0,B|256:216|282:260,1,105.6000025177,0|8
303,155,139440,6,0,B|304:104|328:54,1,105.6000025177,4|0
219,144,139815,2,0,B|168:144|118:119,1,105.6000025177,0|8
208,228,140190,2,0,B|208:280|183:329,1,105.6000025177,4|0
292,239,140565,5,0
393,264,140753,1,8
393,264,140846,1,0
393,264,140940,1,8
486,219,141128,6,0,B|440:200|409:149,1,105.6000025177,4|0
400,108,141409,2,0,B|412:52,1,52.8000012588501,0|8
303,155,141690,6,0,B|278:204|278:256,1,105.6000025177,4|0
176,284,142065,2,0,B|150:239|103:208,1,105.6000025177,8|8
8,160,142440,1,4
208,36,142721,5,0
208,36,142815,2,0,B|229:90|224:144,1,105.6000025177,0|8
224,139,143096,1,0
216,180,143190,6,0,B|268:276|377:307,1,211.200005035401,4|0
256,352,143753,5,8
176,284,143940,1,8
176,284,144034,1,0
175,283,144128,2,0,B|112:228|33:220,1,158.40000377655,4|0
76,228,144503,2,0,B|120:268|136:340,1,105.6000025177,8|0
176,168,144878,5,0
232,56,145065,1,8
232,56,145159,1,0
232,56,145253,1,8
304,160,145440,2,0,B|380:248|487:254,1,211.200005035401,4|0
352,288,146003,6,0,B|240:320,1,105.6000025177,8|0
56,296,146378,2,0,B|168:264,1,105.6000025177
349,182,146753,2,0,B|248:212,1,105.6000025177,8|0
48,191,147128,6,0,B|133:175|172:103,1,158.40000377655,4|0
184,64,147503,2,0,B|243:63|279:104,1,105.6000025177,8|0
349,182,147878,2,0,B|403:182|453:164,2,105.6000025177,0|0|8
247,205,148440,2,0,B|180:292|64:297,1,211.200005035401,4|0
272,308,149003,2,0,B|329:305|400:336,1,105.6000025177,8|0
456,192,149378,5,8
436,156,149471,1,0
396,140,149565,1,0
356,148,149659,1,0
328,180,149753,1,8
300,212,149846,1,0
260,220,149940,1,0
220,204,150034,1,0
200,168,150127,1,4
52,220,150409,6,0,B|72:272,1,52.8000012588501,0|8
144,348,150690,2,0,B|224:280|368:288,1,211.200005035401
444,312,151253,1,8
444,312,151440,2,0,B|488:268|480:212|480:212|436:236|380:204,1,211.200005035401,8|0
340,108,152003,2,0,B|396:100|456:132,1,105.6000025177,8|0
442,125,152284,1,0
442,125,152378,2,0,B|438:69|400:30,1,105.6000025177,0|0
340,108,152753,2,0,B|344:164|381:203,1,105.6000025177,8|0
275,191,153128,6,0,B|231:179|171:180,1,105.6000025177,0|0
128,184,153409,2,0,B|80:228,1,52.8000012588501,0|8
48,316,153690,1,0
152,304,153878,1,0
152,304,153971,1,0
152,304,154065,2,0,B|211:302|256:315,1,105.6000025177,0|8
356,348,154440,1,8
356,348,154815,6,0,B|400:360|460:359,2,105.6000025177,0|8|0
256,315,155378,1,0
256,315,155471,2,0,B|232:268|235:213,1,105.6000025177,8|0
244,172,155753,2,0,B|184:170|139:183,1,105.6000025177,8|0
256,316,156128,6,0,B|316:318|361:305,1,105.6000025177,4|0
400,292,156409,5,0
400,292,156503,2,0,B|452:320|488:360,1,105.6000025177,8|0
336,348,156878,2,0,B|284:320|248:280,1,105.6000025177,0|0
112,164,157253,5,8
148,263,157440,2,0,B|212:176|321:149,1,211.200005035401,4|0
428,144,158003,2,0,B|381:121|352:56,1,105.6000025177,8|0
357,67,158284,1,0
357,67,158378,1,0
460,44,158565,1,0
357,67,158753,2,0,B|307:74|224:60,1,105.6000025177,8|4
108,164,159221,5,0
108,165,159315,2,0,B|143:215|130:264,1,105.6000025177,0|8
32,234,159690,1,0
130,264,159878,1,8
180,284,159971,1,0
228,304,160065,1,8
328,336,160253,1,8
404,262,160440,6,0,B|412:176|482:132,1,158.40000377655,4|0
448,160,160815,2,0,B|408:196|320:200,2,105.6000025177,0|8|0
380,28,161378,5,0
328,44,161503,1,0
308,96,161628,1,0
336,144,161753,1,0
364,192,161878,1,0
344,244,162003,1,0
291,260,162128,6,0,B|205:273|139:230,1,158.40000377655,4|0
104,208,162503,2,0,B|67:256|76:316,2,105.6000025177,8|0|0
176,131,163065,2,0,B|229:122|273:93,1,105.6000025177,4|8
380,112,163440,2,0,B|368:200|420:288,1,158.40000377655,4|0
428,304,163815,2,0,B|382:334|308:340,1,105.6000025177,0|8
256,264,164190,5,4
256,264,164378,1,0
256,264,164565,2,0,B|309:260|355:230,1,105.6000025177,0|8
272,164,164940,2,0,B|164:171|73:231,1,211.200005035401,4|0
74,231,165409,1,0
74,231,165503,1,8
148,128,165690,5,0
161,274,165878,1,4
305,307,166065,1,0
380,180,166253,1,8
283,69,166440,6,0,B|243:143|248:264,1,158.40000377655,4|0
243,264,166815,2,8,B|236:328|194:353,1,105.6000025177
156,200,167190,5,0
200,196,167284,1,0
244,192,167378,6,0,B|324:184,3,52.8000012588501
348,180,167753,5,0
400,196,167846,1,0
448,216,167940,1,4
256,192,168034,12,0,174128
