osu file format v10

[General]
AudioFilename: Philosophyz Full ver..mp3
AudioLeadIn: 0
PreviewTime: 151444
Countdown: 0
SampleSet: Soft
StackLeniency: 0.7
Mode: 0
LetterboxInBreaks: 0

[Editor]
Bookmarks: 62288,101288,113288,152288,203288,215663,251288,287288
DistanceSpacing: 1
BeatDivisor: 4
GridSize: 4

[Metadata]
Title:Philosophyz
TitleUnicode:Philosophyz
Artist:Mizutani Runa
ArtistUnicode:Mizutani Runa
Creator:Kawayi Rika
Version:Collab
Source:Rewrite
Tags:ykcarrot s_o_r_d_a sorda opening key collab kanbe kotori nakatsu sizuru otori chihaya senri akane konohana lucia
BeatmapID:178936
BeatmapSetID:59751

[Difficulty]
HPDrainRate:7
CircleSize:4
OverallDifficulty:7
ApproachRate:8
SliderMultiplier:1.8
SliderTickRate:1

[Events]
//Background and Video events
0,0,"BG1.jpg"
//Break Periods
2,101488,112538
2,204050,214913
//Storyboard Layer 0 (Background)
Sprite,Background,Centre,"SB\BG1.jpg",320,240 F,0,6741,6788,0,1 S,0,6788,,1 M,0,6788,14288,354,239,246,240
Sprite,Background,Centre,"SB\BG9.jpg",320,240 F,0,38241,38288,0,1 M,0,38288,50288,320,240,401,240
Sprite,Background,Centre,"SB\BG16.jpg",320,240 F,0,50241,50288,0,1 M,0,50288,62288,333,240,250,240 F,0,50288,62288,1 F,0,62288,62334,1,0
Sprite,Background,Centre,"SB\BG12.jpg",320,240 F,0,62241,62288,0,1 M,0,62288,77288,228,240,371,240 F,0,62288,77288,1 F,0,76163,77288,1 F,0,77288,77334,1,0
Sprite,Background,Centre,"SB\black.jpg",320,240 F,0,77288,,0.6083201 M,0,77288,101288,320,240
Sprite,Background,Centre,"SB\white.jpg",320,240 F,0,96975,98288,0,0.35328 M,0,97163,,320,240 F,0,98288,98475,0.35328,0 F,0,98475,101288,0
Sprite,Background,Centre,"SB\BG11.jpg",320,240 M,0,113288,125288,238,240,405,240
Sprite,Background,Centre,"SB\BG13.jpg",320,240 F,0,125288,,1 M,0,125288,137288,400,240,233,240
Sprite,Background,Centre,"SB\BG19.jpg",320,240 M,0,137288,152288,236,240,366,238 F,0,137288,152288,1
Sprite,Background,Centre,"SB\black.jpg",320,240 F,0,152288,176288,0.5968
Sprite,Background,Centre,"SB\black.jpg",320,240
Sprite,Background,Centre,"SB\BG5.jpg",320,240 M,0,203288,215288,320,240,413,240
Sprite,Background,Centre,"SB\BG14.jpg",320,240 F,0,215288,,1 M,0,215288,227288,349,240,228,240
Sprite,Background,Centre,"SB\BG4.jpg",320,240 S,0,182288,,1.02304 M,0,182288,203288,319,107,320,366
//Storyboard Layer 1 (Fail)
//Storyboard Layer 2 (Pass)
//Storyboard Layer 3 (Foreground)
Sprite,Foreground,Centre,"SB\white.jpg",320,240 M,0,38,6788,320,240 F,0,46,413,0,1 F,0,413,788,1
Sprite,Foreground,Centre,"SB\BG8.jpg",320,240 F,0,413,788,0,1 F,0,788,6788,1 S,0,788,6788,0.9985598,1.02928 F,0,6788,6834,1,0
Sprite,Foreground,Centre,"SB\rewrite.png",320,240 F,0,413,6788,0,1 S,0,413,6788,0.8694401,1
Sprite,Foreground,Centre,"SB\white.jpg",320,240 F,0,6647,6788,0,0.6736 S,0,6788,,1 F,0,6788,7538,0.6736,0.01194494
Sprite,Foreground,Centre,"SB\white.jpg",320,240 F,0,14100,14288,0,0.68896 F,0,14288,14475,0.68896,0
Sprite,Foreground,Centre,"SB\white.jpg",320,240 F,0,38100,38288,0,0.77344 M,0,38288,,320,240 S,0,38288,,1 F,0,38288,38475,0.77344,0
Sprite,Foreground,Centre,"SB\1.png",320,240 F,0,38475,38663,0,1 M,0,38663,50288,302,409,273,409
Sprite,Foreground,Centre,"SB\white.jpg",320,240 F,0,50100,50288,0,0.4240001 M,0,50288,,320,240 F,0,50288,50475,0.4240001,0
Sprite,Foreground,Centre,"SB\2.png",320,240 F,0,50288,61163,1 M,0,50288,62288,301,408,363,408 F,0,61163,62288,1,0
Sprite,Foreground,Centre,"SB\3.png",320,240 F,0,61538,62288,0,1 M,0,61538,68288,302,362,216,362 F,0,62288,67913,1 F,0,67913,68288,1,0
Sprite,Foreground,Centre,"SB\white.jpg",320,240 F,0,62100,62288,0,0.3548799 M,0,62288,,320,240 F,0,62288,62475,0.3548799,0
Sprite,Foreground,Centre,"SB\4.png",320,240 F,0,68288,68475,0.08608017,1 M,0,68288,76163,313,412,372,412 F,0,68475,75788,1 F,0,75788,76163,1,0
Sprite,Foreground,Centre,"SB\5.png",320,240 F,0,76538,76725,0,1 M,0,76538,82538,280,343,239,343 F,0,76725,82350,1 F,0,82350,82538,1,0
Sprite,Foreground,Centre,"SB\white.jpg",320,240 F,0,77100,77288,0,0.3817601 F,0,77288,77475,0.3817601,0
Sprite,Foreground,Centre,"SB\6.png",320,240 F,0,82913,83100,0,1 M,0,82913,88163,387,417,441,417 F,0,83100,87788,1 F,0,87788,88163,1,0
Sprite,Foreground,Centre,"SB\7.png",320,240 F,0,88538,88725,0,1 M,0,88538,94538,280,372,228,374 F,0,88725,94163,1 F,0,94163,94538,1,0
Sprite,Foreground,Centre,"SB\8.png",320,240 F,0,94913,95100,0,1 M,0,94913,96788,408,425,432,425 F,0,95100,96600,1 F,0,96600,96788,1,0
Sprite,Foreground,Centre,"SB\black.jpg",320,240 F,0,97163,98288,0,1 F,0,98288,101288,1
Sprite,Foreground,Centre,"SB\9.png",320,240 C,0,97163,,255,251,215 F,0,97163,98288,0,1 S,0,97163,101288,1.08448,1.4608 F,0,98288,100913,1 F,0,100913,101288,1,0
Sprite,Foreground,Centre,"SB\white.jpg",320,240 F,0,101100,101288,0,0.51616 F,0,101288,101475,0.51616,0
Sprite,Foreground,Centre,"SB\BG3.jpg",320,240 F,0,101241,101288,0,1 M,0,101288,113288,424,240,237,241 F,0,101288,113288,1 F,0,113288,113334,1,0
Sprite,Foreground,Centre,"SB\white.jpg",320,240 F,0,101100,101288,0,0.6352 F,0,101288,101475,0.6352,0
Sprite,Foreground,Centre,"SB\Break Time.png",320,240 S,0,101288,,1 F,0,101288,102038,0,1 M,0,101288,113288,495,43 F,0,102038,102788,1,0 F,0,102788,103538,0,1 F,0,103538,104288,1,0 F,0,104288,105038,0,1 F,0,105038,105788,1,0 F,0,105788,106538,0,1 F,0,106538,107288,1,0 F,0,107288,108038,0,1 F,0,108038,108788,1,0 F,0,108788,109538,0,1 F,0,109538,110288,1,0 F,0,110288,111038,0,1 F,0,111038,111788,1,0 F,0,111788,112538,0,1 F,0,112538,113288,1,0
Sprite,Foreground,Centre,"SB\white.jpg",320,240 F,0,113100,113288,0,0.5699199 M,0,113288,,320,240 F,0,113288,113475,0.5699199,0
Sprite,Foreground,Centre,"SB\10...png",320,240 F,0,113663,113850,0,1 M,0,113663,119288,389,404,344,404 F,0,113850,118913,1 F,0,118913,119288,1,0
Sprite,Foreground,Centre,"SB\11.png",320,240 F,0,119663,119850,0,1 M,0,119663,125288,166,342,198,342 F,0,119850,124913,1 F,0,124913,125288,1,0
Sprite,Foreground,Centre,"SB\white.jpg",320,240 F,0,125100,125288,0,0.48928 F,0,125288,125475,0.48928,0
Sprite,Foreground,Centre,"SB\white.jpg",320,240 F,0,137100,137288,0,0.4470401 M,0,137288,,320,240 F,0,137288,137475,0.4470401,0
Sprite,Foreground,Centre,"SB\12.png",320,240 F,0,125288,125475,0,1 M,0,125288,131288,459,428,397,428 F,0,125475,131100,1 F,0,131100,131288,1,0
Sprite,Foreground,Centre,"SB\13.png",320,240 F,0,131663,131850,0,1 M,0,131663,136163,170,379,220,379 F,0,131850,135788,1 F,0,135788,136163,1,0
Sprite,Foreground,Centre,"SB\14.png",320,240 F,0,136538,136725,0,1 M,0,136538,142913,435,388,400,388 F,0,136725,142538,1 F,0,142538,142913,1,0
Sprite,Foreground,Centre,"SB\15.png",320,240 F,0,143288,143475,0,1 M,0,143288,151163,250,430,314,430 F,0,143475,150788,1 F,0,150788,151163,1,0
Sprite,Foreground,Centre,"SB\16.png",320,240 F,0,151538,151725,0,1 M,0,151538,157538,214,373,284,373 F,0,151725,157163,1 F,0,157163,157538,1,0
Sprite,Foreground,Centre,"SB\white.jpg",320,240 F,0,152100,152288,0,0.61824 F,0,152288,152475,0.61824,0
Sprite,Foreground,Centre,"SB\17.png",320,240 F,0,157913,158100,0,1 M,0,157913,163163,465,425,422,425 F,0,158100,162788,1 F,0,162788,163163,1,0
Sprite,Foreground,Centre,"SB\18.png",320,240 F,0,163538,163725,0,1 M,0,163538,169538,244,369,290,368 F,0,163725,169163,1 F,0,169163,169538,1,0
Sprite,Foreground,Centre,"SB\19.png",320,240 F,0,169913,170100,0,1 M,0,169913,176288,470,420,411,420 F,0,170100,175913,1 F,0,175913,176288,1,0
Sprite,Foreground,Centre,"SB\white.jpg",320,240 F,0,176100,176288,0,1 M,0,176288,,320,240 S,0,176288,,1 F,0,176288,182288,1
Sprite,Foreground,Centre,"SB\BG8.jpg",320,240 F,0,176288,180788,0,0.40864 F,0,180788,182100,0.40864,0.3851289 F,0,182100,182288,0.3851289,0
Sprite,Foreground,Centre,"SB\aaaa.png",320,240 F,0,180788,,0 S,0,180788,,0.808 F,0,180788,181163,0,0.2808993 F,0,180788,181350,0,0.5016145 M,0,180788,182288,481,261,481,244 F,0,181163,181350,0,0.4209745 F,0,181350,181538,0.5016145,0.3725604 F,0,181538,181913,0.3725604,0
Sprite,Foreground,Centre,"SB\a.png",320,240 M,0,176288,,548,338 F,0,176288,177038,0,1 F,0,177038,181913,1 F,0,181913,182288,1,0 S,0,182288,,0.9462399
Sprite,Foreground,Centre,"SB\aaa.png",320,240 M,0,177788,,118,339 S,0,177788,,0.5084804 F,0,177788,178538,0,1 F,0,178538,181913,1,0.9904 F,0,181913,182288,0.9904,0
Sprite,Foreground,Centre,"SB\aa.png",320,240 M,0,179288,,337,305 S,0,179288,,0.6236799 F,0,179288,180038,0,1 F,0,180038,181913,1,0.99 F,0,181913,182288,0.99,0
Sprite,Foreground,Centre,"SB\rewrite.png",320,240 F,0,176241,176288,0,1 M,0,176288,,583,30 S,0,176288,,0.2704001 F,0,176288,182288,1 F,0,182288,182334,1,0
Sprite,Foreground,Centre,"SB\white.jpg",320,240 F,0,203100,203288,0,0.7350399 F,0,203100,203475,0.47232,0 M,0,203288,,320,240 F,0,203288,203475,0.7350399,0
Sprite,Foreground,Centre,"SB\Break Time.png",320,240 M,0,203288,,141,427 F,0,203288,204038,0,1 F,0,204038,204788,1,0 F,0,204788,205538,0,1 F,0,205538,206288,1,0 F,0,206288,207038,0,1 F,0,207038,207788,1,0 F,0,207788,208538,0,1 F,0,208538,209288,1,0 F,0,209288,210038,0,1 F,0,210038,210788,1,0 F,0,210788,211538,0,1 F,0,211538,212288,1,0 F,0,212288,213038,0,1 F,0,213038,213788,1,0 F,0,213788,214538,0,1 F,0,214538,215288,1,0
Sprite,Foreground,Centre,"SB\white.jpg",320,240 F,0,215100,215288,0,0.40864 F,0,215288,215475,0.40864,0
Sprite,Foreground,Centre,"SB\black.jpg",320,240 S,0,203288,,1 F,0,203288,215288,0.3817601
Sprite,Foreground,Centre,"SB\20...png",320,240 M,0,203288,,320,240 C,0,203288,,255,255,236 S,0,203288,215288,1,1.18432
Sprite,Foreground,Centre,"SB\21.png",320,240 F,0,215663,215850,0,1 M,0,215663,220163,132,355,200,355 F,0,215850,219788,1 F,0,219788,220163,1,0
Sprite,Foreground,Centre,"SB\22.png",320,240 F,0,220538,220725,0,1 M,0,220538,226163,459,425,435,425 F,0,220725,225788,1 F,0,225788,226163,1,0
Sprite,Foreground,Centre,"SB\white.jpg",320,240 F,0,227100,227288,0,0.328 F,0,227288,227475,0.328,0
Sprite,Foreground,Centre,"SB\black.jpg",320,240 F,0,227288,251288,0.5545601
Sprite,Foreground,Centre,"SB\23.png",320,240 F,0,226538,226725,0,1 M,0,226538,232538,220,428,269,428 F,0,226725,232163,1 F,0,232163,232538,1,0
Sprite,Foreground,Centre,"SB\24.png",320,240 F,0,232913,233100,0,1 M,0,232913,238163,478,372,443,372 F,0,233100,237788,1 F,0,237788,238163,1,0
Sprite,Foreground,Centre,"SB\25.png",320,240 F,0,238538,238725,0,1 M,0,238538,244538,241,428,292,428 F,0,238725,,1 F,0,238725,244163,1 F,0,244163,244538,1,0
Sprite,Foreground,Centre,"SB\26.png",320,240 F,0,244913,245100,0,1 M,0,244913,246788,497,369,470,369 F,0,245100,246413,1 F,0,246413,246788,1,0
Sprite,Foreground,Centre,"SB\black.jpg",320,240 F,0,246788,247538,0,1 F,0,247538,251288,1,0.984
Sprite,Foreground,Centre,"SB\27.png",320,240 F,0,246788,247538,0,1 S,0,246788,251288,1,1.24576 F,0,247538,249788,1 F,0,249788,251288,1,0
Sprite,Foreground,Centre,"lighting.png",320,240 F,0,249600,249694,0,1 S,0,249600,249694,1,1.13824 F,0,249694,251288,1,0 S,0,249694,251288,1.13824,1.373703 S,0,251288,251309,1.373703,1.2134
Sprite,Foreground,Centre,"SB\white.jpg",320,240 F,0,251100,251288,0,0.43552 F,0,251288,251475,0.43552,0
Sprite,Foreground,Centre,"SB\BG2.jpg",320,240 M,0,251288,,320,240 S,0,251288,263288,1,1.13824
Sprite,Foreground,Centre,"SB\white.jpg",320,240 F,0,263100,263288,0,0.61216 S,0,263288,,1 F,0,263288,263475,0.61216,0
Sprite,Foreground,Centre,"SB\BG10..jpg",320,240 F,0,263288,,1 M,0,263288,275288,258,240,379,240
Sprite,Foreground,Centre,"SB\white.jpg",320,240 F,0,275100,275288,0,0.47776 M,0,275288,,320,240 F,0,275288,275475,0.47776,0
Sprite,Foreground,Centre,"SB\BG17.jpg",320,240 M,0,275288,281100,284,239,386,239 F,0,275288,281100,1 F,0,281100,,1
Sprite,Foreground,Centre,"SB\white.jpg",320,240 F,0,280913,281100,0,0.70432 F,0,281100,281288,0.70432,0
Sprite,Foreground,Centre,"SB\-.png",320,240 F,0,5850,6038,0,1 M,0,6038,,174,67 F,0,6038,101100,1 F,0,101100,101288,1,0 F,0,101288,113288,0,0.04255319 F,0,113288,113663,0.04255319,1 F,0,113663,203100,1 F,0,203100,203288,1,0 F,0,203288,215663,0 F,0,215663,216038,0,1 F,0,216038,287100,1,0.8829762 F,0,287100,287288,0.8829762,0
Sprite,Foreground,Centre,"SB\Name\Kawayi Rika.png",320,240 F,0,5850,6038,0,1 M,0,6038,,114,69 F,0,6038,62100,1 V,0,6225,,0.7235199,0.5161601 F,0,62100,62288,1,0 F,0,62288,215663,0 F,0,215663,216038,0,1 F,0,216038,251100,1,0.976128 F,0,251100,251288,0.976128,0
Sprite,Foreground,Centre,"SB\Name\S o r d a.png",320,240 M,0,62288,,94,67 V,0,62288,,0.6774402,0.5161601 F,0,62288,101100,1 F,0,101100,101288,1,0 F,0,101288,113288,0 F,0,113288,113663,0,1 F,0,113663,152100,1,0.9814242 F,0,152100,152288,0.9814242,0
Sprite,Foreground,Centre,"SB\Name\ykcarrot.png",320,240 M,0,152288,,98,67 V,0,152288,,0.8079998,0.5392 F,0,152288,152475,0,1 F,0,152475,203100,1 F,0,203100,203288,1,0 F,0,203288,251288,0 F,0,251288,251475,0,1 F,0,251475,287100,1 F,0,287100,287288,1,0
Sprite,Foreground,Centre,"SB\white.jpg",320,240 F,0,182100,182288,0,0.5392001 M,0,182288,182475,320,240 F,0,182288,182475,0.5392001,0
//Storyboard Sound Samples
//Background Colour Transformations
3,100,163,162,255

[TimingPoints]
788,375,4,2,1,70,1,0
13069,-100,4,2,1,5,0,0
13256,-100,4,2,1,70,0,0
14288,-100,4,2,1,60,0,0
14381,-100,4,2,1,70,0,0
20288,-100,4,2,1,60,0,0
20381,-100,4,2,1,70,0,0
24506,-100,4,2,1,60,0,0
24694,-100,4,2,1,70,0,0
26288,-100,4,2,1,60,0,0
26381,-100,4,2,1,70,0,0
30600,-100,4,2,1,50,0,0
30694,-100,4,2,1,70,0,0
32288,-100,4,2,1,60,0,0
32381,-100,4,2,1,70,0,0
33600,-100,4,2,1,60,0,0
33694,-100,4,2,1,70,0,0
35100,-100,4,2,1,60,0,0
35194,-100,4,2,1,50,0,0
36225,-100,4,2,1,60,0,0
36319,-100,4,2,1,70,0,0
37913,-100,4,2,1,50,0,0
38288,-100,4,2,1,50,0,0
38381,-100,4,2,1,70,0,0
49163,-100,4,2,1,60,0,0
50381,-100,4,2,1,70,0,0
152288,-83.3333333333333,4,2,1,70,0,1
162225,-83.3333333333333,4,2,1,55,0,1
162600,-83.3333333333333,4,2,1,70,0,1
169256,-83.3333333333333,4,2,1,55,0,1
169725,-83.3333333333333,4,2,1,70,0,1
175444,-83.3333333333333,4,2,1,55,0,1
175819,-83.3333333333333,4,2,1,70,0,1
176006,-83.3333333333333,4,2,1,55,0,1
176288,-100,4,2,1,40,0,0
177038,-100,4,2,1,50,0,0
177131,-100,4,2,1,40,0,0
178538,-100,4,2,1,50,0,0
178631,-100,4,2,1,40,0,0
180038,-100,4,2,1,50,0,0
180131,-100,4,2,1,40,0,0
181538,-100,4,2,1,50,0,0
181631,-100,4,2,1,40,0,0
182288,-100,4,2,1,60,0,0
202163,-100,4,2,1,40,0,0
202444,-100,4,2,1,60,0,0
202538,-100,4,2,1,40,0,0
202819,-100,4,2,1,60,0,0
202913,-100,4,2,1,40,0,0
203006,-100,4,2,1,60,0,0
203100,-100,4,2,1,40,0,0
203288,-100,4,2,1,60,0,0
203569,-100,4,2,1,5,0,0
215663,-100,4,2,1,70,0,0
226725,-100,4,1,1,30,0,0
227288,-100,4,2,1,70,0,1
230288,-100,4,2,1,60,0,1
230381,-100,4,2,1,70,0,1
233288,-100,4,2,1,60,0,1
233381,-100,4,2,1,70,0,1
234506,-100,4,2,1,60,0,1
234694,-100,4,2,1,70,0,1
236194,-100,4,2,1,60,0,1
236381,-100,4,2,1,70,0,1
237506,-100,4,2,1,60,0,1
237694,-100,4,2,1,70,0,1
249975,-100,4,2,1,60,0,1
250819,-100,4,2,1,70,0,1
251288,-100,4,2,1,60,0,0
274538,-100,4,2,1,50,0,0
274913,-100,4,2,1,40,0,0
275288,-100,4,2,1,60,0,0
280163,-100,4,2,1,40,0,0
280631,-100,4,2,1,60,0,0
280725,-100,4,2,1,40,0,0
280819,-100,4,2,1,60,0,0
281194,-100,4,2,1,40,0,0

[Colours]
Combo1 : 92,200,222
Combo2 : 242,30,226
Combo3 : 251,234,30
Combo4 : 233,137,67
SliderBorder : 222,253,255

[HitObjects]
52,112,6038,1,0,0:0:0
80,76,6131,1,0,0:0:0
124,64,6225,1,0,0:0:0
168,76,6319,1,0,0:0:0
196,112,6413,2,0,B|228:152,3,45
256,180,6788,2,0,B|356:188|416:100,1,180,2|0,0:0|0:0,0:0:0
480,272,7350,2,0,B|380:264|320:352,1,180,2|0,0:0|0:0,0:0:0
256,284,7913,1,0,0:0:0
187,345,8100,6,0,B|132:264|32:272,1,180,2|0,0:0|0:0,0:0:0
0,192,8663,1,0,0:0:0
32,112,8850,2,0,B|132:120|187:38,1,180,2|0,0:0|0:0,0:0:0
256,100,9413,1,0,0:0:0
326,39,9600,1,0,0:0:0
326,39,9694,1,0,0:0:0
326,39,9788,6,0,B|372:28|428:48,1,90,2|0,0:0|0:0,0:0:0
500,68,10163,2,0,B|484:116|432:132,1,90,0|0,0:0|0:0,0:0:0
364,180,10538,2,0,B|347:225|364:268,1,90,2|0,0:0|0:0,0:0:0
440,224,10913,1,2,0:0:0
440,312,11100,6,0,B|344:404|304:292|268:368,1,180,0|2,0:0|0:0,0:0:0
188,336,11663,1,0,0:0:0
100,312,11850,1,0,0:0:0
100,312,11944,1,0,0:0:0
100,312,12038,2,0,B|72:272|80:220,1,90,2|2,0:0|0:0,0:0:0
100,72,12413,2,0,B|72:112|80:164,1,90,0|0,0:0|0:0,0:0:0
164,192,12788,2,0,B|434:192,1,270,2|0,0:0|0:0,0:0:0
492,124,13538,5,2,0:0:0
434,328,13725,1,0,0:0:0
492,260,13913,1,2,0:0:0
434,56,14100,1,0,0:0:0
434,56,14194,1,0,0:0:0
434,56,14288,6,0,B|340:80|252:40,1,180,4|8,0:0|0:0,0:0:0
168,60,14850,1,0,0:0:0
136,92,14944,2,0,B|88:144|80:216,1,135
84,304,15413,1,8,0:0:0
168,336,15600,1,0,0:0:0
344,336,15975,5,0,0:0:0
344,336,16069,1,0,0:0:0
344,336,16163,2,0,B|436:308,1,90,8|0,0:0|0:0,0:0:0
380,192,16538,2,0,B|472:164,1,90
492,40,16913,1,8,0:0:0
448,52,17006,1,0,0:0:0
404,64,17100,1,0,0:0:0
360,76,17194,1,0,0:0:0
316,88,17288,6,0,B|248:88|248:88|196:52|132:72,1,180,0|8,0:0|0:0,0:0:0
80,136,17850,1,0,0:0:0
80,136,17944,2,0,B|60:240,1,90
128,352,18319,1,0,0:0:0
127,352,18413,2,0,B|144:264,1,90,8|0,0:0|0:0,0:0:0
184,184,18788,1,0,0:0:0
256,128,18975,1,0,0:0:0
328,184,19163,1,8,0:0:0
368,264,19350,2,0,B|384:352,1,90,0|0,0:0|0:0,0:0:0
448,224,19725,2,0,B|432:136,1,90,0|8,0:0|0:0,0:0:0
412,48,20100,5,0,0:0:0
320,44,20288,1,4,0:0:0
320,44,20381,2,0,B|256:24|256:24|192:44,1,135,0|8,0:0|0:0,0:0:0
124,104,20850,1,0,0:0:0
32,192,21038,1,0,0:0:0
124,280,21225,1,0,0:0:0
191,339,21413,1,8,0:0:0
191,339,21506,2,0,B|255:359|255:359|319:339,1,135,0|0,0:0|0:0,0:0:0
388,280,21975,5,0,0:0:0
388,280,22163,2,0,B|432:312,2,45,8|0|0,0:0|0:0|0:0,0:0:0
388,104,22538,2,0,B|432:72,2,45
412,192,22913,2,0,B|320:192,1,90,8|0,0:0|0:0,0:0:0
276,192,23194,1,0,0:0:0
232,192,23288,1,0,0:0:0
54,192,23475,2,0,B|144:192,1,90,0|8,0:0|0:0,0:0:0
188,112,23850,6,0,B|236:152|236:232|184:276,1,180
256,332,24413,1,8,0:0:0
323,271,24600,2,0,B|276:232|276:152|324:112,1,180,4|0,0:0|0:0,0:0:0
451,28,25163,2,0,B|472:48|472:92|452:112,1,90,8|0,0:0|0:0,0:0:0
388,176,25538,1,0,0:0:0
419,194,25631,1,0,0:0:0
450,212,25725,1,0,0:0:0
481,230,25819,1,0,0:0:0
512,248,25913,1,8,0:0:0
420,348,26194,5,0,0:0:0
420,348,26288,2,0,B|356:376|288:348,1,135,4|0,0:0|0:0,0:0:0
248,332,26663,1,8,0:0:0
188,264,26850,2,0,B|140:224|76:212|8:228,1,180
40,312,27413,1,8,0:0:0
40,312,27600,2,0,B|168:180,1,180
128,100,28163,2,0,B|160:64|216:52,1,90,8|0,0:0|0:0,0:0:0
284,100,28538,2,0,B|326:77|383:84,1,90,0|0,0:0|0:0,0:0:0
404,168,28913,2,0,B|451:160|502:187,1,90,8|0,0:0|0:0,0:0:0
428,292,29288,5,0,0:0:0
428,292,29381,2,0,B|388:260|320:276|300:328,1,135,0|8,0:0|0:0,0:0:0
256,240,29850,1,0,0:0:0
84,292,30038,2,0,B|124:260|192:276|212:328,1,135,0|0,0:0|0:0,0:0:0
256,330,30413,2,0,B|256:240,1,90,8|4,0:0|0:0,0:0:0
148,172,30788,6,0,B|164:120,1,45
256,32,31163,1,8,0:0:0
340,64,31350,1,0,0:0:0
340,64,31444,1,0,0:0:0
340,64,31538,1,0,0:0:0
424,100,31725,2,0,B|480:124,1,45
492,156,31913,1,8,0:0:0
488,200,32006,1,0,0:0:0
456,228,32100,1,0,0:0:0
412,224,32194,1,0,0:0:0
368,224,32288,6,0,B|320:224|320:224|280:248,1,90,4|0,0:0|0:0,0:0:0
256,280,32569,1,0,0:0:0
228,245,32663,2,0,B|192:224|192:224|144:224,1,90,8|0,0:0|0:0,0:0:0
180,140,33038,2,0,B|160:96|184:52,1,90
329,53,33413,2,0,B|353:97|333:141,1,90,8|4,0:0|0:0,0:0:0
388,252,33788,6,0,B|428:292,2,45
124,252,34163,2,0,B|84:292,2,45,8|0|0,0:0|0:0|0:0,0:0:0
192,312,34538,1,0,0:0:0
256,376,34725,1,0,0:0:0
320,312,34913,1,8,0:0:0
256,248,35100,2,0,B|256:112,1,135,4|0,0:0|0:0,0:0:0
256,68,35475,1,8,0:0:0
168,44,35663,1,8,0:0:0
344,44,35850,1,8,0:0:0
344,88,35944,1,0,0:0:0
344,132,36038,1,0,0:0:0
344,220,36225,6,0,B|404:296,1,90,4|8,0:0|0:0,0:0:0
428,328,36506,1,0,0:0:0
456,364,36600,1,0,0:0:0
332,340,36788,2,0,B|284:368,1,45
172,332,37069,2,0,B|136:304,1,45,0|8,0:0|0:0,0:0:0
40,224,37350,1,0,0:0:0
20,100,37538,2,0,B|64:80,3,45,8|0|8|0,0:0|0:0|0:0|0:0,0:0:0
96,108,37913,1,8,0:0:0
140,116,38006,1,8,0:0:0
180,100,38100,1,8,0:0:0
208,64,38194,1,0,0:0:0
248,40,38288,6,0,B|292:20|340:40,1,90,4|0,0:0|0:0,0:0:0
408,92,38663,1,0,0:0:0
408,92,38756,2,0,B|392:164|444:228,1,135,0|8,0:0|0:0,0:0:0
348,212,39225,1,0,0:0:0
437,219,39413,2,0,B|419:265|387:293,1,90
308,332,39788,1,0,0:0:0
256,260,39975,1,0,0:0:0
204,332,40163,1,0,0:0:0
125,293,40350,2,0,B|93:265|75:219,1,90,0|8,0:0|0:0,0:0:0
100,56,40725,2,0,B|172:112|206:210,1,180
310,200,41288,5,0,0:0:0
356,124,41475,1,0,0:0:0
404,48,41663,1,0,0:0:0
452,124,41850,1,0,0:0:0
452,124,41944,1,0,0:0:0
452,124,42038,2,0,B|492:208|492:208|492:304,1,180,8|0,0:0|0:0,0:0:0
412,336,42600,1,0,0:0:0
320,336,42788,2,0,B|276:336|276:336|232:368,1,90
148,348,43163,1,0,0:0:0
88,228,43444,5,0,0:0:0
88,228,43538,2,0,B|40:136,1,90,8|0,0:0|0:0,0:0:0
82,24,43913,2,0,B|124:104,1,90
196,48,44288,1,0,0:0:0
256,180,44475,1,0,0:0:0
316,48,44663,1,0,0:0:0
388,104,44850,6,0,B|429:24,1,90,0|8,0:0|0:0,0:0:0
388,104,45225,2,0,B|456:172|436:272,1,180
498,328,45788,2,0,B|458:320|436:269,1,90
344,260,46163,1,0,0:0:0
300,336,46350,1,0,0:0:0
256,336,46444,1,0,0:0:0
212,336,46538,2,0,B|120:336,1,90,8|0,0:0|0:0,0:0:0
34,244,46913,2,0,B|124:244,1,90
188,180,47288,6,0,B|224:132|140:112|164:52,1,135
196,28,47663,1,0,0:0:0
256,96,47850,1,0,0:0:0
316,28,48038,1,8,0:0:0
349,57,48131,2,0,B|372:112|288:132|324:180,1,135
180,268,48600,2,0,B|207:323|299:323|331:267,1,180
416,304,49163,5,8,0:0:0
348,364,49350,1,0,0:0:0
256,384,49538,1,8,0:0:0
164,364,49725,1,0,0:0:0
96,304,49913,1,8,0:0:0
96,304,50006,1,8,0:0:0
96,304,50100,1,8,0:0:0
96,304,50194,1,0,0:0:0
96,304,50288,6,0,B|52:280|32:220,1,90,4|0,0:0|0:0,0:0:0
38,146,50663,2,0,B|52:104|96:80,1,90,0|0,0:0|0:0,0:0:0
136,60,50944,1,0,0:0:0
180,64,51038,1,8,0:0:0
256,112,51225,1,0,0:0:0
344,100,51413,2,0,B|376:136|423:135,1,90
503,287,51788,2,0,B|471:251|424:252,1,90
432,340,52163,1,0,0:0:0
256,276,52444,5,0,0:0:0
256,276,52538,2,0,B|164:312,1,90,8|0,0:0|0:0,0:0:0
24,232,52913,2,0,B|108:200,1,90
108,200,53288,1,0,0:0:0
52,88,53475,5,0,0:0:0
52,88,53569,1,0,0:0:0
52,88,53663,2,0,B|135:55,1,90
224,32,54038,1,8,0:0:0
224,32,54131,2,0,B|256:100|344:108,1,135
416,84,54600,1,0,0:0:0
416,84,54788,2,0,B|328:120|304:232,1,180
256,292,55350,5,0,0:0:0
256,292,55444,1,0,0:0:0
256,292,55538,2,0,B|232:336|176:348,1,90,8|0,0:0|0:0,0:0:0
62,117,55913,2,0,B|102:141|115:187,1,90
176,256,56288,1,0,0:0:0
256,220,56475,1,0,0:0:0
256,220,56569,1,0,0:0:0
256,220,56663,1,0,0:0:0
336,256,56850,1,0,0:0:0
397,187,57038,6,0,B|410:141|450:117,1,90,8|0,0:0|0:0,0:0:0
476,80,57319,1,0,0:0:0
452,40,57413,2,0,B|364:24,1,90
300,88,57788,2,0,B|256:108|212:88,1,90
149,23,58163,2,0,B|81:47,1,45
68,60,58350,2,0,B|36:160,1,90,0|8,0:0|0:0,0:0:0
24,188,58631,2,0,B|88:164|156:200,1,135
200,276,59100,1,0,0:0:0
304,344,59288,6,0,B|376:360|436:324,1,135
472,304,59663,1,0,0:0:0
408,240,59850,2,0,B|444:208|500:216,1,90,0|8,0:0|0:0,0:0:0
504,172,60131,1,0,0:0:0
488,132,60225,2,0,B|448:40,1,90
344,21,60600,2,0,B|380:104,1,90,0|0,0:0|0:0,0:0:0
316,168,60975,5,0,0:0:0
152,92,61163,1,8,0:0:0
84,256,61350,1,0,0:0:0
240,348,61538,5,8,0:0:0
212,328,61631,1,0,0:0:0
196,296,61725,1,0,0:0:0
188,260,61819,1,0,0:0:0
192,224,61913,1,8,0:0:0
212,192,62006,1,0,0:0:0
241,168,62100,1,0,0:0:0
280,160,62194,1,0,0:0:0
316,168,62288,6,0,B|508:140,1,180,4|8,0:0|0:0,0:0:0
376,256,62850,1,0,0:0:0
376,256,62944,1,0,0:0:0
376,256,63039,2,0,B|376:314|348:346|268:346|253:311,1,180,0|8,0:0|0:0,0:0:0
112,208,63601,2,0,B|111:149|139:117|219:117|234:152,1,180
324,144,64163,5,8,0:0:0
303,231,64350,1,0,0:0:0
227,280,64538,1,0,0:0:0
227,280,64631,1,0,0:0:0
137,272,64819,1,0,0:0:0
137,272,64913,1,8,0:0:0
79,203,65100,1,0,0:0:0
109,117,65288,6,0,B|170:75|245:118,2,135
166,186,66038,2,0,B|212:175|268:195,1,90,0|0,0:0|0:0,0:0:0
309,118,66413,1,8,0:0:0
367,196,66600,2,0,B|468:142|411:32,1,180
285,231,67163,2,0,B|239:242|183:222,1,90,2|0,0:0|0:0,0:0:0
79,177,67538,2,0,B|38:152|13:98,1,90,0|0,0:0|0:0,0:0:0
127,45,67913,2,0,B|173:34|229:54,1,90,2|0,0:0|0:0,0:0:0
259,62,68194,1,0,0:0:0
300,84,68288,6,0,B|300:160|300:160|344:208|300:260,1,180,4|8,0:0|0:0,0:0:0
236,312,68850,1,0,0:0:0
144,316,69038,2,0,B|103:291|78:237,1,90,0|0,0:0|0:0,0:0:0
60,164,69413,1,8,0:0:0
144,200,69600,2,0,B|244:208|304:120,1,180,0|0,0:0|0:0,0:0:0
380,92,70163,1,8,0:0:0
316,28,70350,1,0,0:0:0
316,28,70444,1,0,0:0:0
316,28,70538,1,0,0:0:0
316,28,70631,1,0,0:0:0
316,28,70725,1,0,0:0:0
256,128,70913,5,8,0:0:0
172,232,71100,1,0,0:0:0
84,224,71288,2,0,B|124:28,1,180,4|8,0:0|0:0,0:0:0
220,40,71850,1,0,0:0:0
256,128,72038,2,0,B|273:173|256:216,1,90,0|0,0:0|0:0,0:0:0
340,252,72413,1,8,0:0:0
280,316,72600,2,0,B|235:299|192:316,1,90,0|0,0:0|0:0,0:0:0
52,200,73163,6,0,B|69:155|52:112,1,90,8|0,0:0|0:0,0:0:0
147,16,73538,2,0,B|192:33|235:16,1,90,0|0,0:0|0:0,0:0:0
330,111,73913,2,0,B|313:156|330:199,1,90,8|0,0:0|0:0,0:0:0
232,292,74288,5,0,0:0:0
96,296,74475,1,0,0:0:0
180,190,74663,1,8,0:0:0
148,159,74756,1,0,0:0:0
136,115,74850,1,0,0:0:0
154,73,74944,1,0,0:0:0
176,34,75038,1,0,0:0:0
265,34,75225,2,0,B|310:51|353:34,1,90,0|8,0:0|0:0,0:0:0
412,125,75600,6,0,B|312:117|252:205,1,180,8|0,0:0|0:0,0:0:0
269,241,76069,1,0,0:0:0
269,241,76163,1,0,0:0:0
367,71,77288,5,4,0:0:0
419,194,77475,1,0,0:0:0
419,194,77569,1,0,0:0:0
419,194,77663,1,8,0:0:0
331,213,77850,2,0,B|231:205|171:293,1,180,0|0,0:0|0:0,0:0:0
90,255,78413,1,8,0:0:0
100,164,78600,6,0,B|200:172|260:84,1,180,0|0,0:0|0:0,0:0:0
253,45,79069,1,0,0:0:0
253,45,79163,1,8,0:0:0
161,58,79350,2,0,B|153:158|241:218,1,180,0|0,0:0|0:0,0:0:0
308,160,79913,2,0,B|416:144,1,90,8|0,0:0|0:0,0:0:0
448,220,80288,5,0,0:0:0
448,309,80475,1,0,0:0:0
384,372,80663,1,8,0:0:0
294,372,80850,2,0,B|240:384|194:364|168:312,1,135
172,280,81225,2,0,B|152:236|109:217,1,90,8|0,0:0|0:0,0:0:0
112,128,81600,6,0,B|184:80|184:80|232:104|276:80,1,180
364,81,82163,1,8,0:0:0
427,144,82350,2,0,B|475:216|475:216|451:264|475:308,1,180,0|0,0:0|0:0,0:0:0
400,324,82913,1,0,0:0:0
400,324,83006,1,0,0:0:0
400,324,83100,1,0,0:0:0
400,324,83194,1,0,0:0:0
400,324,83288,6,0,B|380:280|337:261,1,90,4|0,0:0|0:0,0:0:0
124,336,83663,2,0,B|168:316|187:273,1,90,8|0,0:0|0:0,0:0:0
112,60,84038,2,0,B|132:104|175:123,1,90,0|0,0:0|0:0,0:0:0
388,48,84413,1,8,0:0:0
388,48,84600,2,0,B|344:68|325:111,1,90
96,252,85163,6,0,B|192:252,1,90,8|0,0:0|0:0,0:0:0
416,132,85538,2,0,B|320:132,1,90
132,308,85913,2,0,B|228:308,1,90,8|0,0:0|0:0,0:0:0
268,308,86194,1,0,0:0:0
300,276,86288,2,0,B|320:236|308:184|248:160|192:196,1,180,4|0,0:0|0:0,0:0:0
116,160,86850,2,0,B|96:200|108:252|168:276|224:240,1,180,4|0,0:0|0:0,0:0:0
400,288,87413,5,0,0:0:0
464,200,87600,2,0,B|484:160|472:108|412:84|356:120,1,180,4|0,0:0|0:0,0:0:0
351,159,88069,1,0,0:0:0
316,188,88163,1,0,0:0:0
272,196,88256,1,0,0:0:0
227,186,88350,1,0,0:0:0
238,275,88538,6,0,B|182:356|82:348,1,180,0|8,0:0|0:0,0:0:0
11,183,89288,1,4,0:0:0
100,284,89476,1,0,0:0:0
100,284,89569,1,0,0:0:0
100,284,89663,1,8,0:0:0
118,129,89850,2,0,B|192:136|232:80|232:80|284:96,1,180
408,136,90413,1,8,0:0:0
444,264,90600,2,0,B|370:257|330:313|330:313|278:297,1,180
100,284,91163,5,8,0:0:0
100,284,91256,1,0,0:0:0
100,284,91350,2,0,B|144:264|163:221,1,90
240,268,91725,2,0,B|285:284|329:268,1,90,0|8,0:0|0:0,0:0:0
392,100,92288,5,0,0:0:0
296,195,92475,1,0,0:0:0
200,99,92663,1,8,0:0:0
128,152,92850,2,0,B|84:172|65:215,1,90,0|0,0:0|0:0,0:0:0
112,292,93225,5,8,0:0:0
196,336,93413,1,0,0:0:0
280,304,93600,2,0,B|336:223|436:231,1,180,4|0,0:0|0:0,0:0:0
476,248,94069,1,0,0:0:0
504,284,94163,1,8,0:0:0
417,318,94350,2,0,B|336:262|344:162,1,180,0|0,0:0|0:0,0:0:0
381,81,94913,5,8,0:0:0
344,164,95100,1,0,0:0:0
275,222,95288,2,0,B|219:303|119:295,1,180,4|8,0:0|0:0,0:0:0
56,231,95850,1,0,0:0:0
60,140,96038,2,0,B|154:102,2,90,0|0|8,0:0|0:0|0:0,0:0:0
56,232,96600,2,0,B|112:313|212:305,1,180,0|0,0:0|0:0,0:0:0
280,248,97163,6,0,B|324:228|343:185,1,90,8|0,0:0|0:0,0:0:0
388,48,97538,2,0,B|344:68|325:111,1,90
264,308,97913,2,0,B|308:288|327:245,1,90,8|0,0:0|0:0,0:0:0
276,172,98288,6,0,B|230:155|186:172,1,90,4|0,0:0|0:0,0:0:0
136,96,98663,2,0,B|116:136,1,45,8|0,0:0|0:0,0:0:0
133,270,98944,2,0,B|153:230,1,45
216,165,99225,1,0,0:0:0
279,101,99413,1,8,0:0:0
256,192,99600,12,0,100350,0:0:0
376,256,100537,6,0,B|404:308,2,45,0|0|0,0:0|0:0|0:0,0:0:0
387,211,100819,5,0,0:0:0
395,167,100912,1,2,0:0:0
394,121,101006,1,0,0:0:0
369,83,101100,1,0,0:0:0
333,54,101194,1,0,0:0:0
289,41,101288,1,4,0:0:0
64,280,113288,6,0,B|256:276,1,180
372,48,114038,2,0,B|432:80|432:180|372:228,1,180,8|0,0:0|0:0,0:0:0
224,260,114788,2,0,B|192:320|92:320|44:260,1,180,0|0,0:0|0:0,0:0:0
100,108,115538,2,0,B|192:72,1,90,8|0,0:0|0:0,0:0:0
360,104,116100,1,0,0:0:0
360,104,116194,1,0,0:0:0
360,104,116288,6,0,B|316:124|297:167,1,90
304,256,116663,2,0,B|258:239|214:256,1,90
180,340,117038,2,0,B|114:359|44:289|52:212,1,180,8|0,0:0|0:0,0:0:0
144,276,117600,2,0,B|176:216|276:216|324:276,2,180
108,192,118538,2,0,B|64:84,1,90
148,60,118913,1,0,0:0:0
168,52,119006,1,0,0:0:0
192,48,119100,1,0,0:0:0
216,48,119194,1,0,0:0:0
238,52,119288,6,0,B|284:69|328:52,1,90,0|0,0:0|0:0,0:0:0
352,140,119663,2,0,B|372:184|415:203,1,90,0|0,0:0|0:0,0:0:0
368,280,120038,2,0,B|336:340|236:340|188:280,1,180,8|0,0:0|0:0,0:0:0
120,284,120600,2,0,B|56:248|56:248|92:196|60:148,1,180
128,88,121163,1,0,0:0:0
216,68,121350,2,0,B|324:24,1,90,0|8,0:0|0:0,0:0:0
384,68,121725,2,0,B|403:133|333:203|256:195,1,180,0|0,0:0|0:0,0:0:0
280,292,122288,5,0,0:0:0
216,355,122475,1,0,0:0:0
125,355,122663,1,0,0:0:0
61,291,122850,2,0,B|41:247|-1:228,1,90,0|8,0:0|0:0,0:0:0
176,104,123413,1,0,0:0:0
302,202,123600,6,0,B|236:221|166:151|174:74,1,180,0|0,0:0|0:0,0:0:0
192,92,124069,1,0,0:0:0
207,76,124163,1,0,0:0:0
222,60,124256,1,0,0:0:0
237,44,124350,1,0,0:0:0
252,28,124444,1,0,0:0:0
267,12,124538,1,0,0:0:0
348,52,124725,5,0,0:0:0
363,67,124819,1,0,0:0:0
378,82,124913,1,0,0:0:0
393,97,125006,1,0,0:0:0
408,112,125100,1,0,0:0:0
423,127,125194,1,0,0:0:0
438,142,125288,1,4,0:0:0
364,308,125663,6,0,B|272:308,1,90
192,268,126038,2,0,B|160:328|60:328|12:268,1,180,8|0,0:0|0:0,0:0:0
288,124,126600,2,0,B|320:64|420:64|468:124,2,180
200,148,127538,2,0,B|154:131|110:148,1,90,8|0,0:0|0:0,0:0:0
120,240,127913,2,0,B|164:272,3,45
192,296,128288,6,0,B|224:236|324:236|372:296,1,180,0|0,0:0|0:0,0:0:0
404,204,128850,1,0,0:0:0
348,132,129038,2,0,B|316:192|216:192|168:132,1,180,8|0,0:0|0:0,0:0:0
116,204,129600,2,0,B|135:269|65:339|-11:331,2,180
32,240,130538,1,8,0:0:0
56,152,130725,1,0,0:0:0
132,104,130913,2,0,B|178:121|222:104,2,90
256,236,131663,6,0,B|246:282|317:353|382:333,1,180,0|8,0:0|0:0,0:0:0
506,206,132413,1,0,0:0:0
440,144,132600,2,0,B|366:137|326:193|326:193|274:177,2,180
268,88,133725,2,0,B|180:52|180:52|84:88,1,180
64,164,134288,5,0,0:0:0
64,298,134475,1,0,0:0:0
200,300,134663,1,0,0:0:0
200,300,135038,1,8,0:0:0
335,300,135225,1,0,0:0:0
430,204,135413,1,0,0:0:0
295,204,135600,6,0,B|215:40,1,180,4|0,0:0|0:0,0:0:0
84,68,136163,2,0,B|39:88|20:131,1,90,8|0,0:0|0:0,0:0:0
112,232,136538,2,0,B|100:260|60:272,2,45
152,251,136819,1,0,0:0:0
196,257,136913,1,0,0:0:0
240,249,137006,1,0,0:0:0
279,226,137100,1,0,0:0:0
303,188,137194,1,0,0:0:0
328,150,137288,6,0,B|360:90|460:90|508:150,1,180,4|8,0:0|0:0,0:0:0
462,215,137850,1,0,0:0:0
434,300,138038,2,0,B|402:360|302:360|254:300,1,180,0|8,0:0|0:0,0:0:0
338,256,138600,2,0,B|266:211|266:211|232:235|175:231,1,180
108,292,139163,2,0,B|63:272|44:229,1,90,8|0,0:0|0:0,0:0:0
48,140,139538,5,0,0:0:0
48,140,139631,1,0,0:0:0
48,140,139725,1,0,0:0:0
136,156,139913,1,8,0:0:0
213,110,140100,1,0,0:0:0
302,98,140288,6,0,B|342:156|445:142,2,135
295,201,141038,1,0,0:0:0
253,280,141225,2,0,B|208:260|189:217,2,90,0|8|0,0:0|0:0|0:0,0:0:0
420,348,141975,2,0,B|375:328|356:285,1,90
432,240,142350,6,0,B|492:208|492:108|432:60,1,180,0|0,0:0|0:0,0:0:0
416,60,142819,1,0,0:0:0
375,40,142913,1,0,0:0:0
330,34,143006,1,0,0:0:0
290,55,143100,1,0,0:0:0
254,83,143194,1,0,0:0:0
221,114,143288,6,0,B|161:146|161:246|221:294,1,180,4|8,0:0|0:0,0:0:0
119,311,143850,2,0,B|72:308|37:253,2,90
124,220,144413,1,8,0:0:0
180,148,144600,6,0,B|212:208|312:208|360:148,1,180,0|8,0:0|0:0,0:0:0
228,88,145163,1,0,0:0:0
228,88,145350,2,0,B|284:118|284:218|245:244,1,180,0|0,0:0|0:0,0:0:0
168,292,145913,1,8,0:0:0
52,228,146100,1,0,0:0:0
72,108,146288,2,0,B|102:51|202:51|228:90,1,180,0|8,0:0|0:0,0:0:0
72,108,146850,1,0,0:0:0
72,108,147038,2,0,B|133:89|204:159|195:206,1,180,0|0,0:0|0:0,0:0:0
244,280,147600,2,0,B|274:336|374:336|400:297,1,180,0|0,0:0|0:0,0:0:0
432,120,148163,6,0,B|412:165|369:184,1,90,8|0,0:0|0:0,0:0:0
80,264,148538,2,0,B|100:219|143:200,1,90,0|0,0:0|0:0,0:0:0
328,368,148913,2,0,B|283:348|264:305,1,90,8|0,0:0|0:0,0:0:0
264,216,149288,5,0,0:0:0
353,216,149475,1,0,0:0:0
416,152,149663,1,0,0:0:0
364,76,149851,1,0,0:0:0
364,76,149944,1,0,0:0:0
364,76,150038,1,0,0:0:0
276,68,150225,2,0,B|231:88|212:131,1,90,8|0,0:0|0:0,0:0:0
128,164,150600,2,0,B|212:188|216:280,1,135,8|0,0:0|0:0,0:0:0
192,296,150975,2,0,B|174:341|191:385,1,90,8|0,0:0|0:0,0:0:0
192,384,152288,6,0,B|280:384|328:308,1,161.999995056153,4|0,0:0|0:0,0:0:0
352,260,152663,1,8,0:0:0
328,156,152850,2,0,B|400:128|480:200|460:276,1,215.999993408203
352,260,153413,1,8,0:0:0
256,68,153600,6,0,B|184:40|104:112|124:188,1,215.999993408203,4|0,0:0|0:0,0:0:0
232,176,154163,1,8,0:0:0
256,68,154350,1,0,0:0:0
148,84,154538,2,0,B|104:40,2,53.9999983520508,0|0|0,0:0|0:0|0:0,0:0:0
124,188,154913,2,0,B|100:240|36:240,1,107.999996704102,8|0,0:0|0:0,0:0:0
232,176,155288,6,0,B|280:104|372:104,1,161.999995056153,4|0,0:0|0:0,0:0:0
424,104,155663,1,8,0:0:0
372,196,155850,2,0,B|304:180|288:52|356:20,1,215.999993408203
424,104,156413,1,8,0:0:0
492,308,156600,6,0,B|476:376|348:392|316:324,1,215.999993408203,4|0,0:0|0:0,0:0:0
256,236,157163,2,0,B|256:176,2,53.9999983520508,8|0|0,0:0|0:0|0:0,0:0:0
196,324,157538,1,0,0:0:0
149,351,157631,1,0,0:0:0
94,351,157725,1,0,0:0:0
45,326,157819,1,0,0:0:0
17,279,157913,2,0,B|-12:224|32:180,1,107.999996704102,8|0,0:0|0:0,0:0:0
221,73,158288,6,0,B|242:160|162:212,1,161.999995056153,4|0,0:0|0:0,0:0:0
120,244,158663,1,8,0:0:0
32,180,158850,1,0,0:0:0
5,75,159038,2,0,B|64:56|104:100,2,107.999996704102,0|0|8,0:0|0:0|0:0,0:0:0
196,160,159600,6,0,B|276:248|392:192,1,215.999993408203,4|0,0:0|0:0,0:0:0
420,88,160163,2,0,B|476:104|496:160,1,107.999996704102,8|0,0:0|0:0,0:0:0
288,220,160538,2,0,B|273:163|312:118,1,107.999996704102
468,268,160913,2,0,B|426:308|367:297,1,107.999996704102,8|0,0:0|0:0,0:0:0
288,220,161288,5,4,0:0:0
420,88,161475,1,8,0:0:0
468,268,161663,1,8,0:0:0
392,192,161850,2,0,B|320:152|364:116|292:68,1,161.999995056153,8|0,0:0|0:0,0:0:0
244,46,162225,1,8,0:0:0
190,37,162319,1,8,0:0:0
136,47,162413,1,8,0:0:0
90,75,162506,1,8,0:0:0
55,116,162600,6,0,B|3:192|55:268,1,161.999995056153,4|0,0:0|0:0,0:0:0
88,308,162975,1,8,0:0:0
204,192,163163,1,8,0:0:0
244,348,163350,1,0,0:0:0
88,308,163538,2,0,B|112:252|172:252,1,107.999996704102,8|0,0:0|0:0,0:0:0
352,236,163913,2,0,B|328:292|268:292,1,107.999996704102,8|8,0:0|0:0,0:0:0
220,272,164194,1,8,0:0:0
172,252,164288,6,0,B|220:176|172:100,1,161.999995056153,4|0,0:0|0:0,0:0:0
140,56,164663,1,8,0:0:0
116,160,164850,2,0,B|184:208|272:152|248:64,1,215.999993408203
140,56,165413,1,8,0:0:0
92,268,165600,6,0,B|116:348|204:348|204:348|272:348,1,215.999993408203,4|0,0:0|0:0,0:0:0
384,348,166163,1,8,0:0:0
412,244,166350,1,0,0:0:0
328,176,166538,2,0,B|328:116,2,53.9999983520508
244,244,166913,1,8,0:0:0
272,348,167100,1,0,0:0:0
488,320,167288,6,0,B|536:244|488:168,1,161.999995056153,4|0,0:0|0:0,0:0:0
456,124,167663,1,8,0:0:0
356,160,167850,2,0,B|316:92|380:0|456:16,1,215.999993408203,0|8,0:0|0:0,0:0:0
456,124,168413,1,8,0:0:0
364,320,168600,6,0,B|292:368|208:336,1,161.999995056153,4|8,0:0|0:0,0:0:0
160,316,168975,1,0,0:0:0
48,200,169163,1,8,0:0:0
80,156,169256,1,8,0:0:0
136,156,169350,1,8,0:0:0
160,316,169538,1,8,0:0:0
128,360,169631,1,8,0:0:0
72,360,169725,1,8,0:0:0
136,156,169913,1,8,0:0:0
72,360,170100,1,8,0:0:0
136,156,170288,6,0,B|164:72|248:48,1,161.999995056153,4|0,0:0|0:0,0:0:0
300,32,170663,1,8,0:0:0
388,96,170850,1,0,0:0:0
424,200,171038,2,0,B|364:224|324:184,2,107.999996704102,0|0|8,0:0|0:0|0:0,0:0:0
232,120,171600,6,0,B|144:40|32:88,1,215.999993408203,4|0,0:0|0:0,0:0:0
152,192,172163,2,0,B|190:235|250:228,1,107.999996704102,8|0,0:0|0:0,0:0:0
211,14,172538,2,0,B|153:25|129:80,1,107.999996704102
334,156,172913,2,0,B|351:100|315:52,1,107.999996704102,8|0,0:0|0:0,0:0:0
152,192,173288,6,0,B|144:280|220:328,1,161.999995056153,4|0,0:0|0:0,0:0:0
268,356,173663,1,8,0:0:0
296,252,173850,2,0,B|324:184|444:184|472:252,1,215.999993408203
500,356,174413,1,8,0:0:0
296,252,174600,6,0,B|228:224|228:104|296:76,1,215.999993408203,4|0,0:0|0:0,0:0:0
460,8,175163,1,8,0:0:0
460,184,175350,1,0,0:0:0
296,252,175538,1,8,0:0:0
296,252,175631,1,8,0:0:0
296,252,175725,1,8,0:0:0
296,76,175913,1,8,0:0:0
132,144,176100,1,8,0:0:0
132,144,176194,1,8,0:0:0
132,144,176288,5,4,1:2:0
28,196,176475,1,0,1:0:0
28,312,176663,2,0,B|88:312|124:264|124:264|192:264,1,180,0|8,1:0|0:0,0:0:0
308,264,177225,1,0,1:0:0
248,364,177413,1,0,1:0:0
192,264,177600,2,0,B|192:196|192:196|240:160|240:100,1,180,0|0,1:0|1:0,0:0:0
124,100,178163,6,0,B|92:68,2,45,0|0|0,0:0|1:0|0:0,0:0:0
192,200,178538,1,8,0:0:0
312,200,178725,2,0,B|412:200|448:300,1,180,0|0,1:0|0:0,0:0:0
340,348,179288,5,0,1:0:0
256,264,179475,1,0,1:0:0
172,348,179663,1,0,1:0:0
172,348,180038,1,8,0:0:0
88,264,180225,1,0,1:0:0
172,180,180412,1,0,1:0:0
88,96,180600,1,0,1:0:0
88,96,180975,6,0,B|108:48|160:48|160:48|208:48,1,135,0|0,1:0|1:0,0:0:0
248,48,181350,1,0,1:0:0
320,104,181538,1,8,0:0:0
392,48,181725,1,0,1:0:0
464,104,181913,1,8,0:0:0
488,144,182006,1,8,0:0:0
496,192,182100,1,8,0:0:0
488,240,182194,1,8,0:0:0
464,280,182288,6,0,B|432:340|352:340,1,135,4|0,0:0|0:0,0:0:0
308,340,182663,1,8,0:0:0
292,252,182850,2,0,B|264:200|168:200|140:252,1,180
124,340,183413,1,8,0:0:0
216,340,183600,6,0,B|216:156,1,180,0|0,0:0|0:0,0:0:0
216,68,184163,1,8,0:0:0
140,112,184350,1,0,0:0:0
216,160,184538,1,0,0:0:0
140,204,184725,1,0,0:0:0
216,252,184913,1,8,0:0:0
140,296,185100,6,0,B|168:348|264:348|292:296,1,180,0|0,0:0|0:0,0:0:0
292,204,185663,2,0,B|344:204|368:244,1,90,10|0,0:0|0:0,0:0:0
292,296,186038,1,2,0:0:0
216,252,186225,1,2,0:0:0
216,160,186413,1,10,0:0:0
292,112,186600,6,0,B|388:112|448:188,1,180,2|0,0:0|0:0,0:0:0
492,268,187163,1,8,0:0:0
400,268,187350,2,0,B|360:308,2,45
448,188,187725,1,0,0:0:0
492,268,187913,1,8,0:0:0
316,352,188100,6,0,B|240:352|240:352|188:352|152:304,1,180,4|0,0:0|0:0,0:0:0
112,224,188663,2,0,B|64:244|64:292,1,90,10|0,0:0|0:0,0:0:0
152,304,189038,1,2,0:0:0
204,232,189225,1,2,0:0:0
112,224,189413,1,10,0:0:0
152,304,189600,6,0,B|188:352|240:352|240:352|316:352,1,180,2|0,0:0|0:0,0:0:0
408,352,190163,1,8,0:0:0
408,260,190350,2,0,B|448:220,2,45,2|2|2,0:0|0:0|0:0,0:0:0
316,260,190725,1,2,0:0:0
316,352,190913,1,10,0:0:0
504,204,191100,6,0,B|488:164|449:152|412:164|412:164|356:124,1,180,4|0,0:0|0:0,0:0:0
356,32,191663,2,0,B|304:32|280:72,1,90,10|0,0:0|0:0,0:0:0
224,144,192038,1,2,0:0:0
300,192,192225,1,2,0:0:0
356,124,192413,1,8,0:0:0
204,20,192600,6,0,B|145:-1|76:38|65:99,1,180,4|0,0:0|0:0,0:0:0
60,192,193163,1,8,0:0:0
132,248,193350,1,0,0:0:0
204,192,193538,1,0,0:0:0
272,252,193725,1,0,0:0:0
248,340,193913,1,8,0:0:0
204,352,194006,1,8,0:0:0
160,340,194100,1,8,0:0:0
132,136,194288,6,0,B|148:88|196:88|196:88|248:88,1,135,4|0,0:0|0:0,0:0:0
288,88,194663,1,8,0:0:0
324,116,194756,1,0,0:0:0
324,160,194850,2,0,B|324:220|404:268|456:232,1,180
416,148,195413,1,8,0:0:0
236,172,195600,6,0,B|164:172|164:92|80:92,1,180,4|0,0:0|0:0,0:0:0
0,132,196163,1,8,0:0:0
0,176,196256,1,0,0:0:0
32,208,196350,2,0,B|104:208|104:288|188:288,1,180
276,288,196913,1,8,0:0:0
308,320,197006,1,0,0:0:0
352,320,197100,6,0,B|460:320|460:204,1,180,4|0,0:0|0:0,0:0:0
460,160,197569,1,0,0:0:0
428,128,197663,1,8,0:0:0
340,132,197850,1,0,0:0:0
280,200,198038,1,0,0:0:0
276,288,198225,1,0,0:0:0
216,356,198413,1,8,0:0:0
36,356,198600,6,0,B|-28:340|-28:236|36:220,1,180,4|0,0:0|0:0,0:0:0
96,288,199163,1,8,0:0:0
156,220,199350,1,0,0:0:0
196,200,199444,1,0,0:0:0
236,220,199538,1,0,0:0:0
296,288,199725,1,0,0:0:0
388,288,199913,1,8,0:0:0
492,140,200100,6,0,B|525:83|452:9|395:43,1,180,4|0,0:0|0:0,0:0:0
400,136,200663,1,8,0:0:0
328,188,200850,1,0,0:0:0
288,208,200944,1,0,0:0:0
248,188,201038,1,0,0:0:0
184,124,201225,1,0,0:0:0
92,124,201413,1,8,0:0:0
24,304,201600,6,0,B|56:372|136:356,1,135,4|0,0:0|0:0,0:0:0
180,348,201975,1,0,0:0:0
221,330,202069,1,0,0:0:0
255,300,202163,1,8,0:0:0
277,261,202256,1,8,0:0:0
287,217,202350,1,8,0:0:0
323,190,202444,1,0,0:0:0
368,192,202538,1,8,0:0:0
401,223,202631,1,8,0:0:0
406,267,202725,1,8,0:0:0
382,305,202819,1,0,0:0:0
339,318,202913,1,8,0:0:0
297,301,203006,1,0,0:0:0
277,261,203100,1,8,0:0:0
263,217,203194,1,8,0:0:0
262,171,203288,2,0,B|250:163|250:163|262:155|262:155|250:147|250:147|262:139|262:139|250:131|250:131|262:123|262:123|250:115|250:115|262:107|262:107|250:99|250:99|262:91|262:91|250:83|250:83|262:75|262:75|250:67|250:67|262:59|262:59|250:51|250:51|262:43|262:43|250:35|250:35|262:27|262:27|250:19,1,270,4|0,0:0|0:0,0:0:0
304,80,215663,6,0,B|436:52,1,135,2|0,0:0|0:0,0:0:0
456,92,216038,2,0,B|364:112|324:208,1,180,0|2,0:0|0:0,0:0:0
208,80,216788,2,0,B|76:52,1,135,0|0,0:0|0:0,0:0:0
56,92,217163,2,0,B|148:112|188:208,1,180,2|0,0:0|0:0,0:0:0
256,148,217725,2,0,B|256:328,1,180,2|0,0:0|0:0,0:0:0
112,336,218288,5,2,0:0:0
400,336,218663,1,0,0:0:0
400,48,219038,1,2,0:0:0
108,44,219413,1,0,0:0:0
328,228,219788,2,0,B|304:192|304:192|208:192|208:192|180:232,1,180,2|0,0:0|0:0,0:0:0
472,260,220538,5,2,0:0:0
472,124,220819,1,0,0:0:0
472,260,221100,1,2,0:0:0
412,192,221288,2,0,B|376:104|288:60,1,180,2|0,0:0|0:0,0:0:0
100,192,222038,2,0,B|136:280|224:324,1,180,2|0,0:0|0:0,0:0:0
400,344,222788,2,0,B|300:236,1,135,2|0,0:0|0:0,0:0:0
276,212,223163,2,0,B|144:68,1,180,0|2,0:0|0:0,0:0:0
12,192,223913,5,0,0:0:0
172,276,224288,2,0,B|236:300|268:380,1,135,2|0,0:0|0:0,0:0:0
284,328,224663,2,0,B|368:376|472:332,1,180
488,160,225413,1,2,0:0:0
344,52,225788,2,0,B|254:13|170:61,1,180,2|0,0:0|0:0,0:0:0
20,160,226538,5,2,0:0:0
44,248,226725,1,0,0:0:0
68,284,226819,1,0,0:0:0
108,304,226913,1,0,0:0:0
152,308,227006,1,0,0:0:0
196,296,227100,1,0,0:0:0
232,268,227194,1,0,0:0:0
252,228,227288,6,0,B|292:204|344:216,1,90,4|0,0:0|0:0,0:0:0
380,290,227663,2,0,B|344:262|338:214,1,90,8|0,0:0|0:0,0:0:0
383,138,228038,1,0,0:0:0
383,138,228225,2,0,B|376:183|338:214,1,90,8|8,0:0|0:0,0:0:0
464,192,228600,5,4,0:0:0
464,192,228694,1,0,0:0:0
464,192,228788,1,0,0:0:0
464,68,228975,2,0,B|416:40,1,45,8|0,0:0|0:0,0:0:0
300,44,229256,2,0,B|248:44,1,45,0|4,0:0|0:0,0:0:0
160,128,229538,1,8,0:0:0
52,192,229725,2,8,B|8:192,2,45
160,256,230100,1,8,0:0:0
232,312,230288,6,0,B|260:352|312:364,1,90,4|0,0:0|0:0,0:0:0
376,308,230663,1,8,0:0:0
420,232,230850,2,0,B|428:132|508:80,1,180
500,172,231413,1,8,0:0:0
500,172,231600,2,0,B|436:104|344:84,1,180,4|0,0:0|0:0,0:0:0
256,68,232163,1,8,0:0:0
168,84,232350,2,0,B|76:104|12:172,1,180
36,296,232913,5,8,0:0:0
148,352,233100,1,0,0:0:0
148,352,233194,1,0,0:0:0
148,352,233288,2,0,B|240:352,1,90,4|0,0:0|0:0,0:0:0
328,352,233663,2,0,B|376:344|408:304,1,90,8|0,0:0|0:0,0:0:0
476,360,234038,2,0,B|392:320|356:228,1,180,0|8,0:0|0:0,0:0:0
456,100,234600,1,4,0:0:0
456,190,234788,2,0,B|512:192|536:140,1,90
456,100,235163,6,0,B|400:102|376:50,1,90,8|0,0:0|0:0,0:0:0
56,100,235538,2,0,B|112:102|136:50,1,90,0|0,0:0|0:0,0:0:0
301,103,235913,2,0,B|213:103,1,90,8|0,0:0|0:0,0:0:0
211,281,236288,2,0,B|301:281,2,90,4|8|8,0:0|0:0|0:0,0:0:0
168,360,236850,2,0,B|348:360,1,180,0|8,0:0|0:0,0:0:0
504,268,237413,1,0,0:0:0
504,268,237600,2,0,B|504:176,1,90,4|0,0:0|0:0,0:0:0
504,88,237975,2,8,B|504:32,2,45
428,132,238350,1,8,0:0:0
428,40,238538,5,0,0:0:0
256,356,238913,1,8,0:0:0
84,40,239288,5,4,0:0:0
16,100,239475,1,0,0:0:0
104,128,239663,1,8,0:0:0
36,188,239850,2,0,B|208:236,1,180
256,156,240413,1,8,0:0:0
302,236,240600,2,0,B|476:188,1,180
488,100,241163,1,8,0:0:0
488,100,241350,2,0,B|464:136|463:232|528:272,1,180
444,316,241913,1,8,0:0:0
268,348,242100,5,0,0:0:0
268,348,242194,1,0,0:0:0
268,348,242288,2,0,B|176:348,1,90,4|0,0:0|0:0,0:0:0
88,348,242663,1,8,0:0:0
178,348,242850,2,0,B|164:268|84:256,1,135
52,232,243225,2,0,B|20:200|20:144,1,90,8|8,0:0|0:0,0:0:0
96,48,243600,6,0,B|160:24|228:52,1,135,4|0,0:0|0:0,0:0:0
240,96,243975,1,8,0:0:0
300,164,244163,1,0,0:0:0
300,164,244350,2,0,B|400:188|480:128,1,180,4|0,0:0|0:0,0:0:0
484,44,244913,1,8,0:0:0
471,133,245100,1,0,0:0:0
471,133,245194,1,0,0:0:0
471,133,245288,6,0,B|496:224|444:308,1,180,4|8,0:0|0:0,0:0:0
360,336,245850,1,0,0:0:0
268,336,246038,2,0,B|80:336,1,180,0|8,0:0|0:0,0:0:0
16,284,246600,1,0,0:0:0
92,232,246788,2,0,B|64:192|92:144,1,90
172,48,247163,6,0,B|180:112|248:152|320:112,1,180,8|0,0:0|0:0,0:0:0
260,44,247725,1,0,0:0:0
260,44,247913,2,0,B|364:200,1,180,8|4,0:0|0:0,0:0:0
448,196,248475,1,0,0:0:0
448,196,248663,2,0,B|387:161|319:201|311:265,1,180,8|0,0:0|0:0,0:0:0
364,336,249225,2,0,B|356:273|288:233|227:268,1,180,8|4,0:0|0:0,0:0:0
164,332,249788,1,0,0:0:0
100,268,249975,6,0,B|52:268|12:200,2,90,8|8|8,0:0|0:0|0:0,0:0:0
164,204,250538,1,8,0:0:0
164,160,250631,1,8,0:0:0
164,116,250725,1,8,0:0:0
176,28,250913,1,8,0:0:0
212,52,251006,1,8,0:0:0
256,60,251100,1,8,0:0:0
300,52,251194,1,8,0:0:0
336,28,251288,6,0,B|384:28|412:72|412:72|456:72,1,135,4|0,0:0|0:0,0:0:0
500,72,251663,1,8,0:0:0
500,164,251850,2,0,B|480:220|416:220|416:220|364:272,1,180,0|0,0:0|0:0,0:0:0
184,296,252413,1,8,0:0:0
184,296,252600,2,0,B|204:240|268:240|268:240|320:188,1,180
384,124,253163,5,8,0:0:0
320,60,253350,1,0,0:0:0
320,60,253444,1,0,0:0:0
320,60,253538,2,0,B|276:40|232:60,1,90,0|0,0:0|0:0,0:0:0
384,124,253913,2,0,B|428:144|472:124,1,90,8|0,0:0|0:0,0:0:0
320,60,254288,5,0,0:0:0
256,124,254475,2,0,B|204:124,2,45,0|0|8,0:0|0:0|0:0,0:0:0
320,188,254850,2,0,B|320:232,2,45,0|0|0,0:0|0:0|0:0,0:0:0
384,124,255225,1,0,0:0:0
320,60,255413,1,8,0:0:0
184,60,255600,6,0,B|88:64|48:160,1,180,0|0,0:0|0:0,0:0:0
4,260,256163,1,8,0:0:0
84,332,256350,1,0,0:0:0
176,276,256538,1,0,0:0:0
156,172,256725,1,0,0:0:0
48,160,256913,1,8,0:0:0
96,240,257100,5,0,0:0:0
96,240,257194,1,0,0:0:0
96,240,257288,2,0,B|132:288|176:288|176:288|220:288,1,135,4|0,0:0|0:0,0:0:0
260,288,257663,1,8,0:0:0
328,228,257850,1,0,0:0:0
376,152,258038,2,0,B|420:132|464:152,1,90
512,228,258413,1,8,0:0:0
420,324,258600,6,0,B|420:144,1,180,0|0,0:0|0:0,0:0:0
420,52,259163,1,8,0:0:0
328,52,259350,1,0,0:0:0
284,52,259444,1,0,0:0:0
240,52,259538,2,0,B|196:52|196:52|164:84,1,90
240,228,259913,2,0,B|284:228|284:228|316:196,1,90,8|0,0:0|0:0,0:0:0
240,140,260288,5,0,0:0:0
160,184,260475,2,0,B|116:160,2,45,0|0|8,0:0|0:0|0:0,0:0:0
160,276,260850,2,0,B|116:300,2,45
240,320,261225,1,0,0:0:0
320,276,261413,1,8,0:0:0
464,184,261600,6,0,B|440:124|344:124|320:184,1,180,4|0,0:0|0:0,0:0:0
320,276,262163,1,8,0:0:0
240,320,262350,2,0,B|240:372,2,45
240,228,262725,1,0,0:0:0
240,184,262819,1,0,0:0:0
220,144,262913,1,8,0:0:0
180,124,263006,1,0,0:0:0
136,124,263100,1,0,0:0:0
36,328,263288,6,0,B|136:228,1,135,4|0,0:0|0:0,0:0:0
164,200,263663,1,8,0:0:0
168,292,263850,2,0,B|120:320|64:296|48:240|68:200,1,180
240,228,264413,1,8,0:0:0
240,228,264600,2,0,B|288:200|344:224|360:280|340:320,1,180
252,316,265163,5,8,0:0:0
168,292,265350,1,0,0:0:0
168,292,265444,1,0,0:0:0
168,292,265538,2,0,B|124:292|92:332,1,90
252,316,265913,2,0,B|296:316|328:276,1,90,8|0,0:0|0:0,0:0:0
384,204,266288,5,0,0:0:0
380,112,266475,1,0,0:0:0
344,84,266569,1,0,0:0:0
300,84,266663,1,8,0:0:0
232,144,266850,1,0,0:0:0
188,144,266944,1,0,0:0:0
152,116,267038,1,0,0:0:0
152,24,267225,1,0,0:0:0
72,68,267413,1,8,0:0:0
0,232,267600,6,0,B|0:332|93:371,1,180,4|0,0:0|0:0,0:0:0
137,291,268163,2,0,B|90:271|90:221,1,90,8|0,0:0|0:0,0:0:0
179,212,268538,1,0,0:0:0
179,212,268631,1,8,0:0:0
179,212,268725,1,0,0:0:0
269,223,268913,2,0,B|282:185|241:125|201:123,1,135,8|0,0:0|0:0,0:0:0
132,116,269288,6,0,B|136:80|168:48|204:48|240:64,1,135,4|0,0:0|0:0,0:0:0
274,81,269663,1,8,0:0:0
328,152,269850,1,0,0:0:0
269,223,270038,2,0,B|269:273|312:296,1,90
404,296,270413,1,8,0:0:0
216,148,270600,6,0,B|156:117|87:157|84:224,1,180,4|0,0:0|0:0,0:0:0
76,312,271163,1,8,0:0:0
144,372,271350,1,0,0:0:0
172,336,271444,1,0,0:0:0
216,336,271538,2,0,B|256:336|256:372|296:372,1,90
388,372,271913,1,8,0:0:0
500,176,272100,6,0,B|500:128|444:96|400:120,1,135,4|8,0:0|0:0,0:0:0
364,144,272475,1,0,0:0:0
296,204,272663,1,8,0:0:0
220,156,272850,2,0,B|176:176,2,45
240,68,273225,1,0,0:0:0
328,60,273413,1,8,0:0:0
432,260,273600,6,0,B|432:308|384:344|336:332,1,135,4|8,0:0|0:0,0:0:0
296,324,273975,1,0,0:0:0
208,296,274163,1,8,0:0:0
136,244,274350,1,0,0:0:0
80,172,274538,2,8,B|56:152|24:152,2,60
136,128,274913,2,8,B|136:96|108:76,2,60
192,172,275288,6,0,B|256:208|320:172,1,135,4|0,0:0|0:0,0:0:0
360,152,275663,1,8,0:0:0
444,116,275850,2,0,B|496:140|496:244|444:268,1,180
360,232,276413,1,8,0:0:0
176,84,276600,6,0,B|208:56|256:44|256:44|304:56|336:84,1,180,4|0,0:0|0:0,0:0:0
256,192,277163,1,8,0:0:0
176,300,277350,2,0,B|208:328|256:340|256:340|304:328|336:300,1,180
256,192,277913,1,8,0:0:0
68,116,278100,6,0,B|16:140|16:244|68:268,1,180,4|0,0:0|0:0,0:0:0
68,268,278569,1,0,0:0:0
68,268,278663,1,8,0:0:0
176,260,278850,1,0,0:0:0
284,324,279038,1,0,0:0:0
428,304,279225,1,0,0:0:0
484,152,279413,1,8,0:0:0
340,44,279600,6,0,B|256:-12|172:44,1,180,4|0,0:0|0:0,0:0:0
68,132,280163,1,8,0:0:0
55,174,280256,1,8,0:0:0
74,214,280350,1,8,0:0:0
112,238,280444,1,8,0:0:0
157,237,280538,1,8,0:0:0
192,209,280631,1,0,0:0:0
236,200,280725,1,8,0:0:0
278,215,280819,1,0,0:0:0
310,245,280913,1,0,0:0:0
351,262,281006,1,0,0:0:0
394,250,281100,1,4,0:0:0
256,192,281194,12,0,287194,0:0:0
