osu file format v9

[General]
AudioFilename: Philosophyz.mp3
AudioLeadIn: 0
PreviewTime: -1
Countdown: 0
SampleSet: Soft
StackLeniency: 0.7
Mode: 0
LetterboxInBreaks: 1

[Editor]
Bookmarks: 125378
DistanceSpacing: 1.5
BeatDivisor: 4
GridSize: 8

[Metadata]
Title:Philosophyz
Artist:Mizutani Runa
Creator:Doubt
Version:Insane
Source:Rewrite
Tags:key

[Difficulty]
HPDrainRate:8
CircleSize:4
OverallDifficulty:7
ApproachRate:8
SliderMultiplier:2
SliderTickRate:1

[Events]
//Background and Video events
0,0,"Background.jpg"
Video,0,"Rewrite.avi"
//Break Periods
2,25640,38378
2,102328,113378
2,150328,155003
//Storyboard Layer 0 (Background)
//Storyboard Layer 1 (Fail)
//Storyboard Layer 2 (Pass)
//Storyboard Layer 3 (Foreground)
//Storyboard Sound Samples
//Background Colour Transformations
3,100,0,0,0

[TimingPoints]
1628,375,4,2,0,100,1,0
78128,-100,4,1,0,100,0,1
94440,-133.333333333333,4,1,0,100,0,1
94815,-100,4,1,0,100,0,1
102128,-100,4,2,0,100,0,0
114128,-133.333333333333,4,2,0,100,0,0
126128,-100,4,1,0,100,0,1
142440,-133.333333333333,4,1,0,100,0,1
142815,-100,4,1,0,100,0,1
150128,-100,4,2,0,100,0,0

[HitObjects]
320,192,6878,1,0
312,192,6971,1,0
304,192,7065,1,0
296,192,7159,1,0
288,192,7253,1,0
280,192,7346,1,0
272,192,7440,1,0
264,192,7534,1,0
256,192,7628,5,0
176,128,7815,1,0
96,192,8003,1,0
176,256,8190,2,0,B|176:320|256:320,1,100
336,320,8565,1,0
416,256,8753,1,0
416,160,8940,1,0
336,96,9128,1,0
240,96,9315,2,0,B|120:96,2,100
136,264,10065,5,0
208,336,10253,1,0
304,336,10440,1,0
376,264,10628,1,0
256,192,11003,12,0,13628
128,88,14378,5,0
320,152,14565,1,0
152,256,14753,1,0
344,320,14940,1,0
344,320,15128,6,0,B|448:320|448:168,1,200,4|0
448,80,15690,1,0
352,120,15878,2,0,B|248:120|248:272,1,200,8|0
168,320,16440,1,0
104,240,16628,6,0,B|104:136,1,100,8|0
408,144,17003,2,0,B|408:248,1,100,0|0
208,40,17378,2,0,B|312:40,1,100,8|0
304,344,17753,2,0,B|200:344,1,100
120,288,18128,5,8
88,248,18221,1,0
80,200,18315,1,0
88,152,18409,1,0
120,112,18503,1,0
176,192,18690,1,0
376,192,19065,1,0
464,144,19253,1,0
464,240,19440,1,4
80,56,20753,5,0
80,56,21128,6,0,B|80:112|112:168,1,100,8|0
432,56,21503,2,0,B|432:112|400:168,1,100
200,128,21878,2,0,B|200:240,1,100,8|0
312,128,22253,2,0,B|312:240,1,100
432,328,22628,6,0,B|432:272|400:216,1,100,8|0
80,328,23003,2,0,B|80:272|112:216,1,100
312,256,23378,2,0,B|312:144,1,100,8|0
200,256,23753,2,0,B|200:144,1,100,0|0
256,192,24128,5,8
208,136,24503,5,0
312,240,24690,1,0
408,56,25065,5,0
256,192,25253,1,0
120,336,25440,1,4
104,96,39128,5,0
104,96,39221,1,0
104,96,39315,1,0
208,96,39503,2,0,B|256:96|288:160,1,100
296,256,39878,2,0,B|248:256|216:192,1,100
320,176,40253,2,0,B|368:176|400:240,1,100
456,312,40628,1,0
456,216,40815,2,0,B|352:216|288:320,1,200
291,313,41378,1,0
291,313,41565,1,0
448,56,42128,1,4
248,56,42503,6,0,B|184:56|160:128,1,100
168,208,42878,1,0
168,304,43065,1,0
272,304,43253,1,0
272,304,43440,2,0,B|376:304|432:192,1,200
432,96,44003,1,0
344,48,44190,1,0
256,96,44378,1,0
168,48,44565,2,0,B|48:184|176:328,1,300,0|4
368,320,45503,5,0
408,296,45596,1,0
416,246,45690,1,0
416,144,45878,1,0
368,56,46065,1,0
267,57,46253,1,0
264,152,46440,2,0,B|200:160|184:88,2,100
264,256,47003,2,0,B|328:248|344:320,2,100
168,256,47565,1,0
88,192,47753,1,0
168,128,47940,1,0
240,192,48128,6,0,B|448:192,2,200
168,128,49065,1,0
88,192,49253,1,0
168,256,49440,2,0,B|80:336,2,100
272,256,50003,2,0,B|352:344,2,100
352,192,50565,1,0
456,192,50753,1,0
352,192,50940,1,0
456,192,51128,1,4
88,192,51503,5,0
136,104,51690,1,0
240,104,51878,2,0,B|296:104|312:168,2,100
192,192,52440,1,0
136,280,52628,1,0
224,328,52815,1,0
328,320,53003,1,0
416,272,53190,1,0
448,176,53378,5,0
416,144,53471,1,0
368,136,53565,1,0
320,144,53659,1,0
272,152,53753,1,0
224,144,53846,1,0
192,112,53940,1,0
160,80,54034,1,0
152,32,54128,1,4
112,232,54503,5,0
120,280,54596,1,0
152,312,54690,1,0
256,312,54878,1,0
296,280,54971,1,0
304,232,55065,1,0
208,192,55253,1,0
208,96,55440,2,0,B|296:96|400:176,1,200
392,168,56190,5,0
224,280,56377,1,0
56,168,56565,1,0
224,64,57128,5,4
224,64,57503,2,0,B|320:136,1,100
296,224,57878,2,0,B|208:160,1,100
120,200,58253,2,0,B|216:272,1,100
200,260,58534,1,0
200,260,58628,1,0
200,360,58815,6,0,B|304:360|248:264|416:264,1,200
448,208,59378,1,0
368,152,59565,1,0
280,96,59753,1,0
184,96,59940,1,0
184,200,60128,2,0,B|56:200|56:48,2,200
184,296,61065,1,0
264,360,61253,1,0
344,296,61440,2,0,B|392:296,6,50
344,192,62378,5,4
184,72,62753,1,8
344,192,63128,1,0
256,240,63315,1,0
208,328,63503,1,8
112,360,63690,1,0
16,328,63878,2,0,B|16:208|120:168,1,200,0|8
16,184,64440,2,0,B|48:264|200:344,1,200
256,320,65003,2,0,B|376:320,1,100,8|0
416,240,65378,2,0,B|312:240,1,100
256,160,65753,2,0,B|384:160,1,100,8|0
456,160,66128,5,0
384,88,66315,1,0
312,160,66503,1,8
408,160,66690,1,0
336,88,66878,1,0
264,160,67065,1,0
368,160,67253,1,8
296,88,67440,1,0
224,160,67628,1,0
320,160,67815,1,0
248,88,68003,1,8
176,160,68190,1,0
280,160,68378,1,0
208,88,68565,1,0
136,160,68753,1,8
232,160,68940,1,0
160,88,69128,6,0,B|48:264,1,200,0|8
96,344,69690,1,0
192,320,69878,2,0,B|304:112,1,200,0|8
376,96,70440,1,0
456,160,70628,1,0
456,256,70815,1,0
384,328,71003,2,0,B|272:328,1,100,8|0
284,328,71378,1,0
40,208,71753,5,8
40,208,71940,1,0
40,208,72128,2,0,B|88:104,1,100
120,208,72503,2,0,B|168:312,1,100,8|0
200,208,72878,2,0,B|312:136,1,100
280,208,73253,2,0,B|392:280,1,100,8|0
360,208,73628,2,0,B|464:208,1,100
456,208,74003,5,8
56,208,74378,1,0
456,208,74753,1,4
256,192,75128,12,4,77003
456,192,77378,5,0
56,192,77753,1,0
320,48,78128,5,0
416,160,78315,1,0
360,296,78503,1,0
216,320,78690,2,0,B|144:248,1,100
40,144,79065,1,0
192,144,79253,1,0
344,144,79440,1,0
120,344,79815,1,0
56,48,80190,1,0
344,144,80565,1,0
344,144,80659,1,0
344,144,80753,1,4
48,344,81128,5,0
48,344,81221,1,0
48,344,81315,1,0
48,344,81409,1,0
48,344,81503,1,0
200,344,81690,2,0,B|304:344|376:224,1,200
136,48,82440,5,0
64,232,82628,1,0
232,128,82815,1,0
32,128,83003,1,0
200,232,83190,1,4
456,328,83753,5,0
448,328,83846,1,0
440,328,83940,1,0
432,328,84034,1,0
424,328,84128,2,0,B|352:320|344:272,1,100
344,120,84503,2,0,B|280:120|264:184,1,100
120,224,84878,1,0
112,224,84971,1,0
104,224,85065,1,0
96,224,85159,1,0
88,224,85253,1,0
80,224,85346,1,0
72,224,85440,1,0
64,224,85534,1,0
56,224,85628,1,4
288,336,86003,5,0
432,72,86378,1,0
136,72,86753,1,4
288,336,87128,5,0
144,304,87315,1,0
80,168,87503,1,0
176,48,87690,1,0
40,320,88065,1,0
336,320,88440,2,0,B|384:320,6,50,0|0|0|0|0|0|4
472,48,89378,5,0
96,192,89753,1,0
472,320,90128,5,4
416,184,90315,1,0
296,88,90503,1,0
152,64,90690,2,0,B|80:176,1,100
360,320,91065,2,0,B|432:208,1,100
128,296,91440,2,0,B|240:368,1,100
384,88,91815,2,0,B|272:16,1,100
299,33,92190,1,0
48,344,92565,5,0
112,152,92753,1,0
304,88,92940,1,0
240,280,93128,6,0,B|304:280|328:352,2,100,4|0|0
240,128,93690,2,0,B|176:128|152:56,2,100
369,203,94253,1,0
369,203,94440,2,0,B|192:203,1,149.999995529652
216,56,95003,1,0
88,136,95190,5,0
88,144,95284,1,0
88,152,95378,1,0
88,160,95471,1,0
88,168,95565,1,0
88,320,95753,5,0
216,248,95940,1,0
352,320,96128,5,0
400,296,96221,1,0
424,248,96315,1,0
424,96,96503,1,0
400,48,96596,1,0
352,24,96690,1,0
200,24,96878,1,0
152,48,96971,1,0
128,96,97065,1,0
144,144,97159,1,0
168,192,97253,1,0
184,240,97346,1,0
152,280,97440,1,0
104,296,97534,1,0
56,280,97628,1,4
448,192,98003,5,0
48,192,98378,1,0
448,192,98753,1,4
256,192,99128,12,0,100253
256,192,100440,12,0,102128
448,56,114128,5,0
448,56,114503,1,2
376,72,114690,1,0
304,88,114878,1,0
232,104,115065,1,0
160,120,115253,1,2
56,232,115628,5,0
96,296,115815,1,0
168,320,116003,1,2
240,296,116190,1,0
280,232,116378,1,0
280,232,116565,2,0,B|360:232|432:160|432:64,1,224.999993294478
280,80,117503,5,2
136,120,117878,1,0
128,272,118253,1,2
272,320,118628,1,0
376,208,119003,1,2
376,56,119378,6,0,B|488:56,2,112.499996647239
304,56,120128,2,0,B|208:64|192:160,1,149.999995529652,2|0
56,88,120878,2,0,B|64:184|160:200,1,149.999995529652,2|0
88,336,121628,2,0,B|184:328|200:232,1,149.999995529652,2|0
336,304,122378,2,0,B|328:208|232:192,1,149.999995529652,2|0
256,192,123128,12,0,124628
456,192,125378,5,0
56,192,125753,1,4
312,344,126128,5,0
184,272,126315,1,0
184,120,126503,1,0
304,32,126690,1,0
432,120,126878,1,0
432,272,127065,1,0
312,344,127253,1,0
184,272,127440,2,0,B|72:272,1,100
80,120,127815,2,0,B|208:120,1,100
312,192,128190,1,0
464,40,128565,5,0
464,40,128659,1,0
464,40,128753,1,4
464,336,129128,1,0
464,336,129221,1,0
464,336,129315,1,0
464,336,129409,1,0
464,336,129503,1,0
312,336,129690,2,0,B|208:336|248:232|136:232,1,200
256,40,130440,5,0
88,152,130628,1,0
160,336,130815,1,0
360,336,131003,1,0
424,152,131190,1,4
456,328,131753,5,0
448,328,131846,1,0
440,328,131940,1,0
432,328,132034,1,0
424,328,132128,2,0,B|352:320|344:240,1,100
200,256,132503,6,0,B|272:248|288:152,1,100
424,192,132878,2,0,B|352:184|336:88,1,100
208,80,133253,1,0
208,80,133346,1,0
208,80,133440,1,0
208,80,133534,1,0
208,80,133628,1,4
440,64,134003,5,0
64,192,134378,1,0
440,320,134753,1,4
144,320,135128,5,0
256,224,135315,1,0
144,128,135503,1,0
256,32,135690,1,0
416,288,136065,1,0
120,288,136440,2,0,B|168:288,6,50,0|0|0|0|0|0|4
416,192,137378,5,0
40,336,137753,1,0
40,40,138128,5,4
96,184,138315,1,0
216,296,138503,1,0
360,320,138690,2,0,B|432:208,1,100
152,64,139065,2,0,B|80:176,1,100
384,88,139440,2,0,B|272:16,1,100
128,296,139815,2,0,B|240:368,1,100
213,351,140190,1,0
464,40,140565,5,0
400,232,140753,1,0
208,296,140940,1,0
272,104,141128,6,0,B|208:104|184:32,2,100,4|0|0
272,256,141690,2,0,B|336:256|360:328,2,100
143,181,142253,1,0
143,181,142440,2,0,B|320:181,1,149.999995529652
440,184,143003,1,0
440,184,143190,2,0,B|496:184,4,50
352,64,143753,5,0
256,176,143940,1,0
160,296,144128,1,4
64,176,144315,1,0
160,64,144503,1,0
256,176,144690,1,0
352,296,144878,1,0
448,176,145065,1,0
352,64,145253,1,0
256,176,145440,1,0
160,296,145628,1,4
64,192,146003,5,0
464,192,146378,1,0
64,192,146753,1,4
256,192,147128,12,0,148253
256,192,148440,12,0,150128
56,312,155753,5,4
96,224,155940,1,0
184,176,156128,1,0
232,176,156221,1,0
280,176,156315,1,0
368,224,156503,1,2
456,176,156690,1,0
448,128,156784,1,0
424,88,156878,1,0
384,64,156971,1,0
336,56,157065,1,0
232,56,157253,5,2
136,56,157440,2,0,B|128:112|184:152,1,100,0|0
72,160,157815,2,0,B|104:208|176:224,1,100,0|2
80,288,158190,2,0,B|216:288,1,100
280,288,158565,1,0
376,264,158753,1,2
448,192,158940,6,0,B|448:80,2,100
344,192,159503,2,0,B|344:328,2,100,2|0|0
248,192,160065,2,0,B|144:192,2,100,0|2|0
48,224,160815,5,0
104,312,161003,1,2
152,224,161190,1,0
216,304,161378,1,0
264,296,161471,1,0
312,280,161565,1,0
360,256,161659,1,0
400,224,161753,1,2
432,184,161846,1,0
448,136,161940,1,0
464,88,162034,1,0
472,40,162128,5,0
376,40,162315,1,0
280,56,162503,1,2
208,128,162690,1,0
208,328,163065,1,0
304,312,163253,1,2
376,240,163440,1,0
208,128,163815,5,0
112,144,164003,1,2
40,216,164190,1,0
208,328,164565,1,0
304,312,164753,1,2
376,240,164940,1,0
56,56,165690,5,0
128,120,165878,1,0
56,192,166065,1,0
128,256,166253,1,0
200,192,166440,5,0
208,192,166534,1,0
216,192,166628,1,0
224,192,166721,1,0
232,192,166815,1,0
240,192,166909,1,0
248,192,167003,1,0
256,192,167096,1,0
264,192,167190,1,0
272,192,167284,1,0
280,192,167378,1,0
288,192,167471,1,0
296,192,167565,1,0
304,192,167659,1,0
312,192,167753,1,0
320,192,167846,1,0
328,192,167940,1,4
256,192,168315,12,4,174128
