osu file format v9

[General]
AudioFilename: 123.mp3
AudioLeadIn: 2000
PreviewTime: 141578
Countdown: 0
SampleSet: Soft
StackLeniency: 0.7
Mode: 0
LetterboxInBreaks: 1

[Editor]
Bookmarks: 19396,61396
DistanceSpacing: 1.5
BeatDivisor: 4
GridSize: 4

[Metadata]
Title:REBORN -Dr.Minchi ni Aimashou-
Artist:Mizuno Manami
Creator:x847606653
Version:Normal
Source:Metal Max
Tags:Kadokura Satoshi Kay Kimiko

[Difficulty]
HPDrainRate:2
CircleSize:4
OverallDifficulty:3
ApproachRate:3
SliderMultiplier:1
SliderTickRate:1

[Events]
//Background and Video events
0,0,"BG.jpg"
//Break Periods
2,72506,88320
2,159578,175593
//Storyboard Layer 0 (Background)
//Storyboard Layer 1 (Fail)
//Storyboard Layer 2 (Pass)
//Storyboard Layer 3 (Foreground)
//Storyboard Sound Samples
//Background Colour Transformations
3,100,163,162,255

[TimingPoints]
306,545.454545454546,4,2,1,30,1,0
3578,-100,4,2,1,20,0,0
3715,-100,4,2,1,30,0,0
12306,-100,4,2,1,20,0,0
12442,-100,4,2,1,30,0,0
15578,-100,4,2,1,20,0,0
15851,-100,4,2,1,30,0,0
19942,-100,4,2,1,40,0,0
37942,-100,4,2,1,50,0,0
142124,-100,4,2,1,50,0,1
157396,-100,4,2,1,40,0,0
206487,-100,4,2,1,30,0,0
207033,-100,4,2,1,20,0,0
207578,-100,4,2,1,10,0,0

[Colours]
Combo1 : 255,169,83
Combo2 : 255,89,172
Combo3 : 123,149,238

[HitObjects]
56,216,306,6,0,B|56:168,1,50,2|0
76,92,851,2,0,B|88:64|108:40,2,50,8|0|2
160,216,1942,6,0,B|160:268,1,50,8|0
216,316,2487,2,0,B|224:344|248:368,2,50,2|0|8
256,252,3306,1,0
328,272,3578,1,2
140,36,4669,5,2
176,100,4942,1,0
100,100,5215,2,0,B|76:156,1,50,8|0
48,216,5760,1,2
120,348,6306,1,8
188,216,6851,1,4
436,40,9033,6,0,B|420:92,1,50,2|0
480,136,9578,2,0,B|464:160|452:192,1,50,8|0
452,256,10124,1,2
304,280,10669,5,8
360,232,10942,1,0
292,200,11215,2,0,B|292:160|276:132,1,50,2|0
232,96,11760,2,0,B|176:76,2,50,8|0|2
44,328,13396,5,2
116,312,13669,1,0
180,348,13942,2,0,B|236:348,2,50,8|0|2
288,244,15033,1,8
396,348,15578,1,2
256,192,17760,5,4
24,96,19396,6,0,B|16:40,2,50,0|0|2
24,248,20487,6,0,B|53:268|96:268,1,50
145,265,21033,1,0
184,200,21306,2,0,B|200:168|228:148,1,50,0|0
256,96,21851,1,0
332,84,22124,2,0,B|372:36|468:36|512:84,1,200,2|2
408,288,24033,5,0
408,288,24306,2,0,B|376:336|276:336|228:288,1,200,2|2
108,196,25942,1,0
228,104,26487,1,4
468,64,28124,6,0,B|404:64,1,50,0|0
344,64,28669,1,2
420,192,29215,6,0,B|452:192|484:176,2,50,0|0|2
348,212,30033,1,0
276,224,30306,1,2
204,240,30578,1,0
204,240,30851,2,0,B|124:156|204:60,1,200,2|2
428,61,32760,5,0
428,61,33033,2,0,B|508:145|428:241,1,200,2|2
288,292,34669,2,0,B|304:348|376:356,1,100,0|4
36,40,36851,6,0,B|92:40,2,50,0|0|2
186,40,37942,6,0,B|231:39|279:71,1,100,0|0
264,144,38760,2,0,B|224:144|200:160,1,50,0|2
140,164,39306,1,0
64,172,39578,6,0,B|8:244|72:324,1,150,2|0
136,320,40669,2,0,B|208:280|296:328,1,150,2|0
356,328,41760,2,0,B|412:280|412:176,1,150,2|0
368,132,42851,2,0,B|320:100|264:132,2,100,2|0|4
64,344,45578,6,0,B|24:296,1,50,0|0
8,232,46124,1,2
140,192,46669,5,0
215,192,46942,2,0,B|255:248,2,50,0|2|0
244,124,47760,2,0,B|276:76,1,50
320,24,48306,2,0,B|408:24|464:80,1,150,2|0
457,73,49396,1,2
416,296,50215,5,0
416,296,50487,2,0,B|360:352|272:352,1,150,2|0
240,288,51578,1,2
104,356,52124,1,0
40,220,52669,1,4
452,40,54306,5,0
452,40,54851,2,0,B|504:112|452:180,1,150,2|0
400,124,55942,2,0,B|348:192|404:264,1,150,2|0
384,336,57033,5,2
248,276,57578,1,0
116,200,58124,2,0,B|116:136,1,50,2|0
116,74,58669,1,0
264,40,59215,1,2
464,144,60033,5,0
388,144,60306,2,0,B|332:144|384:196|316:264,1,150,2|0
240,260,61396,2,0,B|176:196|228:144|140:144,1,150,2|0
92,280,62760,6,0,B|42:280,1,50
20,208,63306,2,0,B|44:140,1,50,0|2
248,88,64396,1,0
248,88,64669,1,2
448,192,65487,5,0
384,232,65760,2,0,B|332:260,1,50,2|0
272,288,66306,1,0
124,304,66851,2,0,B|180:328,1,50,2|0
240,352,67396,1,0
148,236,67942,6,0,B|132:148|204:100,1,150,2|0
198,104,69033,1,2
364,256,69851,5,0
364,256,70124,1,2
332,108,70669,2,0,B|344:172,2,50,0|0|2
192,56,71760,1,0
152,120,72033,1,0
112,56,72306,1,4
256,192,89760,5,6
112,236,90306,6,0,B|40:228,1,50
76,304,90851,2,0,B|12:320,2,50,2|0|0
148,328,91669,1,0
220,308,91942,6,0,B|292:284|368:308,1,150,2|0
444,308,93033,2,0,B|397:238|444:168,1,150,2|0
368,167,94124,2,0,B|408:91|364:19,1,150,2|0
300,56,95215,5,2
148,36,95760,1,0
44,144,96306,1,4
456,320,97942,6,0,B|408:288|344:304,1,100,0|2
212,288,99033,6,0,B|212:240,1,50
152,192,99578,2,0,B|112:144,2,50,2|0|0
220,164,100396,1,0
220,164,100669,6,0,B|284:108|356:164,1,150,2|0
428,176,101760,2,0,B|428:232|476:260|476:316,1,150,2|0
404,336,102851,2,0,B|332:368|260:328,1,150,2|0
259,328,103942,5,2
112,320,104487,1,0
32,196,105033,1,4
456,44,106669,6,0,B|392:76,1,50,0|0
344,100,107215,1,2
432,220,107760,1,0
468,284,108033,2,0,B|404:316,1,50,0|2
276,284,108851,5,0
200,280,109124,1,0
136,240,109396,2,0,B|88:208,1,50,2|0
64,144,109942,2,0,B|36:148|20:196,2,50,0|0|2
128,100,110760,1,0
203,100,111033,2,0,B|271:100,1,50,0|0
296,36,111578,1,2
424,220,112396,5,0
460,152,112669,2,0,B|508:176|520:252|460:288,1,150,2|0
416,324,113760,1,2
416,324,114033,1,0
360,272,114306,5,0
324,336,114578,2,0,B|272:300|276:236|332:200,1,150,2|0
372,156,115669,1,0
372,156,115942,1,6
108,36,116760,6,0,B|160:52,1,50,0|2
0,212,117851,1,0
48,268,118124,2,0,B|52:324,2,50,2|0|0
100,212,118942,1,0
100,212,119215,1,2
192,328,119760,2,0,B|240:296,2,50,0|0|2
356,176,121124,5,0
356,176,121396,2,0,B|436:160|476:76,1,150,2|0
400,60,122487,2,0,B|352:36,1,50,2|0
280,32,123033,2,0,B|232:32,1,50
164,64,123578,1,2
164,64,123851,1,0
164,64,124124,2,0,B|148:128,2,50,0|0|4
188,212,125215,6,0,B|200:163,2,50,0|0|2
72,312,126306,6,0,B|40:264|72:220,2,100,0|2|0
184,212,127942,1,2
184,212,128487,2,0,B|216:160|184:116,1,100,0|4
436,80,130669,6,0,B|388:48|340:80,1,100,0|2
384,216,131760,1,0
384,216,132306,1,2
252,308,132851,6,0,B|308:324,2,50,0|0|2
112,260,133942,2,0,B|52:244,2,50,0|0|2
248,192,135033,5,0
300,52,135578,1,2
152,76,136124,1,0
4,48,136669,1,2
32,196,137215,2,0,B|32:252|72:292,1,100,0|4
256,192,137896,12,0,141033
144,120,141578,6,0,B|80:104,2,50,8|0|2
220,252,142669,2,0,B|268:264,2,50,8|0|2
312,132,143760,1,8
460,148,144306,2,0,B|476:80|416:48,2,100,2|8|2
312,132,145942,1,8
312,132,146487,1,4
48,332,148124,6,0,B|16:280|52:236,1,100,8|2
188,296,149215,2,0,B|220:248|188:200,1,100,8|2
80,100,150306,5,8
80,100,150578,1,0
80,100,150851,1,4
224,60,151396,1,8
224,60,151669,1,0
224,60,151942,1,2
372,36,152487,6,0,B|468:92|448:212,1,200,8|8
448,206,154124,1,2
448,355,154669,1,8
256,192,155215,12,4,157396
36,180,177033,5,6
148,280,177578,6,0,B|148:212,1,50
148,154,178124,2,0,B|196:122,1,50,2|0
248,80,178669,2,0,B|304:104,1,50
364,132,179215,2,0,B|436:164|436:252,1,150,2|0
452,328,180306,1,2
228,332,181124,5,0
160,304,181396,2,0,B|120:280|60:280|16:240,1,150,2|0
48,176,182487,2,0,B|80:128|48:84,2,100,2|0|4
480,48,185215,5,0
480,48,185487,1,0
480,48,185760,1,2
328,48,186306,6,0,B|376:76|424:48,1,100,0|2
452,120,187124,1,0
488,188,187396,2,0,B|456:244,1,50
432,300,187942,2,0,B|392:344|288:344,1,150,2|0
292,343,189033,1,2
148,192,189851,5,0
148,192,190124,2,0,B|180:100|268:84,1,150,2|0
323,88,191215,2,0,B|387:88|435:112,2,100,2|0|4
256,192,192442,12,0,194487
144,192,196124,6,0,B|56:120,1,100,0|4
356,52,197760,2,0,B|404:24|452:52,1,100,2|0
404,192,198851,5,2
260,156,199396,1,0
148,56,199942,1,2
36,156,200487,1,4
36,156,202396,5,0
256,192,203351,12,0,207578
