osu file format v12

[General]
AudioFilename: Kakumei Dualism.mp3
AudioLeadIn: 0
PreviewTime: 70552
Countdown: 0
SampleSet: Soft
StackLeniency: 0.7
Mode: 0
LetterboxInBreaks: 0
WidescreenStoryboard: 0

[Editor]
Bookmarks: 4552,18455,18601,32650,41723,42016,52552,61918,66601,68943,79042,79773,94115
DistanceSpacing: 1.2
BeatDivisor: 6
GridSize: 4
TimelineZoom: 3.999998

[Metadata]
Title:Kakumei Dualism -Anime Version-
TitleUnicode:革命デュアリズム -アニメバージョン-
Artist:Mizuki Nana x T.M.Revolution
ArtistUnicode:水樹奈々×T.M.Revolution
Creator:Azure
Version:Normal
Source:革命機ヴァルヴレイヴ
Tags:Flask Valvrave the Liberator opening Hibiki Nishikawa Takanori Hoshino Katsura vvv
BeatmapID:407542
BeatmapSetID:167834

[Difficulty]
HPDrainRate:4
CircleSize:3
OverallDifficulty:4
ApproachRate:5
SliderMultiplier:1
SliderTickRate:1

[Events]
//Background and Video events
0,0,"yeaaaa.png",0,0
//Break Periods
//Storyboard Layer 0 (Background)
//Storyboard Layer 1 (Fail)
//Storyboard Layer 2 (Pass)
//Storyboard Layer 3 (Foreground)
//Storyboard Sound Samples
//Background Colour Transformations
3,100,163,162,255

[TimingPoints]
4553,292.682926829268,4,2,2,55,1,0
9235,-100,4,2,1,55,0,0
18455,-100,4,2,2,65,0,1
18601,-100,4,2,2,65,0,0
27967,-100,4,2,2,55,0,0
32650,-100,4,2,1,55,0,0
40699,-100,4,2,1,25,0,0
41723,-100,4,1,4,70,0,0
42016,-100,4,2,2,70,0,1
42162,-100,4,2,2,70,0,0
52552,-100,4,2,3,55,0,0
52992,-100,4,2,2,55,0,0
59577,-100,4,2,2,45,0,0
61918,-100,4,2,2,55,0,0
66601,-100,4,2,2,45,0,0
67772,-100,4,2,2,65,0,0
68943,-100,4,2,2,55,0,0
69528,-100,4,2,2,20,0,0
70845,-100,4,2,2,40,0,0
71138,-100,4,2,4,40,0,1
71577,-100,4,2,2,75,0,1
78308,-100,4,2,4,60,0,0
78893,-100,4,2,2,20,0,0
79186,-100,4,2,2,60,0,0
79332,-100,4,2,2,60,0,1
79479,-100,4,2,2,60,0,0
80503,-100,4,2,4,100,0,1
80796,-100,4,2,2,75,0,1
84454,-100,4,2,2,65,0,1
88844,-100,4,2,2,80,0,0
89869,-100,4,2,2,70,0,1
90015,-100,4,2,2,70,0,0
92796,-100,4,2,2,60,0,0
93674,-100,4,2,2,55,0,0

[Colours]
Combo1 : 227,154,119
Combo2 : 91,114,189
Combo3 : 207,92,136
Combo4 : 117,189,198
Combo5 : 255,222,121

[HitObjects]
332,88,4552,6,0,B|348:136|348:136|292:200|316:280,1,200,2|0,0:0|0:0,0:0:0:0:
196,272,5431,2,0,B|218:197|162:133|162:133|178:85,1,200,2|0,0:0|0:0,0:0:0:0:
88,56,6894,6,0,P|120:160|208:160,1,200,2|0,0:0|0:0,0:0:0:0:
313,165,7772,2,0,P|406:148|424:56,1,200,2|0,0:0|0:0,0:0:0:0:
152,48,9235,6,0,L|168:256,1,200,8|4,0:0|0:0,0:0:0:0:
72,176,10113,2,0,L|80:280,1,100,8|0,0:0|0:0,0:0:0:0:
360,48,11577,6,0,L|344:247,1,200,8|2,0:0|0:0,0:0:0:0:
440,176,12455,2,0,L|432:275,1,100,8|0,0:0|0:0,0:0:0:0:
164,300,13918,6,0,P|252:336|348:300,1,200,8|4,0:0|0:0,0:0:0:0:
308,184,14796,2,0,L|208:184,1,100,8|0,0:0|0:0,0:0:0:0:
348,80,16260,6,0,P|257:44|169:85,1,200,8|0,0:0|0:0,0:0:0:0:
220,192,17138,2,0,L|316:192,1,83.3333333333333,0|2,0:0|0:0,0:0:0:0:
72,56,18455,6,0,B|72:104|72:104|88:144|88:144|88:208,1,150,12|8,1:0|0:0,0:0:0:0:
88,320,19187,2,0,P|136:328|192:320,1,100,0|8,1:0|0:0,0:0:0:0:
232,288,19626,2,0,P|304:272|384:288,1,150,8|8,1:0|0:0,0:0:0:0:
480,224,20357,2,0,L|480:104,1,100,0|8,1:0|0:0,0:0:0:0:
464,64,20796,6,0,P|400:32|328:64,1,150,8|8,1:0|0:0,0:0:0:0:
280,168,21528,2,0,L|280:280,1,100,0|8,1:0|0:0,0:0:0:0:
240,312,21967,2,0,B|184:312|184:312|144:328|144:328|80:328,1,150,8|8,1:0|0:0,0:0:0:0:
16,232,22699,2,0,L|128:232,1,100,8|8,0:0|0:0,0:0:0:0:
176,216,23138,6,0,P|200:144|176:72,1,150,8|8,1:0|0:0,0:0:0:0:
296,80,23870,2,0,P|352:88|400:80,1,100,0|8,1:0|0:0,0:0:0:0:
456,64,24309,2,0,P|480:128|456:208,1,150,8|8,1:0|0:0,0:0:0:0:
384,296,25040,2,0,L|272:296,1,100,0|8,1:0|0:0,0:0:0:0:
224,312,25479,6,0,P|160:344|88:312,1,150,8|8,1:0|0:0,0:0:0:0:
16,224,26211,2,0,L|16:112,1,100,0|8,1:0|0:0,0:0:0:0:
16,64,26650,1,0,1:0:0:0:
136,80,26943,6,0,L|136:152,1,50,0|8,1:0|0:0,0:0:0:0:
136,192,27235,2,0,P|240:216|320:112,1,250,8|12,1:0|1:0,0:0:0:0:
400,24,28260,5,8,0:0:0:0:
480,120,28552,2,0,L|480:224,1,100,8|8,0:0|0:0,0:0:0:0:
392,304,29138,2,0,L|392:204,2,100,8|8|8,0:0|0:0|0:0,0:0:0:0:
288,360,30016,1,8,0:0:0:0:
192,296,30309,6,0,P|144:288|88:296,1,100,8|8,0:0|0:0,0:0:0:0:
80,176,30894,1,8,0:0:0:0:
80,176,31040,2,0,L|200:176,1,100,0|8,1:0|0:0,0:0:0:0:
424,48,32650,6,0,P|432:200|224:192,1,400,2|0,0:0|0:0,0:0:0:0:
256,88,34992,6,0,B|80:72|80:72|184:120|136:256|104:264,1,400,2|0,0:0|0:0,0:0:0:0:
32,176,37333,6,0,P|120:120|176:144,1,150,2|0,0:0|0:0,0:0:0:0:
344,296,38504,2,0,P|440:320|496:280,1,150,2|0,0:0|0:0,0:0:0:0:
272,16,39674,6,0,B|272:112|272:112|216:248|216:248|216:360,1,350,2|0,0:0|0:0,0:0:0:0:
88,72,42016,6,0,L|88:192,1,100,12|8,1:0|0:0,0:0:0:0:
192,232,42601,2,0,L|192:132,1,100,0|8,1:0|0:0,0:0:0:0:
200,72,43040,2,0,P|264:48|344:80,1,150,0|8,1:0|0:0,0:0:0:0:
376,184,43772,2,0,P|424:192|480:184,1,100,0|8,1:0|0:0,0:0:0:0:
432,296,44357,6,0,L|320:296,1,100,8|8,1:0|0:0,0:0:0:0:
280,328,44796,2,0,L|176:328,1,100,0|8,1:0|0:0,0:0:0:0:
68,288,45382,2,0,P|16:252|28:164,1,150,8|8,1:0|0:0,0:0:0:0:
140,164,46113,2,0,P|156:116|140:60,1,100,0|8,1:0|0:0,0:0:0:0:
40,24,46699,6,0,P|24:72|40:128,1,100,8|8,1:0|0:0,0:0:0:0:
64,168,47138,2,0,L|64:328,1,150,8|8,1:0|0:0,0:0:0:0:
184,328,47870,2,0,P|232:312|288:328,1,100,8|8,1:0|0:0,0:0:0:0:
336,352,48309,2,0,P|416:336|432:272,1,150,8|8,1:0|0:0,0:0:0:0:
432,160,49040,6,0,L|432:56,1,100,8|8,1:0|0:0,0:0:0:0:
376,72,49479,2,0,P|328:80|272:72,1,100,0|8,1:0|0:0,0:0:0:0:
160,48,50065,2,0,P|48:80|240:272,1,550,8|0,1:0|1:0,0:0:0:0:
272,144,52552,6,0,P|192:136|136:176,1,150,0|0,1:0|1:0,0:0:0:0:
136,232,53138,2,0,B|136:336|136:336|232:336,1,200,8|0,0:0|0:0,0:0:0:0:
336,272,54016,2,0,P|384:264|440:272,1,100,0|8,1:0|0:0,0:0:0:0:
496,264,54455,2,0,P|484:212|496:160,1,100,0|0,1:0|1:0,0:0:0:0:
468,112,54894,2,0,B|396:112|396:112|356:80|356:80|276:80,1,200,0|8,1:0|0:0,0:0:0:0:
168,64,55772,2,0,P|128:160|168:240,1,200,0|0,1:0|1:0,0:0:0:0:
272,184,56650,6,0,P|288:232|272:288,1,100,0|0,1:0|1:0,0:0:0:0:
384,328,57235,2,0,L|384:120,1,200,8|8,1:0|0:0,0:0:0:0:
480,56,58113,2,0,L|480:256,1,200,0|0,1:0|1:0,0:0:0:0:
384,328,58992,2,0,P|336:336|280:328,1,100,8|0,0:0|1:0,0:0:0:0:
192,248,59577,6,0,P|142:239|93:246,1,100,8|8,1:0|0:0,0:0:0:0:
48,280,60016,2,0,L|48:112,1,150,8|8,1:0|0:0,0:0:0:0:
128,40,60748,2,0,P|176:32|232:40,1,100,8|8,1:0|0:0,0:0:0:0:
272,80,61187,2,8,P|344:96|424:80,1,150,8|8,1:0|0:0,0:0:0:0:
480,184,61918,6,0,L|480:344,2,150,8|8|8,1:0|1:0|0:0,0:0:0:0:
368,136,63089,2,0,P|288:120|216:136,2,150,8|8|8,1:0|1:0|3:0,0:0:0:0:
368,256,64260,2,0,P|294:269|221:253,2,150,8|8|0,1:0|1:0|3:0,0:0:0:0:
464,184,65431,2,0,L|464:72,1,100,8|8,1:0|0:0,0:0:0:0:
416,48,65870,2,0,P|360:32|320:48,1,100,8|0,1:0|1:0,0:0:0:0:
264,72,66309,2,0,L|200:72,1,50,8|8,0:0|0:0,0:0:0:0:
152,80,66601,6,0,B|152:144|152:144|80:112|80:112|32:144|32:216|72:248,1,300,12|0,3:0|1:0,0:0:0:0:
144,344,67772,2,0,B|176:384|248:384|280:336|280:336|248:264|248:264|312:264,1,300,8|0,3:0|1:0,0:0:0:0:
384,168,68943,6,0,L|272:168,1,100,8|0,3:0|3:0,0:0:0:0:
168,184,69528,2,0,L|168:128,1,50,8|8,3:0|3:0,0:0:0:0:
256,56,69967,2,0,P|432:56|472:168,1,300,8|0,1:0|0:0,0:0:0:0:
464,272,71138,6,0,L|304:296,1,150,8|8,1:0|0:0,0:0:0:0:
200,312,71869,2,0,P|176:272|176:216,1,100,0|8,1:0|0:0,0:0:0:0:
232,200,72308,2,0,L|232:48,1,150,8|8,1:0|0:0,0:0:0:0:
120,8,73040,1,0,1:0:0:0:
40,96,73332,1,8,0:0:0:0:
40,96,73479,2,0,P|48:144|32:200,1,100,8|0,1:0|0:0,0:0:0:0:
24,248,73918,2,0,L|128:248,1,100,8|0,0:0|1:0,0:0:0:0:
192,344,74503,5,8,0:0:0:0:
192,344,74650,2,0,L|296:344,1,100,8|0,1:0|0:0,0:0:0:0:
352,344,75088,2,0,P|432:344|488:248,1,200,8|8,0:0|0:0,0:0:0:0:
488,192,75820,6,0,B|488:144|488:144|504:104|504:104|504:40,1,150,8|8,1:0|0:0,0:0:0:0:
384,64,76552,2,0,L|384:168,1,100,0|8,1:0|0:0,0:0:0:0:
344,208,76991,2,0,P|272:224|192:208,1,150,8|8,1:0|0:0,0:0:0:0:
168,96,77723,5,0,3:0:0:0:
168,96,77869,2,0,L|232:96,2,50,8|8|8,3:0|3:0|3:0,0:0:0:0:
104,96,78308,2,0,B|40:96|40:96|16:120|16:208|80:208,1,200,0|2,1:0|0:0,0:0:0:0:
184,184,79186,1,8,0:0:0:0:
184,184,79332,2,0,P|253:165|336:184,1,150,8|8,1:0|3:0,0:0:0:0:
448,184,80064,6,0,L|448:288,1,100,8|8,3:0|3:0,0:0:0:0:
400,320,80503,2,0,B|384:344|384:344|288:344|288:344|272:320,1,150,8|8,1:0|0:0,0:0:0:0:
184,240,81235,2,0,P|136:230|80:240,1,100,0|8,1:0|0:0,0:0:0:0:
32,264,81674,2,0,L|32:104,1,150,8|8,1:0|0:0,0:0:0:0:
104,24,82405,1,0,1:0:0:0:
160,128,82698,5,8,0:0:0:0:
160,128,82844,2,0,P|240:120|288:72,1,150,8|8,1:0|0:0,0:0:0:0:
400,24,83577,2,0,P|448:16|504:24,1,100,0|8,1:0|0:0,0:0:0:0:
512,80,84015,2,0,B|512:128|512:128|496:168|496:168|496:232,1,150,8|8,1:0|0:0,0:0:0:0:
392,288,84747,6,0,L|392:176,1,100,0|8,3:0|0:0,0:0:0:0:
392,128,85186,2,0,P|304:104|248:128,1,150,8|8,1:0|0:0,0:0:0:0:
224,240,85918,1,0,1:0:0:0:
128,312,86210,1,8,0:0:0:0:
128,312,86357,2,0,P|104:240|128:168,1,150,8|8,1:0|0:0,0:0:0:0:
192,72,87088,6,0,L|264:72,1,50,0|2,1:0|0:0,0:0:0:0:
352,24,87528,2,0,P|360:80|344:128,1,100,8|0,1:0|0:0,0:0:0:0:
312,168,87966,2,0,B|312:288|312:288|336:328|448:328|480:288,1,300,8|8,0:0|3:0,0:0:0:0:
288,56,89869,6,0,B|240:56|240:56|192:40|192:40|128:40,1,150,12|8,1:0|0:0,0:0:0:0:
72,136,90601,2,0,L|176:136,1,100,0|8,1:0|0:0,0:0:0:0:
224,168,91040,2,0,P|256:240|216:304,1,150,8|8,1:0|0:0,0:0:0:0:
120,352,91772,2,0,P|104:304|120:248,1,100,0|8,1:0|0:0,0:0:0:0:
152,208,92210,2,0,P|168:136|152:56,1,150,8|8,1:0|0:0,0:0:0:0:
216,48,92796,6,0,L|320:48,2,100,0|8|0,1:0|0:0|1:0,0:0:0:0:
280,152,93674,2,0,L|344:152,2,50,8|0|0,0:0|1:0|1:0,0:0:0:0:
