osu file format v12

[General]
AudioFilename: Kakumei Dualism.mp3
AudioLeadIn: 0
PreviewTime: 70552
Countdown: 0
SampleSet: Soft
StackLeniency: 0.7
Mode: 0
LetterboxInBreaks: 0
WidescreenStoryboard: 0

[Editor]
Bookmarks: 4552,18455,32650,41723,52552,61918,66601,79042,79773,94115
DistanceSpacing: 1.5
BeatDivisor: 4
GridSize: 4
TimelineZoom: 3.299999

[Metadata]
Title:Kakumei Dualism -Anime Version-
TitleUnicode:革命デュアリズム -アニメバージョン-
Artist:Mizuki Nana x T.M.Revolution
ArtistUnicode:水樹奈々×T.M.Revolution
Creator:Azure
Version:Extra
Source:革命機ヴァルヴレイヴ
Tags:Flask Valvrave the Liberator opening Hibiki Nishikawa Takanori Hoshino Katsura vvv
BeatmapID:407541
BeatmapSetID:167834

[Difficulty]
HPDrainRate:7
CircleSize:4
OverallDifficulty:7
ApproachRate:9
SliderMultiplier:1.8
SliderTickRate:1

[Events]
//Background and Video events
0,0,"yeaaaa.png",0,0
//Break Periods
//Storyboard Layer 0 (Background)
//Storyboard Layer 1 (Fail)
//Storyboard Layer 2 (Pass)
//Storyboard Layer 3 (Foreground)
//Storyboard Sound Samples
//Background Colour Transformations
3,100,163,162,255

[TimingPoints]
4553,292.682926829268,4,2,2,55,1,0
4553,-133.333333333333,4,2,2,55,0,0
9235,-133.333333333333,4,2,1,55,0,0
18455,-100,4,2,2,65,0,1
18601,-100,4,2,2,65,0,0
26870,-100,4,2,2,5,0,0
26943,-100,4,2,2,65,0,0
27967,-133.333333333333,4,2,2,55,0,0
30309,-100,4,2,2,55,0,0
31333,-200,4,2,2,55,0,0
31772,-200,4,2,2,35,0,0
32065,-200,4,2,2,50,0,0
32357,-200,4,2,2,60,0,0
32650,-133.333333333333,4,2,1,55,0,0
39382,-200,4,2,4,55,0,0
39674,-200,4,2,1,5,0,0
41138,-200,4,2,0,20,0,0
41431,-200,4,2,0,30,0,0
41650,-71.4285714285714,4,1,4,100,0,0
41943,-83.3333333333333,4,2,1,5,0,0
42016,-100,4,2,2,70,0,1
42162,-100,4,2,2,70,0,0
45016,-100,4,2,2,5,0,0
45089,-58.8235294117647,4,2,2,70,0,0
45382,-71.4285714285714,4,2,2,70,0,0
45601,-100,4,2,2,70,0,0
49479,-133.333333333333,4,2,2,55,0,0
49772,-71.4285714285714,4,2,2,55,0,0
50065,-83.3333333333333,4,2,2,55,0,0
50357,-100,4,2,2,35,0,0
50796,-100,4,2,2,45,0,0
51382,-100,4,2,2,55,0,0
51967,-100,4,2,2,65,0,0
52552,-133.333333333333,4,2,3,80,0,0
52845,-133.333333333333,4,2,2,55,0,0
59577,-117.647058823529,4,2,2,55,0,0
61918,-100,4,2,2,45,0,0
66601,-100,4,2,2,30,0,0
67040,-100,4,2,2,45,0,0
67479,-100,4,2,2,60,0,0
67918,-100,4,2,2,75,0,0
68943,-83.3333333333333,4,2,2,55,0,0
69162,-83.3333333333333,4,2,2,5,0,0
69235,-83.3333333333333,4,2,2,55,0,0
69382,-83.3333333333333,4,2,2,5,0,0
69528,-83.3333333333333,4,2,2,55,0,0
69967,-166.666666666667,4,2,2,55,0,0
70187,-133.333333333333,4,2,2,5,0,0
70260,-66.6666666666667,4,2,2,55,0,0
70479,-66.6666666666667,4,2,2,35,0,0
70699,-66.6666666666667,4,2,2,50,0,0
70918,-66.6666666666667,4,2,2,70,0,0
71138,-50,4,2,4,100,0,1
71284,-100,4,2,2,75,0,1
77869,-100,4,2,2,85,0,1
78308,-133.333333333333,4,2,4,30,0,0
78966,-133.333333333333,4,2,4,5,0,0
79040,-83.3333333333333,4,2,2,60,0,0
79186,-83.3333333333333,4,2,2,80,0,0
79332,-125,4,2,2,80,0,1
79479,-125,4,2,2,55,0,0
79625,-125,4,2,2,15,0,0
79771,-125,4,2,2,40,0,0
79991,-125,4,2,2,20,0,0
80064,-125,4,2,2,40,0,0
80137,-125,4,2,2,50,0,0
80357,-125,4,2,2,65,0,0
80503,-50,4,2,4,100,0,1
80649,-100,4,2,2,55,0,1
80796,-100,4,2,2,75,0,1
84454,-100,4,2,2,65,0,1
84747,-100,4,2,2,75,0,1
87527,-200,4,2,2,55,0,1
87820,-100,4,2,2,20,0,1
87966,-100,4,2,2,20,0,1
88113,-100,4,2,2,30,0,1
88259,-100,4,2,2,40,0,1
88405,-100,4,2,2,50,0,1
88552,-100,4,2,2,60,0,1
88698,-100,4,2,2,70,0,1
88844,-100,4,2,2,80,0,0
89869,-100,4,2,2,70,0,1
90015,-100,4,2,2,70,0,0
92796,-200,4,2,2,60,0,0
92942,-200,4,2,2,30,0,0
93088,-200,4,2,2,60,0,0
93235,-200,4,2,2,30,0,0
93381,-200,4,2,2,60,0,0
93527,-200,4,2,2,30,0,0
93674,-200,4,2,2,45,0,0
94113,-100,4,2,2,55,0,0

[Colours]
Combo1 : 227,154,119
Combo2 : 91,114,189
Combo3 : 207,92,136
Combo4 : 117,189,198
Combo5 : 255,222,121

[HitObjects]
432,80,4553,5,2,0:0:0:0:
340,108,4699,2,0,L|256:88,1,67.5000025749208,2|0,0:0|0:0,0:0:0:0:
144,20,4992,1,2,0:0:0:0:
132,28,5284,5,0,0:0:0:0:
64,92,5431,2,0,L|72:172,1,67.5000025749208,2|2,0:0|0:0,0:0:0:0:
148,216,5723,2,0,L|156:296,1,67.5000025749208,0|2,0:0|0:0,0:0:0:0:
168,292,6162,5,0,0:0:0:0:
280,244,6309,1,2,0:0:0:0:
280,244,6382,1,2,0:0:0:0:
280,244,6455,1,2,0:0:0:0:
328,356,6601,1,0,0:0:0:0:
400,258,6748,1,2,0:0:0:0:
456,184,6894,6,0,L|476:116,1,67.5000025749208,2|2,0:0|0:0,0:0:0:0:
380,24,7187,2,0,L|360:88,1,67.5000025749208,0|2,0:0|0:0,0:0:0:0:
348,96,7626,5,0,0:0:0:0:
264,144,7772,2,0,L|184:136,1,67.5000025749208,2|2,0:0|0:0,0:0:0:0:
56,24,8065,2,0,L|136:32,1,67.5000025749208,0|2,0:0|0:0,0:0:0:0:
40,36,8504,6,0,P|40:112|88:148,1,135.000005149842
172,120,8943,1,0,0:0:0:0:
264,144,9089,1,0,0:0:0:0:
308,228,9235,2,8,L|300:304,1,67.5000025749208,8|8,0:0|0:0,0:0:0:0:
360,144,9674,5,0,0:0:0:0:
404,284,9821,2,0,L|412:360,1,67.5000025749208,4|2,0:0|0:0,0:0:0:0:
452,192,10113,2,0,L|513:147,1,67.5000025749208,8|12,0:0|0:0,0:0:0:0:
352,196,10406,2,0,L|282:164,1,67.5000025749208
204,208,10699,1,2,0:0:0:0:
204,208,10845,6,0,P|196:152|240:88,1,135.000005149842,2|0,0:0|0:0,0:0:0:0:
148,60,11284,2,0,L|80:48,1,67.5000025749208
28,184,11577,2,0,L|96:172,1,67.5000025749208,8|8,0:0|0:0,0:0:0:0:
112,160,12016,5,0,0:0:0:0:
228,144,12162,2,0,L|204:208,1,67.5000025749208,0|2,0:0|0:0,0:0:0:0:
152,340,12455,2,0,L|107:287,1,67.5000025749208,8|8,0:0|0:0,0:0:0:0:
28,184,12748,2,0,L|96:172,1,67.5000025749208
325,193,13187,5,0,0:0:0:0:
418,214,13333,1,0,0:0:0:0:
492,156,13479,1,0,0:0:0:0:
491,61,13626,1,0,0:0:0:0:
418,2,13772,1,0,0:0:0:0:
325,23,13918,2,0,L|248:16,1,67.5000025749208,8|8,0:0|0:0,0:0:0:0:
492,156,14357,5,0,0:0:0:0:
404,96,14504,2,0,L|336:102,1,67.5000025749208,4|0,0:0|0:0,0:0:0:0:
204,140,14796,2,0,L|127:133,1,67.5000025749208,8|12,0:0|0:0,0:0:0:0:
16,104,15089,5,0,0:0:0:0:
124,143,15235,2,0,L|116:63,1,67.5000025749208,0|2,0:0|0:0,0:0:0:0:
16,104,15528,1,0,0:0:0:0:
172,224,15674,2,0,L|165:291,1,67.5000025749208,0|2,0:0|0:0,0:0:0:0:
288,176,15967,2,0,L|294:243,1,67.5000025749208
360,356,16260,6,0,L|432:352,1,67.5000025749208,8|8,0:0|0:0,0:0:0:0:
448,360,16699,1,0,0:0:0:0:
488,240,16845,1,2,0:0:0:0:
488,240,16918,2,2,L|473:183,6,33.7500012874604,2|2|2|2|2|2|2,0:0|0:0|0:0|0:0|0:0|0:0|0:0,0:0:0:0:
324,36,18455,6,0,P|336:120|272:184,1,180,12|0,1:0|0:0,0:0:0:0:
148,84,18894,2,0,L|252:88,1,90,8|0,0:0|0:0,0:0:0:0:
128,252,19187,2,0,L|24:256,1,90,0|0,1:0|1:0,0:0:0:0:
200,328,19479,1,8,0:0:0:0:
200,328,19552,1,0,0:0:0:0:
200,328,19626,2,0,P|236:244|196:164,1,180,8|0,1:0|0:0,0:0:0:0:
324,36,20065,2,0,L|424:28,1,90,8|0,0:0|0:0,0:0:0:0:
400,172,20357,2,0,L|300:180,1,90,0|0,1:0|1:0,0:0:0:0:
148,84,20650,5,8,0:0:0:0:
148,84,20723,1,0,0:0:0:0:
148,84,20796,2,0,L|168:268,1,180,8|0,1:0|0:0,0:0:0:0:
44,120,21235,2,0,L|56:216,1,90,8|0,0:0|0:0,0:0:0:0:
156,312,21528,1,0,1:0:0:0:
188,292,21601,1,0,0:0:0:0:
220,276,21674,1,0,1:0:0:0:
252,260,21748,1,0,0:0:0:0:
284,244,21821,2,0,L|340:252,1,45,8|0,0:0|0:0,0:0:0:0:
408,296,21967,2,0,B|440:312|440:312|488:256|480:176,1,180,8|0,1:0|1:0,0:0:0:0:
368,64,22406,6,0,L|304:72,1,45,8|0,0:0|0:0,0:0:0:0:
184,112,22552,2,0,L|248:120,1,45,0|0,1:0|0:0,0:0:0:0:
320,176,22699,1,8,0:0:0:0:
342,208,22772,1,8,0:0:0:0:
348,248,22845,1,8,1:0:0:0:
338,287,22918,1,8,0:0:0:0:
311,317,22992,1,8,0:0:0:0:
274,333,23065,1,8,0:0:0:0:
233,331,23138,6,0,L|40:320,1,180,12|0,1:0|1:0,0:0:0:0:
56,168,23577,2,0,L|120:248,1,90,8|0,0:0|0:0,0:0:0:0:
184,112,23870,2,0,L|199:213,1,90,0|0,1:0|1:0,0:0:0:0:
216,216,24089,1,0,0:0:0:0:
232,232,24162,1,8,0:0:0:0:
248,40,24309,6,0,P|152:24|96:80,1,180,8|0,1:0|0:0,1:0:0:0:
216,216,24748,2,0,L|320:208,1,90,8|0,0:0|0:0,0:0:0:0:
456,88,25040,1,0,1:0:0:0:
432,96,25113,1,0,0:0:0:0:
408,104,25187,1,0,1:0:0:0:
384,112,25260,1,0,0:0:0:0:
360,120,25333,1,8,0:0:0:0:
216,216,25479,6,0,B|176:240|176:240|128:192|144:104,1,180,8|0,1:0|1:0,0:0:0:0:
312,208,25918,2,0,L|296:312,1,90,8|0,0:0|0:0,0:0:0:0:
56,232,26211,2,0,L|42:143,1,90,0|0,1:0|1:0,0:0:0:0:
48,120,26431,1,0,1:0:0:0:
56,96,26504,1,8,0:0:0:0:
136,168,26650,6,0,L|160:320,1,135,8|0,1:0|0:0,0:0:0:0:
192,368,26943,2,0,P|240:368|288:352,1,90,0|8,0:0|0:0,0:0:0:0:
328,296,27162,1,0,1:0:0:0:
328,296,27235,2,0,P|408:256|472:312,1,180,12|0,1:0|1:0,0:0:0:0:
496,152,27674,1,8,0:0:0:0:
472,120,27748,1,8,0:0:0:0:
448,88,27821,1,8,0:0:0:0:
424,56,27894,1,8,0:0:0:0:
400,32,27967,6,0,P|360:32|320:48,1,67.5000025749207,8|0,1:0|1:0,0:0:0:0:
352,184,28260,2,0,P|372:149|378:106,1,67.5000025749207,8|0,0:0|1:0,0:0:0:0:
248,64,28552,2,0,P|267:98|301:125,1,67.5000025749207,8|0,0:0|1:0,0:0:0:0:
216,224,28845,2,0,P|196:189|162:162,1,67.5000025749207,8|0,0:0|1:0,0:0:0:0:
88,200,29138,5,8,0:0:0:0:
0,136,29284,1,0,1:0:0:0:
176,171,29431,1,8,0:0:0:0:
275,126,29577,1,0,1:0:0:0:
152,264,29723,1,8,0:0:0:0:
141,372,29869,1,0,1:0:0:0:
240,328,30016,1,8,0:0:0:0:
264,320,30089,1,8,0:0:0:0:
288,312,30162,1,0,1:0:0:0:
312,304,30235,1,8,0:0:0:0:
336,296,30309,6,0,P|344:256|328:200,1,90,12|0,1:0|1:0,0:0:0:0:
160,216,30601,2,0,P|190:242|247:257,1,90,8|0,0:0|0:0,0:0:0:0:
332,208,30894,1,8,0:0:0:0:
320,104,31040,2,0,P|281:117|240:158,1,90,0|0,1:0|1:0,0:0:0:0:
200,168,31333,6,0,P|160:184|104:160,1,90,8|0,0:0|0:0,0:0:0:0:
155,100,31772,5,2,0:0:0:0:
159,82,31845,1,2,0:0:0:0:
167,66,31918,1,2,0:0:0:0:
178,52,31992,1,2,0:0:0:0:
192,41,32065,1,2,0:0:0:0:
209,34,32138,1,2,0:0:0:0:
227,31,32211,1,2,0:0:0:0:
245,32,32284,1,2,0:0:0:0:
262,37,32357,1,2,0:0:0:0:
278,45,32431,1,2,0:0:0:0:
291,58,32504,1,2,0:0:0:0:
301,73,32577,1,2,0:0:0:0:
307,89,32650,6,0,L|448:72,1,135.000005149842,2|0,0:0|0:0,0:0:0:0:
416,168,33089,2,0,L|275:185,1,135.000005149842,2|0,0:0|0:0,0:0:0:0:
325,272,33528,2,0,L|392:264,1,67.5000025749208,2|0,0:0|0:0,0:0:0:0:
232,264,33821,1,0,0:0:0:0:
160,320,33967,1,0,0:0:0:0:
160,320,34040,1,0,0:0:0:0:
160,320,34113,1,0,0:0:0:0:
72,288,34260,2,0,P|56:256|56:216,1,67.5000025749208
112,48,34552,5,0,0:0:0:0:
192,96,34699,1,0,0:0:0:0:
112,144,34845,1,0,0:0:0:0:
200,88,34992,2,0,L|344:104,1,135.000005149842,2|0,0:0|0:0,0:0:0:0:
368,200,35431,2,0,L|233:185,1,135.000005149842,2|0,0:0|0:0,0:0:0:0:
344,288,35870,2,0,L|425:298,1,67.5000025749208,2|0,0:0|0:0,0:0:0:0:
496,256,36162,5,0,0:0:0:0:
504,160,36309,1,0,0:0:0:0:
464,72,36455,1,0,0:0:0:0:
376,32,36601,2,0,L|232:56,1,135.000005149842
168,112,37040,6,0,P|152:80|152:48,1,67.5000025749208,0|2,0:0|0:0,0:0:0:0:
256,168,37333,2,0,P|236:197|136:208,1,135.000005149842,2|0,0:0|0:0,0:0:0:0:
80,152,37772,2,0,L|104:296,1,135.000005149842,2|0,0:0|0:0,0:0:0:0:
344,112,38211,6,0,P|360:80|360:48,1,67.5000025749208,0|2,0:0|0:0,0:0:0:0:
256,168,38504,2,0,P|275:197|376:208,1,135.000005149842,2|0,0:0|0:0,0:0:0:0:
432,152,38943,2,0,L|408:296,1,135.000005149842,2|0,0:0|0:0,0:0:0:0:
468,180,39382,6,0,L|452:276,1,90,0|0,1:0|0:0,0:0:0:0:
376,296,41138,6,0,P|280:304|252:256,1,157.5,0|0,0:0|0:0,2:0:0:0:
324,248,41723,6,0,P|268:332|192:308,1,188.999994232178,0|0,1:0|0:0,0:0:0:0:
116,308,42016,6,0,L|12:300,1,90,12|0,1:0|0:0,0:0:0:0:
24,128,42309,1,8,0:0:0:0:
120,176,42455,2,0,L|224:168,1,90,4|0,0:0|0:0,0:0:0:0:
368,112,42748,1,4,0:0:0:0:
368,112,42821,1,0,0:0:0:0:
368,112,42894,2,0,P|376:160|368:208,1,90,8|0,0:0|0:0,0:0:0:0:
272,272,43187,5,4,0:0:0:0:
256,152,43333,2,0,P|248:104|256:56,1,90,4|8,0:0|0:0,0:0:0:0:
344,0,43626,1,4,0:0:0:0:
368,112,43772,2,0,L|464:96,1,90,0|4,0:0|0:0,0:0:0:0:
256,152,44065,2,0,L|160:136,1,90,8|0,0:0|0:0,0:0:0:0:
96,104,44284,1,0,0:0:0:0:
96,104,44357,2,0,P|96:176|160:216,1,135,4|0,0:0|0:0,0:0:0:0:
141,212,44650,1,8,0:0:0:0:
288,64,44796,6,0,L|416:24,1,135,4|0,0:0|0:0,0:0:0:0:
280,80,45089,6,0,L|440:80,1,153.000002918243,4|8,0:0|0:0,0:0:0:0:
272,96,45382,6,0,L|456:176,1,188.999994232178,8|0,1:0|0:0,0:0:0:0:
456,192,45674,5,4,0:0:0:0:
360,256,45821,2,0,P|352:304|360:352,1,90,8|0,0:0|0:0,0:0:0:0:
280,336,46040,1,0,0:0:0:0:
280,336,46113,2,0,L|184:344,1,90,4|4,0:0|0:0,0:0:0:0:
48,216,46406,2,0,L|144:208,1,90,8|0,0:0|0:0,0:0:0:0:
208,184,46626,1,0,0:0:0:0:
208,184,46699,6,0,P|216:232|208:280,1,90,4|0,0:0|0:0,0:0:0:0:
80,376,46992,1,8,0:0:0:0:
48,216,47138,2,0,L|24:120,1,90,4|0,0:0|0:0,0:0:0:0:
8,304,47431,1,4,0:0:0:0:
112,152,47577,2,0,L|139:56,1,90,8|4,0:0|0:0,0:0:0:0:
200,24,47796,1,0,0:0:0:0:
200,24,47870,6,0,P|248:16|304:40,1,90,4|0,0:0|0:0,0:0:0:0:
400,176,48162,1,8,0:0:0:0:
392,64,48309,2,0,L|488:40,1,90,4|0,0:0|0:0,0:0:0:0:
400,176,48601,1,4,0:0:0:0:
352,280,48748,2,0,L|256:304,1,90,8|0,0:0|0:0,0:0:0:0:
112,360,49040,5,4,0:0:0:0:
96,336,49113,1,0,0:0:0:0:
80,312,49187,1,4,0:0:0:0:
64,288,49260,1,0,0:0:0:0:
48,264,49333,2,0,L|24:216,1,45,8|0,0:0|0:0,0:0:0:0:
72,136,49479,6,0,L|120:232,1,101.250003862381,8|0,1:0|0:0,0:0:0:0:
128,101,49772,6,0,L|116:246,1,125.999996154785,8|8,1:0|0:0,0:0:0:0:
185,80,50065,6,0,L|117:226,1,161.999995056153,12|0,1:0|0:0,0:0:0:0:
95,235,50357,5,0,3:0:0:0:
159,366,50504,1,8,3:0:0:0:
184,222,50650,1,0,3:0:0:0:
80,324,50796,1,8,3:0:0:0:
224,303,50943,1,8,3:0:0:0:
339,272,51089,5,8,3:0:0:0:
260,115,51235,1,8,3:0:0:0:
232,288,51382,1,8,3:0:0:0:
356,164,51528,1,8,3:0:0:0:
183,192,51674,1,8,3:0:0:0:
380,200,51821,5,8,3:0:0:0:
426,1,51967,1,8,3:0:0:0:
272,135,52113,1,8,3:0:0:0:
475,117,52260,1,8,3:0:0:0:
301,12,52406,1,8,3:0:0:0:
378,69,52552,6,0,L|352:208,1,135,0|0,1:0|0:0,0:0:0:0:
240,256,52992,1,0,1:0:0:0:
256,136,53138,2,0,L|280:3,1,135,8|0,0:0|1:0,0:0:0:0:
152,48,53577,1,0,1:0:0:0:
80,112,53723,2,0,P|48:112|8:104,1,67.5000025749208,0|8,0:0|0:0,0:0:0:0:
144,184,54016,2,0,P|176:184|216:192,1,67.5000025749208,0|0,1:0|1:0,0:0:0:0:
56,272,54309,2,0,L|48:200,1,67.5000025749208,8|0,0:0|0:0,0:0:0:0:
256,272,54601,2,0,L|264:344,1,67.5000025749208,0|0,1:0|0:0,0:0:0:0:
256,352,54821,1,0,0:0:0:0:
248,368,54894,1,0,1:0:0:0:
352,360,55040,5,0,1:0:0:0:
416,288,55187,2,0,L|496:296,1,67.5000025749208,0|0,0:0|1:0,0:0:0:0:
376,192,55479,2,0,L|308:185,1,67.5000025749208,8|0,0:0|0:0,0:0:0:0:
160,112,55772,1,0,1:0:0:0:
88,168,55918,2,0,L|20:174,1,67.5000025749208,0|0,1:0|0:0,0:0:0:0:
160,112,56211,5,8,0:0:0:0:
232,48,56357,2,0,L|299:41,1,67.5000025749208,0|0,1:0|1:0,0:0:0:0:
80,80,56650,1,8,0:0:0:0:
72,56,56723,1,0,0:0:0:0:
64,32,56796,1,0,1:0:0:0:
248,144,56943,1,0,1:0:0:0:
240,168,57016,1,0,1:0:0:0:
232,192,57089,1,0,1:0:0:0:
136,304,57235,6,0,P|104:314|64:312,1,67.5000025749208,8|8,1:0|0:0,0:0:0:0:
152,208,57528,1,0,1:0:0:0:
224,272,57674,2,0,P|248:294|266:330,1,67.5000025749208,0|8,1:0|0:0,0:0:0:0:
152,208,57967,1,0,0:0:0:0:
171,113,58113,2,0,P|178:80|200:46,1,67.5000025749208,0|0,1:0|1:0,0:0:0:0:
328,112,58406,6,0,P|296:122|256:119,1,67.5000025749208,0|8,0:0|0:0,0:0:0:0:
376,32,58699,2,0,P|400:54|418:90,1,67.5000025749208,0|0,1:0|1:0,0:0:0:0:
368,208,58992,2,0,L|328:200,1,33.7500012874604,8|8,0:0|0:0,0:0:0:0:
392,232,59138,2,0,L|352:224,1,33.7500012874604,0|8,1:0|0:0,0:0:0:0:
416,256,59284,2,0,L|376:248,1,33.7500012874604,8|8,0:0|0:0,0:0:0:0:
440,280,59431,2,0,L|400:272,1,33.7500012874604,8|8,0:0|0:0,0:0:0:0:
296,304,59577,6,0,L|220:316,1,76.5000014591217,12|0,1:0|0:0,0:0:0:0:
48,360,59870,1,8,0:0:0:0:
16,248,60016,2,0,L|0:152,1,76.5000014591217,8|0,1:0|0:0,0:0:0:0:
136,32,60309,2,0,L|123:107,1,76.5000014591217,0|8,1:0|0:0,0:0:0:0:
152,248,60601,5,0,1:0:0:0:
168,264,60674,1,8,0:0:0:0:
184,280,60748,2,0,L|264:264,1,76.5000014591217,4|0,1:0|1:0,0:0:0:0:
432,184,61040,1,8,0:0:0:0:
488,80,61187,2,0,L|480:-8,1,76.5000014591217,8|0,1:0|0:0,0:0:0:0:
304,88,61479,2,0,L|299:126,1,38.2500007295609,0|0,1:0|0:0,0:0:0:0:
288,144,61626,1,8,0:0:0:0:
280,168,61699,1,8,0:0:0:0:
272,192,61772,1,8,0:0:0:0:
264,216,61845,1,8,0:0:0:0:
256,240,61918,6,0,P|208:240|152:224,1,90,8|0,1:0|0:0,0:0:0:0:
104,144,62211,1,8,0:0:0:0:
304,88,62357,2,0,P|368:72|432:104,1,135,8|0,1:0|0:0,0:0:0:0:
472,168,62650,5,8,0:0:0:0:
464,192,62723,1,8,0:0:0:0:
456,216,62796,1,8,0:0:0:0:
448,240,62870,1,8,0:0:0:0:
440,264,62943,1,8,3:0:0:0:
432,288,63016,1,8,3:0:0:0:
424,312,63089,6,0,L|328:328,1,90,12|0,3:0|0:0,0:0:0:0:
152,360,63382,1,8,0:0:0:0:
224,280,63528,2,0,P|256:216|232:160,1,135,8|0,1:0|0:0,0:0:0:0:
168,120,63821,5,8,0:0:0:0:
152,112,63894,1,8,0:0:0:0:
136,104,63967,1,8,0:0:0:0:
120,96,64040,1,8,0:0:0:0:
104,88,64113,1,8,3:0:0:0:
88,80,64187,1,8,3:0:0:0:
72,72,64260,6,0,L|56:176,1,90,12|0,3:0|0:0,0:0:0:0:
104,296,64552,1,8,0:0:0:0:
168,120,64699,2,0,P|216:72|288:80,1,135,8|0,1:0|0:0,0:0:0:0:
328,136,64992,5,8,0:0:0:0:
352,120,65065,1,8,0:0:0:0:
376,104,65138,1,8,0:0:0:0:
400,88,65211,1,8,0:0:0:0:
424,72,65284,1,8,3:0:0:0:
448,56,65357,1,8,3:0:0:0:
472,40,65431,6,0,L|480:144,1,90,12|0,3:0|0:0,0:0:0:0:
400,88,65723,1,8,0:0:0:0:
408,208,65870,2,0,L|388:310,1,90,8|0,1:0|0:0,0:0:0:0:
352,120,66162,1,8,0:0:0:0:
304,216,66309,5,8,3:0:0:0:
288,240,66382,1,8,3:0:0:0:
272,264,66455,1,8,3:0:0:0:
256,288,66528,1,8,3:0:0:0:
256,288,66601,5,8,3:0:0:0:
160,313,66748,1,8,3:0:0:0:
185,217,66894,1,8,3:0:0:0:
256,288,67040,5,8,3:0:0:0:
369,319,67187,1,8,3:0:0:0:
338,205,67333,1,8,3:0:0:0:
256,288,67479,5,8,3:0:0:0:
120,238,67626,1,8,3:0:0:0:
230,146,67772,1,8,3:0:0:0:
257,288,67918,5,8,3:0:0:0:
431,241,68065,1,8,3:0:0:0:
303,113,68211,1,8,3:0:0:0:
256,288,68357,1,8,3:0:0:0:
192,120,68504,2,0,L|160:32,2,90,8|8|0,3:0|3:0|3:0,0:0:0:0:
156,17,68943,6,0,L|104:176,1,161.999995056153,8|8,3:0|3:0,0:0:0:0:
96,232,69235,2,0,L|223:199,1,107.999996704102,8|0,3:0|0:0,0:0:0:0:
320,176,69528,2,0,L|228:81,1,107.999996704102,8|0,3:0|1:0,0:0:0:0:
192,216,69967,6,0,P|176:264|200:312,1,80.9999975280763,4|0,1:0|0:0,0:0:0:0:
200,304,70260,6,0,L|336:336,1,135.000005149842,0|0,1:0|3:0,0:0:0:0:
352,344,70479,1,2,0:0:0:0:
369,333,70552,1,2,0:0:0:0:
385,320,70626,1,2,0:0:0:0:
398,305,70699,1,2,0:0:0:0:
408,287,70772,1,2,0:0:0:0:
415,268,70845,1,2,0:0:0:0:
418,248,70918,1,2,0:0:0:0:
418,228,70992,1,2,0:0:0:0:
415,208,71065,1,2,0:0:0:0:
404,192,71138,6,0,P|316:168|332:96,1,180,8|0,1:0|0:0,0:0:0:0:
424,40,71432,5,0,1:0:0:0:
232,40,71578,2,0,L|136:24,1,90,8|0,0:0|0:0,0:0:0:0:
16,128,71871,2,0,L|112:112,1,90,0|0,1:0|1:0,0:0:0:0:
304,104,72162,1,8,0:0:0:0:
304,104,72235,1,0,0:0:0:0:
304,104,72308,2,0,P|304:152|288:200,1,90,0|0,1:0|0:0,0:0:0:0:
144,288,72601,1,0,1:0:0:0:
216,136,72747,2,0,L|304:150,1,90,8|0,0:0|0:0,0:0:0:0:
464,248,73040,2,0,L|375:262,1,90,0|0,1:0|1:0,0:0:0:0:
144,288,73332,5,8,3:0:0:0:
144,288,73405,1,0,0:0:0:0:
144,288,73479,2,0,B|72:312|72:312|32:256|96:224,1,180,8|0,1:0|1:0,0:0:0:0:
256,248,73918,2,0,P|264:296|248:344,1,90,8|0,0:0|0:0,0:0:0:0:
376,280,74210,6,0,L|440:264,1,45,0|0,3:0|0:0,0:0:0:0:
376,192,74357,2,0,L|320:192,1,45,0|0,3:0|0:0,0:0:0:0:
376,104,74503,2,0,L|419:114,1,45,0|0,3:0|0:0,0:0:0:0:
376,192,74650,6,0,P|288:112|296:64,1,180,8|0,1:0|1:0,0:0:0:0:
128,96,75088,2,0,P|88:120|40:120,1,90,8|0,0:0|0:0,0:0:0:0:
208,152,75381,6,0,L|248:200,1,45,0|0,3:0|0:0,0:0:0:0:
151,252,75527,2,0,L|144:208,1,45,0|0,3:0|0:0,0:0:0:0:
64,240,75674,2,0,L|42:298,1,45,0|0,3:0|0:0,0:0:0:0:
56,224,75820,6,0,P|8:144|56:56,1,180,8|0,1:0|1:0,0:0:0:0:
112,48,76186,1,0,0:0:0:0:
112,48,76259,2,0,L|216:32,1,90,8|0,0:0|0:0,0:0:0:0:
368,176,76552,2,0,L|264:192,1,90,0|0,1:0|1:0,0:0:0:0:
151,252,76844,1,8,0:0:0:0:
240,88,76991,6,0,B|327:75|327:75|336:16|256:24,1,180,8|0,1:0|1:0,0:0:0:0:
64,160,77430,2,0,L|48:264,1,90,8|8,0:0|0:0,0:0:0:0:
64,280,77649,1,8,0:0:0:0:
93,301,77723,1,8,0:0:0:0:
129,301,77796,1,8,0:0:0:0:
158,280,77869,6,0,P|134:268|112:272,1,45,8|0,3:0|0:0,0:0:0:0:
169,246,78016,2,0,P|143:243|123:254,1,45,8|0,3:0|0:0,0:0:0:0:
158,212,78162,2,0,P|132:218|117:235,1,45,8|0,3:0|0:0,0:0:0:0:
104,248,78308,6,0,B|88:304|136:336|136:336|184:312|184:312|232:312|232:312|248:360|248:360|320:360,1,303.750011587143,0|0,1:0|0:0,0:0:0:0:
336,368,79040,6,0,L|408:352,1,53.9999983520508,2|2,0:0|0:0,0:0:0:0:
472,272,79186,2,0,L|400:256,1,53.9999983520508,2|2,0:0|0:0,0:0:0:0:
296,248,79333,6,0,P|272:168|312:120,1,144,12|0,1:0|0:0,0:0:0:0:
352,190,79771,5,8,3:0:0:0:
312,204,79844,1,8,3:0:0:0:
268,196,79917,1,8,3:0:0:0:
236,164,79992,1,8,3:0:0:0:
224,120,80064,1,8,3:0:0:0:
236,80,80137,5,10,0:0:0:0:
220,84,80210,1,10,0:0:0:0:
204,88,80283,1,10,0:0:0:0:
188,92,80357,1,10,0:0:0:0:
172,96,80430,1,10,0:0:0:0:
156,100,80503,6,0,P|80:32|124:0,1,180,8|0,1:0|0:0,0:0:0:0:
360,12,80796,5,0,1:0:0:0:
312,116,80942,2,0,L|300:216,1,90,8|0,0:0|0:0,0:0:0:0:
436,344,81235,2,0,L|425:254,1,90,0|0,1:0|1:0,0:0:0:0:
301,205,81527,1,8,0:0:0:0:
301,205,81601,1,0,0:0:0:0:
301,205,81674,2,0,L|312:116,1,90,8|0,1:0|0:0,0:0:0:0:
408,40,81966,5,0,1:0:0:0:
192,168,82113,2,0,P|144:176|80:168,1,90,8|0,0:0|0:0,0:0:0:0:
104,304,82405,2,0,P|56:296|-8:304,1,90,0|0,1:0|1:0,0:0:0:0:
264,320,82698,2,0,L|208:304,1,45,8|0,0:0|0:0,0:0:0:0:
272,336,82845,2,0,P|336:336|416:256,1,180,8|0,1:0|1:0,0:0:0:0:
288,128,83284,6,0,L|304:232,1,90,8|0,0:0|0:0,0:0:0:0:
144,112,83577,2,0,L|209:194,1,90,0|0,1:0|1:0,0:0:0:0:
16,176,83869,1,8,0:0:0:0:
16,176,83942,1,0,0:0:0:0:
16,176,84016,2,0,B|99:208|99:208|128:152|80:120,1,180,8|0,1:0|1:0,0:0:0:0:
30,286,84454,5,8,0:0:0:0:
66,312,84527,1,8,0:0:0:0:
109,320,84601,1,8,0:0:0:0:
153,308,84674,1,8,0:0:0:0:
188,280,84747,1,8,0:0:0:0:
205,238,84820,1,8,0:0:0:0:
204,193,84893,2,0,L|264:184,1,45,8|0,3:0|3:0,0:0:0:0:
320,128,85040,2,0,L|364:134,1,45,8|0,3:0|3:0,0:0:0:0:
432,224,85186,6,0,P|472:144|440:56,1,180,8|0,1:0|1:0,0:0:0:0:
288,40,85625,2,0,L|184:32,1,90,8|0,0:0|0:0,0:0:0:0:
198,33,85844,1,0,0:0:0:0:
198,33,85918,1,0,1:0:0:0:
48,112,86064,2,0,L|40:176,1,45,0|0,1:0|0:0,0:0:0:0:
120,224,86210,2,0,L|128:288,1,45,8|0,0:0|0:0,0:0:0:0:
48,344,86357,6,0,P|128:288|192:336,1,180,8|0,1:0|1:0,0:0:0:0:
304,376,86796,1,8,0:0:0:0:
400,328,86942,1,0,1:0:0:0:
440,224,87088,2,0,L|448:120,1,90,0|0,0:0|1:0,0:0:0:0:
456,8,87381,1,2,0:0:0:0:
424,112,87528,6,0,L|417:201,1,90,8|0,1:0|0:0,0:0:0:0:
312,272,87966,5,8,3:0:0:0:
62,138,88113,1,8,3:0:0:0:
345,150,88259,1,8,3:0:0:0:
85,262,88405,1,8,3:0:0:0:
270,48,88552,1,8,3:0:0:0:
196,321,88698,1,8,3:0:0:0:
145,43,88844,1,8,3:0:0:0:
136,56,89869,6,0,P|128:160|192:184,1,180,12|0,1:0|0:0,0:0:0:0:
344,96,90308,2,0,L|248:80,1,90,8|0,0:0|0:0,0:0:0:0:
80,248,90601,1,0,1:0:0:0:
104,272,90674,1,0,0:0:0:0:
128,296,90747,1,0,1:0:0:0:
152,320,90820,1,0,0:0:0:0:
176,336,90893,2,0,L|232:328,1,45,8|0,0:0|0:0,0:0:0:0:
352,320,91040,6,0,B|384:344|384:344|464:312|440:232,1,180,8|0,1:0|1:0,0:0:0:0:
344,96,91479,2,0,L|352:208,1,90,8|0,0:0|0:0,0:0:0:0:
280,200,91698,1,8,0:0:0:0:
280,200,91771,2,0,L|288:312,1,90,0|0,1:0|1:0,0:0:0:0:
160,176,92064,2,0,L|164:131,1,45,8|0,0:0|0:0,0:0:0:0:
152,192,92211,6,0,B|112:224|112:224|56:192|72:96,1,180,8|0,1:0|1:0,0:0:0:0:
208,56,92649,1,8,0:0:0:0:
344,40,92796,6,0,L|360:104,1,45,0|2,1:0|0:0,0:0:0:0:
300,188,93088,2,0,L|347:142,1,45,0|2,1:0|0:0,0:0:0:0:
452,152,93381,2,0,L|388:133,1,45,0|2,1:0|0:0,0:0:0:0:
344,40,93674,5,8,0:0:0:0:
300,188,93820,5,0,1:0:0:0:
452,152,93966,5,0,1:0:0:0:
