osu file format v12

[General]
AudioFilename: Kakumei Dualism.mp3
AudioLeadIn: 0
PreviewTime: 70552
Countdown: 0
SampleSet: Soft
StackLeniency: 0.7
Mode: 0
LetterboxInBreaks: 0
WidescreenStoryboard: 0

[Editor]
Bookmarks: 4552,18455,18601,32650,41723,42016,52552,61918,66601,68943,79042,79773,94115
DistanceSpacing: 1.4
BeatDivisor: 4
GridSize: 4
TimelineZoom: 2.1

[Metadata]
Title:Kakumei Dualism -Anime Version-
TitleUnicode:革命デュアリズム -アニメバージョン-
Artist:Mizuki Nana x T.M.Revolution
ArtistUnicode:水樹奈々×T.M.Revolution
Creator:Azure
Version:Easy
Source:革命機ヴァルヴレイヴ
Tags:Flask Valvrave the Liberator opening Hibiki Nishikawa Takanori Hoshino Katsura vvv
BeatmapID:407894
BeatmapSetID:167834

[Difficulty]
HPDrainRate:2
CircleSize:3
OverallDifficulty:2
ApproachRate:3
SliderMultiplier:0.6
SliderTickRate:1

[Events]
//Background and Video events
0,0,"yeaaaa.png",0,0
//Break Periods
//Storyboard Layer 0 (Background)
//Storyboard Layer 1 (Fail)
//Storyboard Layer 2 (Pass)
//Storyboard Layer 3 (Foreground)
//Storyboard Sound Samples
//Background Colour Transformations
3,100,163,162,255

[TimingPoints]
4553,292.682926829268,4,2,2,55,1,0
9235,-100,4,2,1,55,0,0
18455,-100,4,2,2,65,0,1
18601,-100,4,2,2,65,0,0
27967,-100,4,2,2,55,0,0
32650,-100,4,2,1,55,0,0
39674,-100,4,2,1,25,0,0
42016,-100,4,2,2,70,0,1
42162,-100,4,2,2,70,0,0
51674,-100,4,2,2,30,0,0
52552,-100,4,2,3,55,0,0
53431,-100,4,2,2,55,0,0
59577,-100,4,2,2,45,0,0
61918,-100,4,2,2,55,0,0
66601,-100,4,2,2,45,0,0
67772,-100,4,2,2,65,0,0
68943,-100,4,2,2,55,0,0
70845,-100,4,2,2,40,0,0
71138,-100,4,2,4,100,0,1
71870,-100,4,2,2,75,0,1
78308,-100,4,2,4,60,0,0
79186,-100,4,2,2,60,0,0
79332,-100,4,2,2,60,0,1
79479,-100,4,2,2,60,0,0
80503,-100,4,2,4,100,0,1
81235,-100,4,2,2,75,0,1
88844,-100,4,2,2,80,0,0
89869,-100,4,2,2,70,0,1
90015,-100,4,2,2,70,0,0
92796,-100,4,2,2,60,0,0
93674,-100,4,2,2,55,0,0

[Colours]
Combo1 : 227,154,119
Combo2 : 91,114,189
Combo3 : 207,92,136
Combo4 : 117,189,198
Combo5 : 255,222,121

[HitObjects]
96,88,4552,6,0,L|216:88,1,120,2|0,0:0|0:0,0:0:0:0:
224,168,5431,2,0,L|104:168,1,120,2|0,0:0|0:0,0:0:0:0:
312,240,6894,6,0,L|432:240,1,120,2|0,0:0|0:0,0:0:0:0:
424,320,7772,2,0,L|304:320,1,120,2|0,0:0|0:0,0:0:0:0:
360,48,9235,6,0,P|389:130|352:216,1,180,8|8,0:0|0:0,0:0:0:0:
152,48,11577,2,0,P|122:130|160:216,1,180,8|8,0:0|0:0,0:0:0:0:
339,285,13918,6,0,B|300:264|300:264|212:264|212:264|172:288,1,180,8|8,0:0|0:0,0:0:0:0:
340,96,16260,2,0,B|300:120|300:120|212:120|212:120|168:96,1,180,8|2,0:0|0:0,0:0:0:0:
448,56,18455,6,0,B|448:112|448:112|432:152|432:152|432:224,1,150,12|0,1:0|1:0,0:0:0:0:
368,312,19626,2,0,B|296:328|296:328|216:312,1,150,8|0,1:0|1:0,0:0:0:0:
112,248,20796,2,0,B|112:197|112:197|96:157|96:157|96:101,1,150,8|0,1:0|1:0,0:0:0:0:
200,32,21967,2,0,B|276:16|276:16|352:32,1,150,8|8,1:0|0:0,0:0:0:0:
464,76,23138,6,0,L|464:244,1,150,8|0,1:0|1:0,0:0:0:0:
340,236,24309,2,0,B|268:220|268:220|188:236,1,150,8|0,1:0|1:0,0:0:0:0:
68,260,25479,2,0,P|20:212|20:132,1,150,8|0,1:0|1:0,0:0:0:0:
112,48,26650,2,0,L|240:48,1,120,8|12,1:0|1:0,0:0:0:0:
444,44,27967,6,0,P|460:100|444:164,1,120,12|8,1:0|0:0,0:0:0:0:
284,108,29138,2,0,P|268:164|284:228,1,120,8|8,0:0|0:0,0:0:0:0:
196,368,30309,6,0,L|68:368,1,120,8|8,0:0|0:0,0:0:0:0:
36,248,31333,1,0,1:0:0:0:
32,88,32650,6,0,B|80:48|144:88|144:88|200:128|256:88,1,240,2|0,0:0|0:0,0:0:0:0:
432,32,34992,2,0,B|432:128|432:128|480:176|480:176|480:264,1,240,2|0,0:0|0:0,0:0:0:0:
240,336,37333,6,0,P|120:272|128:184,2,240,2|2|0,0:0|0:0|0:0,0:0:0:0:
248,64,42016,6,0,L|384:64,1,120,12|0,1:0|1:0,0:0:0:0:
448,36,42894,1,8,0:0:0:0:
452,120,43187,2,0,L|452:240,1,120,0|0,1:0|1:0,0:0:0:0:
384,296,44065,1,8,0:0:0:0:
352,216,44357,6,0,L|240:216,1,90,0|8,1:0|0:0,0:0:0:0:
204,276,45089,1,8,0:0:0:0:
120,264,45382,2,0,P|88:200|120:128,1,150,8|0,1:0|1:0,0:0:0:0:
180,80,46406,1,8,0:0:0:0:
260,100,46699,6,0,P|276:164|252:220,1,120,0|0,1:0|1:0,0:0:0:0:
204,276,47577,1,8,0:0:0:0:
288,292,47870,2,0,L|424:292,1,120,0|0,1:0|1:0,0:0:0:0:
488,324,48748,1,8,0:0:0:0:
488,240,49040,6,0,L|488:128,1,90,0|8,1:0|0:0,0:0:0:0:
468,68,49772,1,8,3:0:0:0:
384,64,50065,2,0,P|184:80|168:192,1,330,12|0,1:0|0:0,0:0:0:0:
376,312,52552,6,0,P|408:232|368:144,1,180,0|0,1:0|1:0,0:0:0:0:
72,52,54894,6,0,B|72:108|72:108|88:172|88:172|88:236,1,180,0|0,1:0|1:0,0:0:0:0:
408,312,57235,6,0,B|408:256|408:256|424:192|424:192|424:128,1,180,8|0,1:0|1:0,0:0:0:0:
184,100,59577,6,0,P|144:88|96:100,2,90,8|8|8,1:0|1:0|0:0,0:0:0:0:
252,152,60748,2,0,P|292:164|340:152,2,90,8|8|8,1:0|1:0|0:0,0:0:0:0:
296,80,61918,6,0,P|400:96|416:180,1,180,8|0,1:0|3:0,0:0:0:0:
424,240,63089,2,0,P|384:316|299:316,1,180,8|0,1:0|3:0,0:0:0:0:
216,316,64260,2,0,P|112:300|96:216,1,180,8|8,1:0|3:0,0:0:0:0:
96,156,65431,2,0,P|135:79|220:79,1,180,8|0,1:0|3:0,0:0:0:0:
284,132,66601,6,0,B|324:152|324:152|416:152|416:152|460:132,1,180,8|8,1:0|3:0,0:0:0:0:
500,204,67772,2,0,B|452:228|452:228|452:372,1,180,8|8,3:0|3:0,0:0:0:0:
368,356,68943,6,0,L|368:296,2,60,8|8|0,3:0|3:0|1:0,0:0:0:0:
244,348,69967,2,0,B|204:376|160:348|160:348|116:320|72:348,1,180,8|0,1:0|0:0,0:0:0:0:
52,264,71138,6,0,L|52:112,1,150,8|0,1:0|1:0,0:0:0:0:
144,28,72308,2,0,L|296:28,1,150,8|0,1:0|1:0,0:0:0:0:
420,8,73479,6,0,L|420:176,1,150,8|0,1:0|1:0,0:0:0:0:
316,88,74650,2,0,L|316:256,1,150,8|0,1:0|1:0,0:0:0:0:
312,360,75820,6,0,P|240:384|172:360,1,150,8|0,1:0|1:0,0:0:0:0:
80,276,76991,2,0,L|80:124,1,150,8|0,1:0|1:0,0:0:0:0:
236,64,78308,6,0,B|268:76|268:76|292:64|292:64|316:52|316:52|344:64|344:64|368:76|368:76|404:60,1,180,0|8,1:0|3:0,0:0:0:0:
440,48,79333,2,0,P|464:124|444:196,1,150,12|8,1:0|0:0,0:0:0:0:
340,244,80503,6,0,P|268:224|196:244,1,150,8|0,1:0|1:0,0:0:0:0:
80,288,81674,2,0,P|56:212|76:140,1,150,8|0,1:0|1:0,0:0:0:0:
164,60,82845,6,0,B|220:60|220:60|252:76|252:76|316:76,1,150,8|0,1:0|1:0,0:0:0:0:
436,68,84016,2,0,L|436:232,1,150,8|0,1:0|1:0,0:0:0:0:
356,316,85186,6,0,B|300:336|300:336|252:320|212:336|212:336|152:316,1,210,8|8,1:0|0:0,0:0:0:0:
140,276,86357,2,0,L|140:120,1,150,8|0,1:0|1:0,0:0:0:0:
212,20,87528,2,0,P|244:28|276:20,1,60,8|0,1:0|1:0,0:0:0:0:
312,24,87966,2,0,P|352:100|308:180,1,180,8|8,1:0|3:0,0:0:0:0:
464,328,89869,6,0,B|464:272|464:272|476:232|476:232|476:176,1,150,12|0,1:0|1:0,0:0:0:0:
444,56,91040,2,0,P|372:32|304:56,1,150,8|0,1:0|1:0,0:0:0:0:
224,152,92210,2,0,P|164:176|116:152,1,120,8|0,1:0|1:0,0:0:0:0:
36,136,93089,6,0,L|36:220,1,60,8|0,0:0|1:0,0:0:0:0:
92,260,93674,2,0,L|92:312,2,30,8|0|0,0:0|1:0|1:0,0:0:0:0:
