osu file format v12

[General]
AudioFilename: Vitalization.mp3
AudioLeadIn: 1000
PreviewTime: 70602
Countdown: 0
SampleSet: Soft
StackLeniency: 0.7
Mode: 0
LetterboxInBreaks: 0

[Editor]
DistanceSpacing: 1
BeatDivisor: 4
GridSize: 16

[Metadata]
Title:Vitalization (TV Size)
TitleUnicode:Vitalization (TV Size)
Artist:Mizuki Nana
ArtistUnicode:水樹奈々
Creator:Flower
Version:Normal
Source:Senki Zesshou Symphogear G
Tags:Opening Kazanari Tsubasa 戦姫绝唱シンフォギアG
BeatmapID:276753
BeatmapSetID:102803

[Difficulty]
HPDrainRate:4
CircleSize:4
OverallDifficulty:4
ApproachRate:5
SliderMultiplier:0.9
SliderTickRate:1

[Events]
//Background and Video events
0,0,"bg1234.jpg",0,0
Video,0,"feichang op.flv"
//Break Periods
//Storyboard Layer 0 (Background)
//Storyboard Layer 1 (Fail)
//Storyboard Layer 2 (Pass)
//Storyboard Layer 3 (Foreground)
//Storyboard Sound Samples
//Background Colour Transformations
3,100,163,162,255

[TimingPoints]
1287,315.789473684211,4,2,1,65,1,0
3813,-100,4,2,1,70,0,0
13918,-100,4,2,1,75,0,0
26550,-100,4,2,1,60,0,0
31602,-100,4,2,1,70,0,0
36655,-100,4,2,1,65,0,0
70760,-100,4,2,1,75,0,1
93497,-100,4,2,1,70,0,0
95392,-100,4,2,1,50,0,0

[Colours]
Combo1 : 196,142,255
Combo2 : 0,104,244
Combo3 : 0,191,72
Combo4 : 255,138,32

[HitObjects]
125,301,1287,2,0,P|177:321|226:311,1,90,4|8,1:0|1:2,0:0:0:0:
293,283,1918,2,0,L|394:296,1,90,0|4,0:0|0:3,0:0:0:0:
441,226,2550,2,0,L|514:218,2,67.5,2|2|0,0:0|0:0|0:0,0:0:0:0:
401,204,3181,6,0,P|384:178|388:108,1,90,4|8,0:0|0:0,0:0:0:0:
440,51,3813,2,0,L|347:39,1,90,4|2,1:0|0:0,0:0:0:0:
279,94,4444,1,0,0:0:0:0:
205,41,4760,1,2,0:0:0:0:
118,67,5076,2,0,P|70:93|55:213,1,180,2|2,0:0|0:0,0:0:0:0:
142,205,6023,5,2,0:0:0:0:
211,262,6339,2,0,L|301:255,2,90,4|2|0,1:0|0:0|0:0,0:0:0:0:
127,296,7287,2,0,P|155:333|202:349,1,90,2|4,0:0|0:3,0:0:0:0:
283,335,7918,2,0,L|373:328,1,90,2|0,0:0|0:0,0:0:0:0:
450,281,8550,5,2,0:0:0:0:
405,203,8865,2,0,P|389:163|425:74,2,135,4|0|2,1:0|0:0|0:0,0:0:0:0:
477,148,10129,2,0,L|295:128,1,180,2|0,0:0|0:0,0:0:0:0:
228,71,11076,1,4,1:0:0:0:
181,148,11392,6,0,P|143:159|95:147,1,90,4|2,1:0|0:0,0:0:0:0:
29,85,12023,2,0,L|3:17,2,67.5,2|2|2,0:0|0:0|0:0,0:0:0:0:
19,129,12655,2,0,B|7:174|7:174|51:168|96:191|108:244,1,180,4|0,1:0|0:0,0:0:0:0:
20,264,13602,5,2,0:0:0:0:
87,323,13918,2,0,L|229:356,2,135,4|4|8,1:0|0:3|0:0,0:0:0:0:
138,248,15181,2,0,P|152:211|151:157,1,90,0|8,0:0|0:0,0:0:0:0:
117,77,15813,2,0,L|210:60,1,90,2|4,0:0|0:3,0:0:0:0:
263,129,16444,6,0,L|394:159,2,135,4|4|2,0:3|0:3|0:0,0:0:0:0:
308,51,17708,2,0,L|401:34,1,90,2|8,0:0|0:0,0:0:0:0:
459,98,18339,2,0,P|480:140|479:187,1,90,8|2,0:0|0:0,0:0:0:0:
416,246,18971,6,0,P|416:292|472:362,2,135,4|2|8,1:0|0:0|0:0,0:0:0:0:
355,179,20234,1,4,1:0:0:0:
355,179,20550,1,8,0:0:0:0:
297,247,20865,2,0,L|254:305,2,67.5,0|2|2,0:0|0:0|0:0,0:0:0:0:
258,223,21497,6,0,P|232:184|227:142,1,90,4|8,1:0|0:0,0:0:0:0:
276,65,22129,2,0,L|325:53,2,45,0|2|8,0:0|0:0|0:0,0:0:0:0:
185,62,22760,2,0,L|89:42,1,90,0|8,0:0|0:0,0:0:0:0:
44,117,23392,2,0,L|-1:125,2,45,2|0|8,0:0|0:0|0:0,0:0:0:0:
83,198,24023,6,0,P|81:238|111:290,1,90,4|8,1:0|0:0,0:0:0:0:
171,223,24655,2,0,L|217:216,2,45,0|2|8,0:0|0:0|0:0,0:0:0:0:
189,311,25287,2,0,L|281:297,1,90,4|10,1:0|0:0,0:0:0:0:
361,330,25918,1,8,0:0:0:0:
361,330,26234,1,2,0:0:0:0:
256,192,26550,12,4,30339,0:1:0:0:
314,316,31602,6,0,P|360:343|444:340,2,135,4|2|4,1:0|0:0|0:0,0:0:0:0:
336,228,32865,2,0,L|311:130,1,90,4|8,0:3|0:0,0:0:0:0:
223,134,33497,2,0,L|248:232,1,90,2|4,0:0|0:0,0:0:0:0:
186,290,34129,6,0,P|142:313|53:297,2,135,4|2|4,0:3|0:0|0:0,0:0:0:0:
123,224,35392,2,0,P|92:195|75:145,1,90,4|8,0:3|0:0,0:0:0:0:
158,117,36023,2,0,P|182:100|208:38,1,90,8|4,0:0|0:0,0:0:0:0:
293,74,36655,6,0,L|395:99,1,90,4|0,1:0|0:0,0:0:0:0:
469,79,37287,1,8,0:0:0:0:
469,79,37602,1,0,0:0:0:0:
452,167,37918,2,0,P|479:204|483:261,1,90,0|8,0:0|0:0,0:0:0:0:
395,237,38550,2,0,L|345:222,2,45,2|0|2,0:0|0:0|0:0,0:0:0:0:
431,319,39181,5,4,0:0:0:0:
341,312,39497,2,0,L|248:284,1,90,8|2,0:0|0:0,0:0:0:0:
170,319,40129,1,8,0:0:0:0:
80,308,40444,2,0,L|18:335,2,67.5,2|2|2,0:0|0:0|0:0,0:0:0:0:
103,268,41076,2,0,P|116:222|109:173,1,90,0|8,0:0|0:0,0:0:0:0:
50,114,41708,1,4,0:0:0:0:
96,37,42023,5,8,0:0:0:0:
162,97,42339,2,0,P|224:117|299:93,1,135,2|2,0:0|0:0,0:0:0:0:
412,42,43287,1,4,0:3:0:0:
431,129,43602,1,4,0:3:0:0:
452,216,43918,1,2,0:0:0:0:
425,302,44234,6,0,P|383:316|295:292,1,135,4|2,0:3|0:0,0:0:0:0:
197,202,45181,2,0,P|239:188|327:212,1,135,0|2,0:0|0:0,0:0:0:0:
209,282,46129,2,0,L|236:345,2,67.5,2|2|8,0:0|0:0|0:0,0:0:0:0:
99,202,47076,5,2,0:0:0:0:
122,114,47392,2,0,P|139:86|141:16,1,90,4|8,0:0|0:0,0:0:0:0:
58,55,48023,2,0,P|41:83|39:153,1,90,0|8,0:0|0:0,0:0:0:0:
99,202,48655,2,0,L|191:218,1,90,2|8,0:0|0:0,0:0:0:0:
258,161,49287,1,4,0:0:0:0:
342,130,49602,6,0,P|383:93|395:58,2,90,8|4|8,0:0|0:3|0:0,0:0:0:0:
331,219,50550,2,0,L|432:249,1,90,2|0,0:0|0:0,0:0:0:0:
478,311,51181,1,4,0:3:0:0:
390,331,51497,2,0,L|339:316,1,45,8|4,0:0|0:0,0:0:0:0:
211,327,52129,6,0,P|181:343|117:345,1,90,2|4,0:0|0:3,0:0:0:0:
83,333,52602,1,0,0:0:0:0:
119,250,52918,1,4,0:0:0:0:
161,170,53234,1,2,0:0:0:0:
161,170,53392,2,0,L|61:157,1,90,4|8,0:3|0:3,0:0:0:0:
24,81,54023,5,4,0:3:0:0:
24,81,54181,2,0,L|159:58,1,135,4|2,0:0|0:0,0:0:0:0:
229,111,54971,2,0,P|290:122|328:116,1,90,2|0,0:0|0:0,0:0:0:0:
379,53,55602,2,0,L|439:28,2,60,4|4|2,0:0|0:3|0:0,0:0:0:0:
394,111,56234,2,0,L|465:115,2,60,4|2|4,0:3|0:0|0:3,0:0:0:0:
362,162,56865,2,0,P|349:224|426:305,1,180,4|4,1:0|0:0,0:0:0:0:
266,214,58129,6,0,L|166:225,1,90,4|8,0:3|0:3,0:0:0:0:
87,208,58760,2,0,P|46:158|43:122,1,90,2|0,0:0|0:0,0:0:0:0:
89,57,59392,2,0,L|139:43,2,45,2|0|4,0:0|0:0|0:3,0:0:0:0:
141,130,60023,6,0,L|236:103,1,90,4|4,0:0|0:3,0:0:0:0:
299,50,60655,2,0,L|371:30,2,67.5,2|4|2,0:0|0:3|0:0,0:0:0:0:
313,92,61287,2,0,P|344:117|365:163,1,90,4|4,0:0|0:3,0:0:0:0:
296,220,61918,2,0,P|286:271|393:312,1,180,4|4,0:3|0:0,0:0:0:0:
205,303,63181,6,0,L|116:326,1,90,4|2,0:3|0:0,0:0:0:0:
42,275,63813,2,0,P|56:221|42:181,1,90,4|0,0:0|0:0,0:0:0:0:
6,108,64444,1,8,0:3:0:0:
6,108,64760,1,4,0:3:0:0:
81,58,65076,2,0,B|90:55|90:55|98:63|106:55|106:55|114:63|122:55|122:55|130:63|138:55|138:55|146:63|154:55|154:55|162:63|170:55|170:55|178:63|186:55|186:55|194:63|199:56,1,135,0|2,0:2|3:2,0:0:0:0:
238,80,65708,6,0,L|321:67,2,67.5,4|2|8,0:0|0:0|0:3,0:0:0:0:
211,116,66339,2,0,P|202:150|220:201,1,90,4|2,0:3|0:0,0:0:0:0:
301,238,66971,2,0,L|403:227,1,90,4|0,0:0|0:0,0:0:0:0:
431,308,67602,2,0,L|341:317,1,90,4|4,0:0|0:3,0:0:0:0:
303,342,68076,1,4,0:0:0:0:
256,192,68234,12,2,70129,0:0:0:0:
60,98,70760,6,0,L|154:81,1,90,4|8,1:0|0:0,0:0:0:0:
219,137,71392,2,0,L|320:148,1,90,0|8,0:0|0:0,0:0:0:0:
392,115,72023,2,0,L|462:93,2,67.5,2|0|0,0:0|0:0|0:0,0:0:0:0:
402,158,72655,2,0,P|430:197|433:251,1,90,0|8,1:3|0:0,0:0:0:0:
345,228,73287,6,0,L|252:238,1,90,4|8,1:0|0:0,0:0:0:0:
201,309,73918,2,0,L|108:299,1,90,0|8,0:0|0:0,0:0:0:0:
26,267,74550,2,0,P|59:218|63:173,1,90,2|8,0:0|0:0,0:0:0:0:
30,158,75023,2,0,L|0:110,1,45,2|0,0:0|1:3,0:0:0:0:
61,48,75497,1,4,0:0:0:0:
131,104,75813,6,0,L|231:117,1,90,4|2,1:0|0:0,0:0:0:0:
297,69,76444,1,2,0:0:0:0:
348,142,76760,1,8,0:0:0:0:
426,97,77076,6,0,P|439:142|426:192,1,90,4|2,0:0|0:0,0:0:0:0:
383,260,77708,1,0,1:0:0:0:
383,260,78023,1,8,0:0:0:0:
294,275,78339,6,0,L|205:258,1,90,4|8,1:0|0:0,0:0:0:0:
127,303,78971,2,0,L|62:323,2,67.5,4|0|2,0:0|0:0|0:0,0:0:0:0:
111,260,79602,2,0,P|94:221|100:168,1,90,4|4,0:3|0:3,0:0:0:0:
72,87,80234,2,0,L|26:96,2,45,4|2|8,3:0|3:2|0:0,0:0:0:0:
142,30,80865,6,0,P|159:69|153:122,1,90,4|8,1:0|0:0,0:0:0:0:
206,189,81497,2,0,L|296:213,1,90,0|8,0:0|0:0,0:0:0:0:
345,138,82129,2,0,L|255:114,2,90,4|0|0,0:0|0:0|1:3,0:0:0:0:
418,86,83076,1,8,0:0:0:0:
466,161,83392,6,0,P|482:193|472:256,1,90,4|8,1:0|0:0,0:0:0:0:
391,217,84023,2,0,L|293:235,1,90,0|8,0:3|0:0,0:0:0:0:
214,214,84655,2,0,L|149:192,2,67.5,4|2|2,0:0|0:0|0:0,0:0:0:0:
220,258,85287,2,0,P|230:314|216:352,1,90,0|4,1:0|0:0,0:0:0:0:
141,301,85918,6,0,P|90:310|46:300,1,90,4|2,1:0|0:0,0:0:0:0:
74,215,86550,2,0,L|31:133,1,90,2|8,0:0|0:0,0:0:0:0:
77,57,87181,5,4,1:0:0:0:
77,57,87497,1,0,0:0:0:0:
158,96,87813,2,0,L|265:75,1,90,4|2,0:0|0:0,0:0:0:0:
298,152,88444,6,0,P|337:84|318:24,2,135,4|4|4,0:0|0:3|0:0,0:0:0:0:
209,171,89708,2,0,L|114:180,1,90,4|0,0:3|0:0,0:0:0:0:
84,262,90339,2,0,L|179:253,1,90,2|2,0:0|0:0,0:0:0:0:
210,280,90813,2,0,P|260:303|309:293,1,90,0|2,0:0|0:0,0:0:0:0:
333,278,91287,1,0,0:0:0:0:
256,192,91444,12,4,93497,0:3:0:0:
352,112,93971,6,0,P|384:176|369:247,2,135,4|4|4,0:3|0:3|0:3,0:0:0:0:
312,90,95076,1,8,0:3:0:0:
256,161,95392,2,0,L|256:208,3,45,0|0|0|0,1:0|1:0|1:0|1:0,0:0:0:0:
