osu file format v12

[General]
AudioFilename: Vitalization.mp3
AudioLeadIn: 1000
PreviewTime: 70602
Countdown: 0
SampleSet: Normal
StackLeniency: 0.7
Mode: 1
LetterboxInBreaks: 0
WidescreenStoryboard: 0

[Editor]
DistanceSpacing: 0.1
BeatDivisor: 4
GridSize: 32

[Metadata]
Title:Vitalization (TV Size)
TitleUnicode:Vitalization (TV Size)
Artist:Mizuki Nana
ArtistUnicode:水樹奈々
Creator:Flower
Version:Muzukashii
Source:Senki Zesshou Symphogear G
Tags:Opening Kazanari Tsubasa 戦姫绝唱シンフォギアG
BeatmapID:279372
BeatmapSetID:102803

[Difficulty]
HPDrainRate:5
CircleSize:5
OverallDifficulty:5
ApproachRate:5
SliderMultiplier:1.4
SliderTickRate:1

[Events]
//Background and Video events
0,0,"bg1234.jpg",0,0
Video,0,"feichang op.flv"
//Break Periods
//Storyboard Layer 0 (Background)
//Storyboard Layer 1 (Fail)
//Storyboard Layer 2 (Pass)
//Storyboard Layer 3 (Foreground)
//Storyboard Sound Samples
//Background Colour Transformations
3,100,163,162,255

[TimingPoints]
1287,315.789473684211,4,1,0,75,1,0
70760,-100,4,1,0,75,0,1
93497,-100,4,1,0,75,0,0

[Colours]
Combo1 : 196,142,255
Combo2 : 0,104,244
Combo3 : 0,191,72
Combo4 : 255,138,32

[HitObjects]
256,192,1287,1,0,0:0:0:0:
256,192,1444,1,0,0:0:0:0:
256,192,1602,1,8,0:0:0:0:
256,192,1918,1,8,0:0:0:0:
256,192,2076,1,0,0:0:0:0:
256,192,2234,1,8,0:0:0:0:
256,192,2550,1,0,0:0:0:0:
256,192,2787,1,0,0:0:0:0:
256,192,3023,1,0,0:0:0:0:
256,192,3181,1,0,0:0:0:0:
256,192,3497,1,8,0:0:0:0:
256,192,3813,1,4,0:0:0:0:
256,192,4444,1,0,0:0:0:0:
256,192,5076,1,8,0:0:0:0:
256,192,6339,1,0,0:0:0:0:
256,192,6813,1,0,0:0:0:0:
256,192,7129,1,8,0:0:0:0:
256,192,7602,1,0,0:0:0:0:
256,192,8076,1,0,0:0:0:0:
256,192,8550,1,8,0:0:0:0:
256,192,8865,1,4,0:0:0:0:
256,192,9497,1,8,0:0:0:0:
256,192,9813,1,0,0:0:0:0:
256,192,10129,1,0,0:0:0:0:
256,192,10444,1,0,0:0:0:0:
256,192,10760,1,0,0:0:0:0:
256,192,10918,1,8,0:0:0:0:
256,192,11076,1,4,0:0:0:0:
256,192,11392,1,4,0:0:0:0:
256,192,11708,1,0,0:0:0:0:
256,192,12023,1,8,0:0:0:0:
256,192,12260,1,8,0:0:0:0:
256,192,12497,1,8,0:0:0:0:
256,192,12655,1,4,0:0:0:0:
256,192,13444,1,0,0:0:0:0:
256,192,13602,1,8,0:0:0:0:
256,192,13760,1,8,0:0:0:0:
256,192,13918,1,0,0:0:0:0:
256,192,13997,1,0,0:0:0:0:
256,192,14076,1,0,0:0:0:0:
256,192,14234,1,8,0:0:0:0:
256,192,14550,1,0,0:0:0:0:
256,192,14708,1,0,0:0:0:0:
256,192,14865,1,8,0:0:0:0:
256,192,15181,1,0,0:0:0:0:
256,192,15339,1,0,0:0:0:0:
256,192,15497,1,8,0:0:0:0:
256,192,15655,1,0,0:0:0:0:
256,192,15813,1,8,0:0:0:0:
256,192,16129,1,8,0:0:0:0:
256,192,16444,1,0,0:0:0:0:
256,192,16760,1,8,0:0:0:0:
256,192,16918,1,0,0:0:0:0:
256,192,16997,1,0,0:0:0:0:
256,192,17076,1,0,0:0:0:0:
256,192,17234,1,0,0:0:0:0:
256,192,17392,1,8,0:0:0:0:
256,192,17708,1,0,0:0:0:0:
256,192,17865,1,8,0:0:0:0:
256,192,18023,1,0,0:0:0:0:
256,192,18181,1,0,0:0:0:0:
256,192,18339,1,8,0:0:0:0:
256,192,18655,1,8,0:0:0:0:
256,192,18971,1,4,0:0:0:0:
256,192,19444,1,4,0:0:0:0:
256,192,19918,1,4,0:0:0:0:
256,192,20234,1,4,0:0:0:0:
256,192,20550,1,8,0:0:0:0:
256,192,20865,1,8,0:0:0:0:
256,192,21102,1,8,0:0:0:0:
256,192,21339,1,8,0:0:0:0:
256,192,21497,1,0,0:0:0:0:
256,192,21813,1,8,0:0:0:0:
256,192,21971,1,8,0:0:0:0:
256,192,22129,1,0,0:0:0:0:
256,192,22287,1,0,0:0:0:0:
256,192,22444,1,0,0:0:0:0:
256,192,22602,1,8,0:0:0:0:
256,192,22918,1,0,0:0:0:0:
256,192,23076,1,8,0:0:0:0:
256,192,23234,1,8,0:0:0:0:
256,192,23392,1,0,0:0:0:0:
256,192,23550,1,8,0:0:0:0:
256,192,23708,1,0,0:0:0:0:
256,192,23865,1,8,0:0:0:0:
256,192,24023,1,0,0:0:0:0:
256,192,24339,1,0,0:0:0:0:
256,192,24497,1,8,0:0:0:0:
256,192,24655,1,0,0:0:0:0:
256,192,24734,1,0,0:0:0:0:
256,192,24813,1,0,0:0:0:0:
256,192,24971,1,0,0:0:0:0:
256,192,25129,1,8,0:0:0:0:
256,192,25444,1,0,0:0:0:0:
256,192,25602,1,8,0:0:0:0:
256,192,25760,1,8,0:0:0:0:
256,192,25918,1,0,0:0:0:0:
256,192,26076,1,8,0:0:0:0:
256,192,26234,1,0,0:0:0:0:
256,192,26392,1,8,0:0:0:0:
256,192,26550,12,0,30023,0:0:0:0:
256,192,30339,5,0,0:0:0:0:
256,192,30497,1,0,0:0:0:0:
256,192,30655,1,8,0:0:0:0:
256,192,30813,1,8,0:0:0:0:
256,192,30971,1,0,0:0:0:0:
256,192,31287,1,0,0:0:0:0:
256,192,31444,1,8,0:0:0:0:
256,192,31760,1,8,0:0:0:0:
256,192,32076,1,8,0:0:0:0:
256,192,32392,1,8,0:0:0:0:
256,192,32550,1,0,0:0:0:0:
256,192,32708,1,0,0:0:0:0:
256,192,32865,1,0,0:0:0:0:
256,192,33023,1,8,0:0:0:0:
256,192,33339,1,8,0:0:0:0:
256,192,33655,1,8,0:0:0:0:
256,192,33813,1,0,0:0:0:0:
256,192,33971,1,0,0:0:0:0:
256,192,34129,1,0,0:0:0:0:
256,192,34287,1,8,0:0:0:0:
256,192,34602,1,8,0:0:0:0:
256,192,34918,1,8,0:0:0:0:
256,192,35076,1,0,0:0:0:0:
256,192,35234,1,0,0:0:0:0:
256,192,35392,1,0,0:0:0:0:
256,192,35550,1,8,0:0:0:0:
256,192,35865,1,8,0:0:0:0:
256,192,36181,1,8,0:0:0:0:
256,192,36339,1,8,0:0:0:0:
256,192,36497,1,8,0:0:0:0:
256,192,36655,1,4,0:0:0:0:
256,192,36971,1,8,0:0:0:0:
256,192,37129,1,8,0:0:0:0:
256,192,37287,1,0,0:0:0:0:
256,192,37602,1,8,0:0:0:0:
256,192,37760,1,0,0:0:0:0:
256,192,38076,1,0,0:0:0:0:
256,192,38234,1,8,0:0:0:0:
256,192,38550,1,0,0:0:0:0:
256,192,38629,1,0,0:0:0:0:
256,192,38708,1,0,0:0:0:0:
256,192,38865,1,8,0:0:0:0:
256,192,39023,1,0,0:0:0:0:
256,192,39339,1,0,0:0:0:0:
256,192,39655,1,0,0:0:0:0:
256,192,39813,1,8,0:0:0:0:
256,192,40129,1,8,0:0:0:0:
256,192,40444,1,0,0:0:0:0:
256,192,40681,1,0,0:0:0:0:
256,192,40918,1,0,0:0:0:0:
256,192,41076,1,0,0:0:0:0:
256,192,41392,1,8,0:0:0:0:
256,192,41550,1,0,0:0:0:0:
256,192,41865,1,0,0:0:0:0:
256,192,42023,1,8,0:0:0:0:
256,192,42339,1,0,0:0:0:0:
256,192,42497,1,0,0:0:0:0:
256,192,42813,1,0,0:0:0:0:
256,192,43129,1,0,0:0:0:0:
256,192,43287,1,0,0:0:0:0:
256,192,43602,1,8,0:0:0:0:
256,192,43918,1,8,0:0:0:0:
256,192,44234,1,4,0:0:0:0:
256,192,44392,1,4,0:0:0:0:
256,192,44708,1,12,0:0:0:0:
256,192,44865,1,12,0:0:0:0:
256,192,45181,1,4,0:0:0:0:
256,192,45339,1,4,0:0:0:0:
256,192,45655,1,12,0:0:0:0:
256,192,45813,1,12,0:0:0:0:
256,192,46129,1,12,0:0:0:0:
256,192,46365,1,12,0:0:0:0:
256,192,46602,1,12,0:0:0:0:
256,192,47076,1,0,0:0:0:0:
256,192,47392,1,8,0:0:0:0:
256,192,47708,1,0,0:0:0:0:
256,192,47865,1,8,0:0:0:0:
256,192,48181,1,8,0:0:0:0:
256,192,48339,1,8,0:0:0:0:
256,192,48655,1,0,0:0:0:0:
256,192,48734,1,0,0:0:0:0:
256,192,48813,1,0,0:0:0:0:
256,192,48971,1,0,0:0:0:0:
256,192,49129,1,0,0:0:0:0:
256,192,49444,1,0,0:0:0:0:
256,192,49602,1,8,0:0:0:0:
256,192,49918,1,0,0:0:0:0:
256,192,50234,1,0,0:0:0:0:
256,192,50550,1,8,0:0:0:0:
256,192,50787,1,8,0:0:0:0:
256,192,51023,1,8,0:0:0:0:
256,192,51181,1,0,0:0:0:0:
256,192,51260,1,0,0:0:0:0:
256,192,51339,1,0,0:0:0:0:
256,192,51497,1,0,0:0:0:0:
256,192,51655,1,4,0:0:0:0:
256,192,52129,1,0,0:0:0:0:
256,192,52444,1,8,0:0:0:0:
256,192,52681,1,8,0:0:0:0:
256,192,52918,1,4,0:0:0:0:
256,192,53234,1,0,0:0:0:0:
256,192,53392,1,0,0:0:0:0:
256,192,53550,1,8,0:0:0:0:
256,192,53708,1,0,0:0:0:0:
256,192,53865,1,8,0:0:0:0:
256,192,54023,1,0,0:0:0:0:
256,192,54181,1,8,0:0:0:0:
256,192,54497,1,0,0:0:0:0:
256,192,54655,1,8,0:0:0:0:
256,192,54813,1,8,0:0:0:0:
256,192,54971,1,0,0:0:0:0:
256,192,55129,1,8,0:0:0:0:
256,192,55444,1,0,0:0:0:0:
256,192,55602,1,0,0:0:0:0:
256,192,55813,1,0,0:0:0:0:
256,192,56023,1,0,0:0:0:0:
256,192,56234,1,0,0:0:0:0:
256,192,56444,1,0,0:0:0:0:
256,192,56655,1,0,0:0:0:0:
256,192,56865,2,0,L|32:0,1,280
256,192,58129,1,8,0:0:0:0:
256,192,58287,1,0,0:0:0:0:
256,192,58444,1,0,0:0:0:0:
256,192,58602,1,0,0:0:0:0:
256,192,58760,1,8,0:0:0:0:
256,192,59076,1,8,0:0:0:0:
256,192,59392,1,0,0:0:0:0:
256,192,59550,1,0,0:0:0:0:
256,192,59708,1,8,0:0:0:0:
256,192,59865,1,0,0:0:0:0:
256,192,60339,1,0,0:0:0:0:
256,192,60655,1,8,0:0:0:0:
256,192,60892,1,8,0:0:0:0:
256,192,61129,1,8,0:0:0:0:
256,192,61287,1,0,0:0:0:0:
256,192,61444,1,0,0:0:0:0:
256,192,61602,1,8,0:0:0:0:
256,192,61760,1,0,0:0:0:0:
256,192,61918,2,0,L|512:64,1,280
256,192,63181,1,8,0:0:0:0:
256,192,63339,1,0,0:0:0:0:
256,192,63497,1,0,0:0:0:0:
256,192,63655,1,0,0:0:0:0:
256,192,63813,1,8,0:0:0:0:
256,192,64129,1,8,0:0:0:0:
256,192,64444,1,0,0:0:0:0:
256,192,64602,1,0,0:0:0:0:
256,192,64760,1,8,0:0:0:0:
256,192,64918,1,0,0:0:0:0:
256,160,65550,1,0,0:0:0:0:
256,160,65708,1,12,0:0:0:0:
256,160,65944,1,0,0:0:0:0:
256,160,66181,1,0,0:0:0:0:
256,160,66339,1,8,0:0:0:0:
256,160,66655,1,8,0:0:0:0:
256,160,66971,1,0,0:0:0:0:
256,160,67208,1,8,0:0:0:0:
256,160,67444,1,8,0:0:0:0:
256,160,67602,1,0,0:0:0:0:
256,160,67918,1,0,0:0:0:0:
256,160,68076,1,8,0:0:0:0:
256,160,68234,1,0,0:0:0:0:
256,160,68392,1,0,0:0:0:0:
256,160,68550,1,0,0:0:0:0:
256,160,68708,1,0,0:0:0:0:
256,160,68865,1,8,0:0:0:0:
256,160,69023,1,8,0:0:0:0:
256,160,69181,1,8,0:0:0:0:
256,160,69339,1,8,0:0:0:0:
256,192,70760,1,4,0:0:0:0:
256,192,71076,1,8,0:0:0:0:
256,192,71234,1,0,0:0:0:0:
256,192,71313,1,0,0:0:0:0:
256,192,71392,1,0,0:0:0:0:
256,192,71550,1,0,0:0:0:0:
256,192,71708,1,8,0:0:0:0:
256,192,72023,1,0,0:0:0:0:
256,192,72181,1,0,0:0:0:0:
256,192,72339,1,8,0:0:0:0:
256,192,72497,1,8,0:0:0:0:
256,192,72655,1,0,0:0:0:0:
256,192,72813,1,8,0:0:0:0:
256,192,72971,1,0,0:0:0:0:
256,192,73050,1,0,0:0:0:0:
256,192,73129,1,0,0:0:0:0:
256,192,73287,1,0,0:0:0:0:
256,192,73602,1,8,0:0:0:0:
256,192,73760,1,0,0:0:0:0:
256,192,73839,1,0,0:0:0:0:
256,192,73918,1,0,0:0:0:0:
256,192,74076,1,8,0:0:0:0:
256,192,74234,1,8,0:0:0:0:
256,192,74550,1,0,0:0:0:0:
256,192,74708,1,0,0:0:0:0:
256,192,74865,1,8,0:0:0:0:
256,192,75023,1,0,0:0:0:0:
256,192,75102,1,0,0:0:0:0:
256,192,75181,1,0,0:0:0:0:
256,192,75339,1,8,0:0:0:0:
256,192,75497,1,0,0:0:0:0:
256,192,75655,1,8,0:0:0:0:
256,192,75813,1,0,0:0:0:0:
256,192,76050,1,0,0:0:0:0:
256,160,76287,1,0,0:0:0:0:
256,160,76444,1,0,0:0:0:0:
256,160,76760,1,8,0:0:0:0:
256,192,76918,1,8,0:0:0:0:
256,192,77076,1,0,0:0:0:0:
256,192,77313,1,0,0:0:0:0:
256,192,77550,1,0,0:0:0:0:
256,192,77708,1,0,0:0:0:0:
256,192,77865,1,8,0:0:0:0:
256,192,78023,1,0,0:0:0:0:
256,192,78181,1,8,0:0:0:0:
256,192,78339,1,4,0:0:0:0:
256,192,78655,1,4,0:0:0:0:
256,192,78971,1,12,0:0:0:0:
256,192,79208,1,12,0:0:0:0:
256,192,79444,1,8,0:0:0:0:
256,192,79602,1,0,0:0:0:0:
256,192,79760,1,0,0:0:0:0:
256,192,79918,1,0,0:0:0:0:
256,192,80076,1,0,0:0:0:0:
256,192,80234,1,8,0:0:0:0:
256,192,80392,1,8,0:0:0:0:
256,192,80550,1,8,0:0:0:0:
256,192,80708,1,8,0:0:0:0:
256,192,80865,1,4,0:0:0:0:
256,192,81181,1,8,0:0:0:0:
256,192,81339,1,0,0:0:0:0:
256,192,81418,1,0,0:0:0:0:
256,192,81497,1,0,0:0:0:0:
256,192,81655,1,0,0:0:0:0:
256,192,81813,1,8,0:0:0:0:
256,192,82129,1,0,0:0:0:0:
256,192,82287,1,0,0:0:0:0:
256,192,82444,1,8,0:0:0:0:
256,192,82602,1,8,0:0:0:0:
256,192,82760,1,0,0:0:0:0:
256,192,82918,1,8,0:0:0:0:
256,192,83076,1,0,0:0:0:0:
256,192,83234,1,0,0:0:0:0:
256,192,83392,1,0,0:0:0:0:
256,192,83708,1,8,0:0:0:0:
256,192,83865,1,0,0:0:0:0:
256,192,83944,1,0,0:0:0:0:
256,192,84023,1,0,0:0:0:0:
256,192,84181,1,8,0:0:0:0:
256,192,84339,1,8,0:0:0:0:
256,192,84655,1,0,0:0:0:0:
256,192,84813,1,0,0:0:0:0:
256,192,84971,1,8,0:0:0:0:
256,192,85129,1,0,0:0:0:0:
256,192,85208,1,0,0:0:0:0:
256,192,85287,1,0,0:0:0:0:
256,192,85444,1,8,0:0:0:0:
256,192,85602,1,0,0:0:0:0:
256,192,85760,1,8,0:0:0:0:
256,192,85918,1,0,0:0:0:0:
256,192,86155,1,0,0:0:0:0:
256,160,86392,1,0,0:0:0:0:
256,160,86550,1,0,0:0:0:0:
256,160,86865,1,8,0:0:0:0:
256,160,87023,1,0,0:0:0:0:
256,192,87181,1,0,0:0:0:0:
256,192,87418,1,0,0:0:0:0:
256,192,87655,1,0,0:0:0:0:
256,192,87813,1,12,0:0:0:0:
256,192,88129,1,12,0:0:0:0:
256,192,88444,1,4,0:0:0:0:
224,192,88918,1,4,0:0:0:0:
224,192,89392,1,4,0:0:0:0:
224,192,89708,1,12,0:0:0:0:
224,192,90023,1,0,0:0:0:0:
224,192,90181,1,0,0:0:0:0:
224,192,90497,1,0,0:0:0:0:
224,192,90655,1,0,0:0:0:0:
224,192,90813,1,0,0:0:0:0:
224,192,91129,1,8,0:0:0:0:
256,192,91287,12,0,93181,0:0:0:0:
256,192,93497,5,4,0:0:0:0:
256,192,93655,1,4,0:0:0:0:
256,192,93971,1,4,0:0:0:0:
256,192,94129,1,4,0:0:0:0:
256,192,94444,1,4,0:0:0:0:
256,192,94602,1,4,0:0:0:0:
256,192,94918,1,4,0:0:0:0:
256,192,95076,1,4,0:0:0:0:
256,192,95392,1,0,0:0:0:0:
256,192,95550,1,0,0:0:0:0:
256,192,95708,1,0,0:0:0:0:
256,192,95865,1,0,0:0:0:0:
