osu file format v12

[General]
AudioFilename: Vitalization.mp3
AudioLeadIn: 1000
PreviewTime: 70602
Countdown: 0
SampleSet: Soft
StackLeniency: 0.7
Mode: 0
LetterboxInBreaks: 0
WidescreenStoryboard: 0

[Editor]
DistanceSpacing: 1.3
BeatDivisor: 4
GridSize: 8

[Metadata]
Title:Vitalization (TV Size)
TitleUnicode:Vitalization (TV Size)
Artist:Mizuki Nana
ArtistUnicode:水樹奈々
Creator:Flower
Version:Hard
Source:Senki Zesshou Symphogear G
Tags:Opening Kazanari Tsubasa 戦姫绝唱シンフォギアG
BeatmapID:276395
BeatmapSetID:102803

[Difficulty]
HPDrainRate:5
CircleSize:4
OverallDifficulty:6
ApproachRate:7
SliderMultiplier:1.2
SliderTickRate:1

[Events]
//Background and Video events
0,0,"bg1234.jpg",0,0
Video,0,"feichang op.flv"
//Break Periods
//Storyboard Layer 0 (Background)
//Storyboard Layer 1 (Fail)
//Storyboard Layer 2 (Pass)
//Storyboard Layer 3 (Foreground)
//Storyboard Sound Samples
//Background Colour Transformations
3,100,163,162,255

[TimingPoints]
1287,315.789473684211,4,2,1,65,1,0
3813,-100,4,2,1,70,0,0
13918,-100,4,2,1,75,0,0
26550,-100,4,2,1,60,0,0
31602,-100,4,2,1,70,0,0
36655,-100,4,2,1,65,0,0
70760,-100,4,2,1,75,0,1
93497,-100,4,2,1,70,0,0
95392,-100,4,2,1,50,0,0

[Colours]
Combo1 : 196,142,255
Combo2 : 0,104,244
Combo3 : 0,191,72
Combo4 : 255,138,32

[HitObjects]
71,295,1287,2,0,P|111:310|128:312,1,60,4|0,1:0|1:0,0:0:0:0:
199,346,1602,2,0,P|236:335|257:333,1,60,8|0,1:2|0:0,0:0:0:0:
333,352,1918,2,0,P|386:334|415:266,1,120,0|4,0:0|0:3,0:0:0:0:
351,136,2550,6,0,P|341:85|359:42,2,90,2|2|0,0:0|0:0|0:0,0:0:0:0:
417,95,3181,2,0,L|284:86,1,120,4|8,0:0|0:0,0:0:0:0:
237,36,3655,1,4,0:0:0:0:
164,64,3813,6,0,L|40:80,1,120,4|2,1:0|0:0,0:0:0:0:
2,145,4287,1,0,0:0:0:0:
2,145,4444,2,0,L|127:168,1,120,0|2,0:0|0:0,0:0:0:0:
196,147,4918,1,0,0:0:0:0:
263,186,5076,2,0,P|306:183|373:136,2,120,2|0|2,0:0|0:0|0:0,0:0:0:0:
112,226,6023,5,2,0:0:0:0:
130,301,6181,1,0,0:0:0:0:
191,349,6339,2,0,P|239:366|309:348,1,120,4|2,1:0|0:0,0:0:0:0:
369,306,6813,2,0,L|493:320,2,120,0|2|0,0:0|0:0|0:0,0:0:0:0:
309,255,7602,6,0,P|280:194|294:140,1,120,0|2,1:0|0:0,0:0:0:0:
362,112,8076,1,0,0:0:0:0:
359,189,8234,2,0,L|220:179,1,120,0|2,0:0|0:0,0:0:0:0:
191,118,8708,1,0,0:0:0:0:
138,61,8865,6,0,P|90:51|24:85,1,120,4|2,1:0|0:0,0:0:0:0:
0,154,9339,1,0,0:0:0:0:
26,227,9497,2,0,L|8:288,1,60,0|2,0:0|0:0,0:0:0:0:
87,297,9813,2,0,L|105:360,1,60,2|0,0:0|0:0,0:0:0:0:
176,325,10129,2,0,P|231:350|295:346,2,120,2|2|0,0:0|0:0|0:0,0:0:0:0:
155,170,11076,6,0,L|201:128,1,60,4|2,1:0|0:0,0:0:0:0:
272,158,11392,2,0,P|326:173|401:147,1,120,4|2,1:0|0:0,0:0:0:0:
480,32,12023,2,0,L|512:121,2,90,0|0|0,1:0|1:0|1:0,0:0:0:0:
402,42,12655,6,0,P|363:31|338:32,1,60,4|0,0:0|0:0,0:0:0:0:
274,67,12971,2,0,L|208:78,1,60,2|0,0:0|0:0,0:0:0:0:
137,61,13287,1,0,0:0:0:0:
138,138,13444,2,0,P|176:169|185:185,2,60,2|2|0,0:0|0:0|0:0,0:0:0:0:
59,138,13918,6,0,P|28:166|14:247,1,120,4|8,1:0|0:0,0:0:0:0:
33,315,14392,1,0,0:0:0:0:
108,336,14550,2,0,L|234:329,1,120,2|8,0:0|0:0,0:0:0:0:
296,366,15023,1,2,0:0:0:0:
370,344,15181,6,0,L|438:330,1,60,0|2,0:0|0:0,0:0:0:0:
478,271,15497,2,0,P|455:241|447:217,1,60,8|0,0:0|0:0,0:0:0:0:
486,152,15813,2,0,L|503:82,1,60,2|8,0:0|0:0,0:0:0:0:
453,30,16129,1,4,0:3:0:0:
453,30,16287,1,0,0:0:0:0:
390,76,16444,6,0,P|344:95|274:90,1,120,4|8,0:3|0:0,0:0:0:0:
210,45,16918,2,0,L|92:70,2,120,4|0|2,0:3|0:0|0:0,0:0:0:0:
208,124,17708,6,0,P|204:161|190:191,1,60,0|2,0:0|0:0,0:0:0:0:
147,243,18023,2,0,P|108:256|83:254,1,60,8|0,0:0|0:0,0:0:0:0:
27,206,18339,2,0,L|13:138,1,60,8|0,0:0|0:0,0:0:0:0:
88,121,18655,2,0,L|102:189,1,60,2|0,0:0|0:0,0:0:0:0:
147,243,18971,6,0,P|190:266|265:261,1,120,4|8,1:0|0:0,0:0:0:0:
313,206,19444,1,2,0:0:0:0:
368,260,19602,2,0,L|432:269,1,60,0|0,0:0|0:0,0:0:0:0:
489,220,19918,2,0,P|471:167|471:148,1,60,8|0,0:0|0:0,0:0:0:0:
494,88,20234,1,4,1:0:0:0:
342,125,20550,6,0,L|272:129,1,60,8|0,0:0|0:0,0:0:0:0:
209,99,20865,2,0,L|121:123,2,90,0|2|2,0:0|0:0|0:0,0:0:0:0:
213,177,21497,6,0,P|244:221|226:299,1,120,4|8,1:0|0:0,0:0:0:0:
169,243,21971,1,2,0:0:0:0:
91,238,22129,2,0,L|26:253,1,60,0|2,0:0|0:0,0:0:0:0:
28,329,22444,2,0,L|93:314,1,60,8|2,0:0|0:0,0:0:0:0:
160,340,22760,6,0,P|190:355|230:353,1,60,0|2,0:0|0:0,0:0:0:0:
292,336,23076,2,0,L|364:328,1,60,8|2,0:0|0:0,0:0:0:0:
429,318,23392,2,0,P|459:353|488:366,2,60,2|0|8,0:0|0:0|0:0,0:0:0:0:
457,245,23865,1,2,0:0:0:0:
429,171,24023,6,0,P|388:140|313:135,1,120,4|8,1:0|0:0,0:0:0:0:
246,158,24497,1,2,0:0:0:0:
184,110,24655,2,0,L|162:44,1,60,0|2,0:0|0:0,0:0:0:0:
87,65,24971,2,0,L|109:131,1,60,8|2,0:0|0:0,0:0:0:0:
60,186,25287,6,0,P|99:214|111:236,1,60,4|2,1:0|0:0,0:0:0:0:
100,301,25602,2,0,L|166:289,1,60,10|2,0:0|0:0,0:0:0:0:
224,247,25918,2,0,L|289:278,1,60,8|4,0:0|0:0,0:0:0:0:
352,246,26234,1,0,1:0:0:0:
352,246,26392,1,2,0:0:0:0:
256,192,26550,12,4,30023,0:3:0:0:
336,273,30339,6,0,L|405:295,2,60,4|0|2,0:0|0:0|0:0,0:0:0:0:
279,327,30813,1,0,0:0:0:0:
201,321,30971,2,0,L|77:336,1,120,2|4,0:0|0:3,0:0:0:0:
19,288,31444,1,2,0:0:0:0:
90,256,31602,6,0,L|214:241,1,120,4|8,1:0|0:0,0:0:0:0:
271,194,32076,1,0,0:0:0:0:
198,165,32234,2,0,P|171:131|165:110,1,60,4|0,0:3|0:0,0:0:0:0:
213,52,32550,2,0,P|240:86|246:107,1,60,4|0,0:0|0:0,0:0:0:0:
317,128,32865,6,0,P|357:150|441:144,1,120,4|8,0:3|0:0,0:0:0:0:
490,99,33339,1,0,0:0:0:0:
504,175,33497,2,0,L|491:245,1,60,2|0,0:0|0:0,0:0:0:0:
414,236,33813,2,0,P|416:266|440:295,1,60,4|0,0:0|0:0,0:0:0:0:
485,348,34129,6,0,L|365:329,1,120,4|8,0:3|0:0,0:0:0:0:
294,358,34602,1,0,0:0:0:0:
217,343,34760,2,0,L|152:357,1,60,4|0,0:3|0:0,0:0:0:0:
122,285,35076,2,0,L|187:271,1,60,4|0,0:0|0:0,0:0:0:0:
239,219,35392,6,0,P|265:175|266:153,1,60,4|0,0:3|0:0,0:0:0:0:
242,92,35708,1,8,0:0:0:0:
242,92,35865,1,0,0:0:0:0:
163,92,36023,2,0,L|86:106,1,60,8|0,0:0|0:0,0:0:0:0:
31,73,36339,1,4,0:0:0:0:
31,73,36497,1,0,0:0:0:0:
14,149,36655,6,0,P|52:163|89:234,1,120,4|0,1:0|0:0,0:0:0:0:
11,232,37129,1,0,0:0:0:0:
89,229,37287,2,0,L|211:253,1,120,8|0,0:0|0:0,0:0:0:0:
277,217,37760,1,2,0:0:0:0:
342,259,37918,1,0,0:0:0:0:
415,234,38076,6,0,L|480:226,2,60,0|8|0,0:0|0:0|0:0,0:0:0:0:
400,156,38550,2,0,P|378:119|375:92,1,60,2|0,0:0|0:0,0:0:0:0:
431,47,38865,2,0,P|452:83|455:110,1,60,2|0,0:0|0:0,0:0:0:0:
400,156,39181,6,0,L|333:170,1,60,4|2,0:0|0:0,0:0:0:0:
273,128,39497,1,8,0:0:0:0:
211,79,39655,2,0,P|178:78|141:93,2,60,0|2|0,0:0|0:0|0:0,0:0:0:0:
191,155,40129,2,0,L|174:223,1,60,8|0,0:0|0:0,0:0:0:0:
247,245,40444,6,0,P|301:243|342:261,2,90,2|2|2,0:0|0:0|0:0,0:0:0:0:
185,293,41076,1,0,0:0:0:0:
185,293,41234,1,2,0:0:0:0:
107,286,41392,2,0,P|81:276|49:248,1,60,8|2,0:0|0:0,0:0:0:0:
10,192,41708,1,4,0:0:0:0:
105,69,42023,6,0,L|248:60,1,120,8|2,0:0|0:0,0:0:0:0:
291,102,42497,1,0,0:0:0:0:
361,69,42655,2,0,P|395:93|425:101,1,60,8|2,0:0|0:0,0:0:0:0:
489,110,42971,6,0,L|501:171,1,60,4|2,0:3|0:0,0:0:0:0:
453,231,43287,1,4,0:3:0:0:
404,291,43444,2,0,P|394:321|396:360,2,60,0|0|2,0:0|0:0|0:0,0:0:0:0:
345,238,43918,2,0,L|282:215,1,60,8|0,0:0|0:0,0:0:0:0:
212,235,44234,5,4,0:3:0:0:
212,235,44392,1,4,0:0:0:0:
345,154,44708,2,0,L|282:131,1,60,4|4,0:3|0:0,0:0:0:0:
133,145,45181,5,4,0:3:0:0:
133,145,45339,1,4,0:0:0:0:
266,64,45655,2,0,L|203:41,1,60,4|4,0:3|0:0,0:0:0:0:
134,65,45971,1,8,0:3:0:0:
66,103,46129,6,0,P|55:155|73:195,2,90,2|2|8,0:0|0:0|0:0,0:0:0:0:
133,145,46760,1,4,0:3:0:0:
209,160,46918,2,0,P|254:149|272:138,2,60,0|2|0,3:0|0:0|0:0,0:0:0:0:
164,224,47392,6,0,P|193:258|189:337,1,120,4|8,0:0|0:0,0:0:0:0:
123,293,47865,2,0,L|250:273,1,120,2|0,0:0|0:0,0:0:0:0:
297,219,48339,1,8,0:0:0:0:
365,255,48497,1,2,0:0:0:0:
436,223,48655,6,0,P|463:179|466:162,1,60,2|0,0:0|0:0,0:0:0:0:
443,96,48971,1,8,0:0:0:0:
443,96,49129,1,2,0:0:0:0:
368,118,49287,6,0,L|226:134,1,120,4|8,0:0|0:0,0:0:0:0:
190,80,49760,1,2,0:0:0:0:
114,101,49918,2,0,P|51:101|-13:64,2,120,4|8|2,0:3|0:0|0:0,0:0:0:0:
156,166,50708,2,0,P|188:185|203:207,1,60,0|0,0:0|0:0,0:0:0:0:
132,239,51023,1,2,0:0:0:0:
65,279,51181,6,0,L|-2:264,1,60,4|2,0:3|0:0,0:0:0:0:
16,343,51497,2,0,L|83:358,1,60,8|4,0:0|0:0,0:0:0:0:
309,353,52129,6,0,P|314:316|330:291,1,60,2|0,0:0|0:0,0:0:0:0:
402,286,52444,2,0,L|496:276,2,90,4|4|4,0:3|0:3|0:0,0:0:0:0:
365,216,53076,5,4,0:3:0:0:
411,153,53234,2,0,L|478:145,2,60,2|4|2,0:0|0:3|0:0,0:0:0:0:
333,143,53708,1,8,0:3:0:0:
460,52,54023,5,4,0:3:0:0:
382,63,54181,2,0,P|334:85|258:62,1,120,4|4,0:0|0:3,0:0:0:0:
194,52,54655,2,0,L|124:63,1,60,2|8,0:0|0:3,0:0:0:0:
56,53,54971,1,2,0:0:0:0:
69,132,55129,2,0,P|129:168|153:215,1,120,4|2,0:3|0:0,0:0:0:0:
129,285,55602,6,0,L|113:368,2,80
223,240,56234,2,0,L|239:157,2,80,4|2|4,0:3|0:0|0:3,0:0:0:0:
288,320,56865,2,0,B|310:368|359:373|392:367|392:367|408:325|442:308|487:312,1,240,4|4,1:0|0:0,0:0:0:0:
328,40,58129,5,4,0:3:0:0:
258,74,58287,2,0,L|186:84,2,60,2|8|0,0:0|0:3|0:0,0:0:0:0:
324,115,58760,2,0,P|347:139|368:205,2,90,2|2|0,0:0|0:0|0:0,0:0:0:0:
256,154,59392,6,0,L|184:164,1,60,2|0,0:0|0:0,0:0:0:0:
119,148,59708,2,0,P|80:129|67:103,1,60,4|0,0:3|0:0,0:0:0:0:
33,47,60023,1,4,0:0:0:0:
44,202,60339,2,0,L|35:263,1,60,4|0,0:3|0:0,0:0:0:0:
2,332,60655,5,2,0:0:0:0:
109,284,60892,1,4,0:3:0:0:
193,364,61129,1,2,0:0:0:0:
250,311,61287,6,0,L|319:302,1,60,4|8,0:0|0:3,0:0:0:0:
376,343,61602,2,0,L|444:355,1,60,4|2,0:3|0:0,0:0:0:0:
503,315,61918,6,0,P|521:285|385:232,1,240,4|4,0:3|0:0,0:0:0:0:
322,184,62708,2,0,L|252:171,2,60,2|8|2,0:0|0:3|0:0,0:0:0:0:
326,261,63181,1,4,0:3:0:0:
249,275,63339,6,0,P|263:310|287:328,2,60,4|2|0,0:3|0:0|0:0,0:0:0:0:
188,225,63813,2,0,L|66:239,1,120,4|0,0:0|0:0,0:0:0:0:
8,289,64287,1,0,0:0:0:0:
81,314,64444,2,0,L|139:333,1,60,8|0,0:3|0:0,0:0:0:0:
205,373,64760,2,0,L|272:357,1,60,4|2,0:3|0:0,0:0:0:0:
335,327,65076,2,0,L|377:350,6,30,0|0|2|0|0|0|2,3:2|3:2|3:2|3:2|3:2|3:2|3:2,0:0:0:0:
271,281,65708,6,0,P|258:219|274:183,2,90,4|2|8,0:0|0:0|0:3,0:0:0:0:
334,236,66339,2,0,L|464:271,1,120,4|2,0:3|0:0,0:0:0:0:
509,215,66813,1,0,0:0:0:0:
460,154,66971,6,0,P|424:164|387:159,1,60,4|0,0:0|0:0,0:0:0:0:
339,114,67287,2,0,P|307:114|274:104,1,60,0|2,0:0|0:0,0:0:0:0:
213,67,67602,2,0,P|154:73|112:132,1,120,4|4,0:0|0:3,0:0:0:0:
189,143,68076,1,4,0:0:0:0:
244,198,68234,6,0,L|260:265,1,60,4|4,0:3|0:3,0:0:0:0:
180,241,68550,2,0,L|196:308,1,60,4|4,0:3|0:3,0:0:0:0:
252,350,68865,2,0,P|279:359|315:357,1,60,4|4,0:3|0:3,0:0:0:0:
373,311,69181,2,0,L|446:305,1,60,4|4,0:3|1:3,0:0:0:0:
465,153,69655,6,0,L|501:150,2,30,2|2|2,0:0|0:0|0:0,0:0:0:0:
332,69,70129,2,0,L|368:66,2,30,2|2|2,0:0|0:0|0:0,0:0:0:0:
329,225,70602,5,2,0:0:0:0:
329,225,70760,2,0,P|292:252|200:244,1,120,4|8,1:0|0:0,0:0:0:0:
173,190,71234,1,2,0:0:0:0:
141,261,71392,2,0,P|114:240|102:156,1,120,0|8,0:0|0:0,0:0:0:0:
139,91,71865,1,2,0:0:0:0:
213,115,72023,6,0,L|279:107,1,60,2|0,0:0|0:0,0:0:0:0:
342,72,72339,1,8,0:0:0:0:
342,72,72497,1,0,0:0:0:0:
415,97,72655,2,0,P|447:124|458:149,1,60,0|4,1:3|0:0,0:0:0:0:
409,203,72971,2,0,P|392:227|387:269,1,60,8|4,0:0|0:0,0:0:0:0:
437,315,73287,6,0,P|371:333|315:293,1,120,4|8,1:0|0:0,0:0:0:0:
257,278,73760,1,2,0:0:0:0:
189,316,73918,2,0,L|63:324,1,120,0|8,0:0|0:0,0:0:0:0:
4,278,74392,1,2,0:0:0:0:
57,220,74550,6,0,P|71:191|75:163,1,60,2|0,0:0|0:0,0:0:0:0:
36,95,74865,1,8,0:0:0:0:
36,95,75023,1,2,0:0:0:0:
107,62,75181,2,0,L|176:53,1,60,0|8,1:3|0:0,0:0:0:0:
235,90,75497,2,0,L|304:81,1,60,4|2,0:0|0:0,0:0:0:0:
371,97,75813,6,0,P|401:54|442:33,2,90,4|2|2,1:0|0:0|0:0,0:0:0:0:
420,157,76444,2,0,L|442:212,1,60,2|0,0:0|0:0,0:0:0:0:
383,265,76760,2,0,L|361:210,1,60,8|2,0:0|0:0,0:0:0:0:
282,214,77076,6,0,P|235:188|215:142,2,90,4|2|2,0:0|0:0|0:0,0:0:0:0:
307,288,77708,2,0,L|329:343,2,60,0|4|8,1:0|0:0|0:0,0:0:0:0:
299,131,78339,5,4,1:0:0:0:
145,159,78655,1,8,0:0:0:0:
263,57,78971,2,0,P|310:50|348:64,2,90,4|0|2,0:0|0:0|0:0,0:0:0:0:
191,89,79602,6,0,L|121:76,1,60,4|2,0:3|0:0,0:0:0:0:
62,114,79918,2,0,P|40:143|37:177,1,60,4|2,0:3|0:0,0:0:0:0:
86,225,80234,2,0,P|106:249|117:292,1,60,4|4,3:0|3:2,0:0:0:0:
75,343,80550,1,4,3:0:0:0:
75,343,80708,1,4,3:2:0:0:
152,345,80865,6,0,L|278:365,1,120,4|8,1:0|0:0,0:0:0:0:
340,329,81339,1,2,0:0:0:0:
278,280,81497,2,0,P|262:239|278:155,1,120,0|8,0:0|0:0,0:0:0:0:
336,119,81971,1,2,0:0:0:0:
399,164,82129,6,0,L|490:188,2,90,4|2|2,0:0|0:0|0:0,0:0:0:0:
411,86,82760,2,0,P|389:58|359:44,1,60,0|4,1:3|0:0,0:0:0:0:
289,53,83076,2,0,L|220:61,1,60,8|4,0:0|0:0,0:0:0:0:
157,92,83392,6,0,P|172:133|151:212,1,120,4|8,1:0|0:0,0:0:0:0:
86,241,83865,1,2,0:0:0:0:
150,284,84023,2,0,L|276:309,1,120,0|8,0:3|0:0,0:0:0:0:
344,290,84497,1,2,0:0:0:0:
409,332,84655,6,0,P|445:340|486:372,2,90,4|2|2,0:0|0:0|0:0,0:0:0:0:
416,253,85287,2,0,P|442:236|462:211,1,60,0|8,1:0|0:0,0:0:0:0:
408,155,85602,2,0,P|397:124|399:93,1,60,4|0,0:0|0:0,0:0:0:0:
445,34,85918,6,0,P|468:65|472:118,2,90,4|2|2,1:0|0:0|0:0,0:0:0:0:
366,26,86550,2,0,L|242:43,1,120,2|8,0:0|0:0,0:0:0:0:
170,27,87023,1,0,0:0:0:0:
190,102,87181,6,0,P|228:122|253:170,2,90,4|2|0,1:0|0:0|0:0,0:0:0:0:
113,85,87813,2,0,L|42:95,1,60,4|0,0:0|0:0,0:0:0:0:
38,170,88129,2,0,L|109:160,1,60,2|0,0:0|0:0,0:0:0:0:
171,185,88444,5,4,0:0:0:0:
113,237,88602,2,0,P|97:267|97:306,2,60,2|8|4,0:0|0:0|0:3,0:0:0:0:
174,286,89076,6,0,L|245:276,1,60,2|8,0:0|0:0,0:0:0:0:
267,206,89392,2,0,L|338:196,1,60,4|0,0:0|0:0,0:0:0:0:
384,250,89708,6,0,P|437:265|501:228,1,120,4|0,0:3|0:0,0:0:0:0:
433,187,90181,1,4,0:3:0:0:
494,138,90339,2,0,L|470:65,1,60,2|0,0:0|0:0,0:0:0:0:
409,38,90655,1,2,0:0:0:0:
409,38,90813,1,0,0:0:0:0:
275,118,91129,1,2,0:0:0:0:
275,118,91287,1,4,0:3:0:0:
256,192,91444,12,0,93181,0:0:0:0:
180,283,93497,6,0,L|143:222,1,60,4|4,0:3|0:0,0:0:0:0:
213,89,93971,1,4,0:3:0:0:
213,89,94129,1,4,0:0:0:0:
258,237,94444,6,0,L|221:176,1,60,4|4,0:3|0:0,0:0:0:0:
291,43,94918,1,4,0:3:0:0:
291,43,95076,1,4,0:0:0:0:
339,191,95392,6,0,P|387:185|416:194,1,60,0|0,1:0|1:0,0:0:0:0:
431,258,95708,2,0,P|383:264|354:255,1,60,0|0,1:0|1:0,0:0:0:0:
