osu file format v14

[General]
AudioFilename: appdesu.mp3
AudioLeadIn: 0
PreviewTime: 121856
Countdown: 0
SampleSet: Normal
StackLeniency: 0.7
Mode: 0
LetterboxInBreaks: 0
WidescreenStoryboard: 0

[Editor]
Bookmarks: 45928,318343,340908
DistanceSpacing: 2
BeatDivisor: 4
GridSize: 4
TimelineZoom: 5.399997

[Metadata]
Title:VIRGIN CODE
TitleUnicode:VIRGIN CODE
Artist:Mizuki Nana
ArtistUnicode:水樹奈々
Creator:koreapenguin
Version:Shining Gate
Source:
Tags:SUPERNAL LIBERTY Mizuki Nana
BeatmapID:669496
BeatmapSetID:272679

[Difficulty]
HPDrainRate:6
CircleSize:4
OverallDifficulty:8.5
ApproachRate:9.5
SliderMultiplier:1.98
SliderTickRate:1

[Events]
//Background and Video events
0,0,"BG.jpg",0,0
//Break Periods
2,7221,16968
2,145617,151401
2,267881,276213
//Storyboard Layer 0 (Background)
//Storyboard Layer 1 (Fail)
//Storyboard Layer 2 (Pass)
//Storyboard Layer 3 (Foreground)
//Storyboard Sound Samples

[TimingPoints]
17493,283.018867924528,4,3,10,50,1,0
17493,-117.647058823529,4,3,10,50,0,0
17563,-117.647058823529,4,2,1,50,0,0
22021,-117.647058823529,4,3,10,50,0,0
22092,-117.647058823529,4,2,1,30,0,0
25700,-100,4,1,1,30,0,0
25983,-100,4,1,1,40,0,0
26266,-100,4,1,1,50,0,0
26549,-125,4,1,1,60,0,0
30511,-125,4,1,1,40,0,0
30794,-125,4,1,1,50,0,0
31077,-125,4,1,1,60,0,0
35606,-111.111111111111,4,1,1,60,0,0
41266,-100,4,1,1,60,0,0
42398,-76.9230769230769,4,1,1,65,0,0
46785,-100,4,1,1,65,0,0
65889,-200,4,1,1,65,0,0
67587,-133.333333333333,4,1,1,65,0,0
68436,-100,4,1,1,65,0,0
78200,-133.333333333333,4,1,1,65,0,0
78483,-100,4,1,1,65,0,0
108059,-83.3333333333333,4,1,1,65,0,0
108483,-100,4,1,1,65,0,0
109474,-200,4,1,1,65,0,0
110323,-100,4,1,1,65,0,0
117115,-133.333333333333,4,2,1,40,0,0
119379,-100,4,1,1,65,0,0
121926,-133.333333333333,4,2,1,65,0,0
122634,-83.3333333333333,4,1,1,75,0,1
131266,-83.3333333333333,4,1,1,75,0,0
131408,-133.333333333333,4,1,1,75,0,0
131691,-83.3333333333333,4,1,1,75,0,1
140889,-100,4,1,1,65,0,0
145417,-111.111111111111,4,1,1,65,0,0
152209,-100,4,1,1,65,0,0
161266,-76.9230769230769,4,1,1,65,0,0
165794,-100,4,1,1,65,0,0
172445,-133.333333333333,4,1,1,65,0,0
172516,-133.333333333333,4,2,1,50,0,0
174709,-100,4,1,1,65,0,0
192540,-100,4,1,1,50,0,0
192964,-100,4,1,1,65,0,0
206549,-83.3333333333333,4,1,1,65,0,0
207964,-200,4,1,1,65,0,0
208813,-100,4,1,1,65,0,0
217445,-133.333333333333,4,1,1,65,0,0
217728,-83.3333333333333,4,1,1,75,0,1
226360,-133.333333333333,4,1,1,75,0,0
226785,-83.3333333333333,4,1,1,75,0,1
235983,-133.333333333333,4,2,1,50,0,0
238247,-100,4,1,1,70,0,0
267681,-100,4,1,1,30,0,0
276738,-133.333333333333,4,2,1,30,0,0
282681,-200,4,1,1,65,0,0
283530,-100,4,1,1,65,0,0
290323,-125,4,2,1,40,0,0
292587,-100,4,1,1,65,0,0
301502,-83.3333333333333,4,1,1,75,0,1
310134,-133.333333333333,4,1,1,75,0,0
310559,-83.3333333333333,4,1,1,75,0,1
319757,-100,4,1,1,75,0,0
321879,-133.333333333333,4,1,1,70,0,0
323436,-100,4,1,1,70,0,0
324356,-200,4,1,1,40,0,0
326549,-200,4,2,1,40,0,0
331926,300,4,2,1,35,1,0
332526,333.333333333333,4,2,1,30,1,0
332692,312.5,4,2,1,30,1,0
333160,428.571428571429,4,2,1,30,1,0
333374,454.545454545455,4,2,1,30,1,0
333601,588.235294117647,4,2,1,30,1,0
333895,454.545454545455,4,2,1,30,1,0
334349,545.454545454546,4,2,1,30,1,0
334621,400,4,2,1,30,1,0
334821,521.739130434783,4,2,1,30,1,0
335341,571.428571428571,4,2,1,30,1,0
335626,705.882352941176,4,2,1,30,1,0
335978,705.882352941176,4,2,1,30,1,0
336066,-100,4,2,1,5,0,0

[Colours]
Combo1 : 0,64,128
Combo2 : 190,125,255
Combo3 : 68,194,255
Combo4 : 128,0,128

[HitObjects]
256,192,2209,12,0,7021,0:0:0:0:
63,49,17493,6,0,L|70:147,1,84.1500016050339,8|0,0:0|0:0,0:0:0:0:
18,249,17776,1,0,0:0:0:0:
178,178,17917,1,0,0:0:0:0:
117,341,18059,2,0,L|120:251,1,84.1500016050339,0|0,3:0|0:0,0:0:0:0:
258,359,18342,2,0,L|253:273,1,84.1500016050339,0|0,3:0|0:0,0:0:0:0:
162,153,18625,5,0,0:0:0:0:
337,204,18766,1,0,0:0:0:0:
226,278,18908,1,0,0:0:0:0:
255,92,19049,2,0,L|345:98,1,84.1500016050339,0|0,3:0|0:0,0:0:0:0:
448,208,19332,2,0,L|361:219,1,84.1500016050339,0|0,3:0|0:0,0:0:0:0:
243,76,19615,1,0,0:0:0:0:
441,52,19757,5,0,0:0:0:0:
336,204,19898,1,0,0:0:0:0:
336,28,20040,1,0,0:0:0:0:
448,208,20181,1,0,0:0:0:0:
304,120,20323,2,0,L|312:12,1,84.1500016050339,0|0,3:0|0:0,0:0:0:0:
208,192,20606,2,0,L|216:300,1,84.1500016050339,0|0,3:0|0:0,0:0:0:0:
120,356,20889,5,0,0:0:0:0:
208,176,21030,1,0,0:0:0:0:
56,260,21172,1,0,0:0:0:0:
292,372,21313,2,0,L|300:268,1,84.1500016050339,0|0,3:0|0:0,0:0:0:0:
92,268,21596,2,0,L|96:364,1,84.1500016050339,0|0,3:0|0:0,0:0:0:0:
208,160,21879,1,0,0:0:0:0:
52,28,22021,5,8,2:3:0:0:
256,192,22092,12,0,25417,0:0:0:0:
52,192,25700,6,0,L|42:130,3,49.5
46,110,25983,5,0,0:0:0:0:
65,81,26053,1,0,0:0:0:0:
94,62,26124,1,0,0:0:0:0:
128,56,26195,1,0,0:0:0:0:
161,65,26266,5,0,0:0:0:0:
200,95,26336,1,0,0:0:0:0:
248,106,26407,1,0,0:0:0:0:
296,96,26478,1,0,0:0:0:0:
336,67,26549,6,0,P|468:75|380:167,1,316.8,6|2,0:0|0:0,0:0:0:0:
388,169,27257,1,8,0:0:0:0:
376,188,27540,5,0,0:0:0:0:
428,328,27681,2,0,L|508:322,1,79.2,2|0,0:0|0:0,0:0:0:0:
508,322,27893,1,0,0:0:0:0:
508,322,27964,1,8,0:0:0:0:
376,188,28106,1,0,0:0:0:0:
372,204,28176,1,0,0:1:0:0:
368,220,28247,2,0,L|288:214,1,79.2,2|0,0:0|0:0,0:0:0:0:
250,211,28459,1,0,0:0:0:0:
211,208,28530,1,0,0:0:0:0:
120,328,28672,1,0,0:0:0:0:
81,331,28742,1,0,0:0:0:0:
40,330,28813,6,0,B|-8:256|44:184|44:184|80:168|124:196|124:196|144:160|124:100,1,316.8,6|2,0:0|0:0,0:0:0:0:
57,49,29521,2,0,P|129:18|209:55,1,158.4,8|0,0:0|0:0,0:0:0:0:
256,168,29945,5,2,0:0:0:0:
380,116,30087,1,0,0:0:0:0:
380,116,30158,1,0,0:0:0:0:
380,116,30228,1,0,0:0:0:0:
200,44,30370,1,0,0:0:0:0:
256,168,30511,1,2,0:0:0:0:
258,195,30581,1,0,0:0:0:0:
260,224,30652,1,0,0:0:0:0:
264,248,30723,1,0,0:0:0:0:
263,278,30794,1,0,0:0:0:0:
240,310,30864,1,0,0:0:0:0:
206,330,30935,1,0,0:0:0:0:
167,335,31006,1,0,0:0:0:0:
130,323,31077,6,0,B|72:292|8:320|8:320|0:296|4:272,1,158.4,6|0,0:0|0:0,0:0:0:0:
72,116,31502,1,0,0:0:0:0:
240,196,31643,2,0,P|244:236|228:284,1,79.2,2|8,0:0|0:0,0:0:0:0:
56,124,31926,2,0,P|46:85|50:46,1,79.2,0|8,0:0|0:0,0:0:0:0:
212,16,32209,5,2,0:0:0:0:
154,225,32351,1,0,0:0:0:0:
116,221,32422,1,0,0:0:0:0:
77,218,32492,1,8,0:0:0:0:
152,352,32634,1,0,0:0:0:0:
365,345,32776,2,0,L|372:256,1,79.2,2|0,0:0|0:0,0:0:0:0:
256,100,33059,1,0,0:0:0:0:
384,256,33200,1,0,0:0:0:0:
480,48,33342,6,0,P|428:24|320:40,1,158.4,6|0,0:0|0:0,0:0:0:0:
320,168,33719,1,8,0:0:0:0:
352,212,33813,1,0,0:0:0:0:
384,256,33908,2,0,L|392:156,1,79.2,2|0,0:0|0:0,0:0:0:0:
246,14,34191,1,8,0:0:0:0:
256,140,34332,1,0,0:0:0:0:
152,212,34474,6,0,L|60:200,1,79.2,2|4,0:0|0:3,0:0:0:0:
8,92,34757,1,0,0:0:0:0:
164,204,34898,1,4,0:3:0:0:
164,204,34969,1,0,0:0:0:0:
164,204,35040,1,2,0:0:0:0:
28,332,35181,1,0,0:0:0:0:
116,104,35323,1,8,0:3:0:0:
200,316,35464,1,0,0:0:0:0:
200,316,35535,1,0,0:0:0:0:
200,316,35606,6,0,L|100:320,1,89.0999972808839,6|0,0:0|0:0,0:0:0:0:
20,128,35889,2,0,L|120:132,1,89.0999972808839,2|0,0:0|0:0,0:0:0:0:
356,36,36172,1,2,0:0:0:0:
196,44,36313,1,8,0:0:0:0:
284,248,36455,1,2,0:0:0:0:
276,88,36596,1,8,0:0:0:0:
200,316,36738,5,2,0:0:0:0:
400,344,36879,1,0,0:0:0:0:
400,344,36950,1,0,0:0:0:0:
400,344,37021,1,8,0:0:0:0:
288,224,37162,1,0,0:0:0:0:
288,224,37233,1,0,0:0:0:0:
288,224,37304,1,2,0:0:0:0:
168,328,37445,1,0,0:0:0:0:
148,336,37515,1,0,0:0:0:0:
127,342,37586,1,0,0:0:0:0:
104,344,37657,1,0,0:0:0:0:
82,342,37728,1,0,0:0:0:0:
61,336,37798,1,0,0:0:0:0:
40,327,37870,6,0,B|16:284|40:240|40:240|64:200|43:156,1,178.199994561768,6|2,0:0|0:0,0:0:0:0:
0,32,38294,1,0,0:0:0:0:
208,84,38436,2,0,L|119:80,1,89.0999972808839,2|8,0:0|0:0,0:0:0:0:
212,252,38719,2,0,L|302:248,1,89.0999972808839,2|0,0:0|0:0,0:0:0:0:
104,96,39002,5,8,0:0:0:0:
28,232,39143,1,0,0:0:0:0:
28,232,39214,1,0,0:0:0:0:
28,232,39285,1,2,0:0:0:0:
208,236,39426,1,0,0:0:0:0:
208,236,39497,1,0,0:0:0:0:
208,236,39568,1,2,0:0:0:0:
104,96,39709,1,0,0:0:0:0:
106,122,39779,1,0,0:0:0:0:
108,149,39850,1,2,0:0:0:0:
110,176,39921,1,0,0:0:0:0:
111,202,39992,1,0,0:0:0:0:
113,229,40062,1,0,0:0:0:0:
114,256,40134,6,0,B|104:336|176:376|176:376|220:340,1,178.199994561768,6|8,0:0|0:0,0:0:0:0:
256,220,40559,1,0,0:0:0:0:
104,96,40700,1,2,0:0:0:0:
112,256,40842,1,0,0:0:0:0:
400,256,40983,1,8,0:0:0:0:
408,96,41125,1,0,0:0:0:0:
320,292,41266,6,0,L|428:300,1,99,2|0,0:0|0:0,0:0:0:0:
192,92,41549,2,0,L|94:84,1,99,8|0,0:0|0:0,0:0:0:0:
94,299,41832,2,0,L|192:292,1,99,2|0,0:0|0:0,0:0:0:0:
419,84,42115,2,0,L|320:92,1,99,8|0,0:0|0:0,0:0:0:0:
64,328,42398,6,0,L|320:305,1,257.399988217164,6|8,0:0|0:0,0:0:0:0:
448,56,42823,2,0,L|191:78,1,257.399988217164,6|8,0:0|0:0,0:0:0:0:
437,297,43247,2,0,P|482:178|448:56,1,257.399988217164,6|8,0:0|0:0,0:0:0:0:
74,297,43672,2,0,P|30:178|63:56,1,257.399988217164,6|8,0:0|0:0,0:0:0:0:
256,16,44096,1,6,0:0:0:0:
371,212,44238,1,0,0:0:0:0:
371,212,44309,1,0,0:0:0:0:
371,212,44379,1,2,0:0:0:0:
371,212,44450,1,0,0:0:0:0:
371,212,44521,1,4,0:3:0:0:
371,212,44592,1,0,0:0:0:0:
371,212,44662,6,0,P|318:249|331:136,1,257.399988217164,6|8,0:0|0:0,0:0:0:0:
371,212,45087,6,0,P|318:249|267:111,1,257.399988217164,6|8,0:0|0:0,0:0:0:0:
371,212,45511,6,0,P|318:249|187:134,1,257.399988217164,6|8,0:0|0:0,0:0:0:0:
371,212,45936,6,0,P|318:249|139:209,1,257.399988217164,6|2,0:0|0:0,0:0:0:0:
436,40,46360,1,8,0:0:0:0:
76,40,46502,1,2,0:0:0:0:
76,40,46785,6,0,B|48:48|48:48|-8:144|80:224,1,198,6|0,0:0|0:0,0:0:0:0:
330,121,47209,2,0,B|259:108|259:108|210:132|210:132|140:120,1,198,8|2,0:0|0:0,0:0:0:0:
48,224,47634,1,2,0:0:0:0:
144,364,47776,2,0,L|152:260,1,99,8|0,0:0|0:0,0:0:0:0:
260,108,48059,5,2,0:0:0:0:
276,264,48200,1,2,0:0:0:0:
112,380,48342,2,0,L|128:176,1,198,8|2,0:0|0:0,0:0:0:0:
64,24,48766,1,2,0:0:0:0:
290,61,48908,2,0,L|192:72,1,99,8|0,0:0|0:0,0:0:0:0:
8,176,49191,6,0,L|107:187,1,99,2|4,0:0|0:3,0:0:0:0:
144,364,49474,2,0,L|243:353,1,99,8|0,0:0|0:0,0:0:0:0:
344,172,49757,1,2,0:0:0:0:
236,340,49898,1,2,0:0:0:0:
448,320,50040,1,8,0:0:0:0:
436,72,50181,6,0,P|348:35|250:73,1,198,6|2,0:0|0:0,0:0:0:0:
335,268,50606,2,0,P|349:221|344:172,1,99,8|0,0:0|0:0,0:0:0:0:
212,328,50889,1,2,0:0:0:0:
436,360,51030,1,0,0:0:0:0:
436,360,51101,1,0,0:0:0:0:
436,360,51172,1,8,0:0:0:0:
188,152,51313,6,0,B|156:168|156:168|120:280|192:344,1,198,6|2,0:0|0:0,0:0:0:0:
392,251,51738,2,0,P|346:235|297:238,1,99,8|0,0:0|0:0,0:0:0:0:
460,372,52021,1,2,0:0:0:0:
512,176,52162,1,2,0:0:0:0:
284,248,52304,1,8,0:0:0:0:
512,304,52445,1,0,0:0:0:0:
408,48,52587,6,0,L|416:160,1,99,2|2,0:0|0:0,0:0:0:0:
256,268,52870,1,8,0:0:0:0:
96,147,53011,2,0,L|104:48,1,99,0|2,0:0|0:0,0:0:0:0:
400,176,53294,1,2,0:0:0:0:
152,228,53436,1,8,0:0:0:0:
152,228,53577,1,2,0:0:0:0:
223,8,53719,5,6,0:0:0:0:
320,48,53860,1,2,0:0:0:0:
268,240,54002,1,8,0:0:0:0:
140,264,54143,1,2,0:0:0:0:
116,56,54285,5,8,0:0:0:0:
312,96,54426,1,2,0:0:0:0:
336,288,54568,1,8,0:0:0:0:
108,344,54709,1,6,0:0:0:0:
412,204,54851,5,8,0:0:0:0:
459,214,54921,1,0,0:0:0:0:
493,249,54992,1,2,0:0:0:0:
500,297,55063,1,0,0:0:0:0:
480,342,55134,1,4,0:3:0:0:
438,367,55204,1,0,0:0:0:0:
389,364,55275,1,0,0:0:0:0:
351,334,55346,1,0,0:0:0:0:
336,288,55417,5,8,0:0:0:0:
424,28,55559,1,2,0:3:0:0:
424,28,55842,6,0,B|392:56|392:56|364:136|420:216,1,198,6|2,0:0|0:0,0:0:0:0:
296,376,56266,2,0,B|328:348|328:348|356:268|300:188,1,198,8|2,0:0|0:0,0:0:0:0:
164,132,56691,1,2,0:0:0:0:
92,296,56832,2,0,L|200:292,1,99,8|0,0:0|0:0,0:0:0:0:
312,184,57115,5,2,0:0:0:0:
60,112,57257,1,2,0:0:0:0:
84,320,57398,1,8,0:0:0:0:
208,172,57540,2,0,B|242:85|177:20|177:20|155:56,1,198,0|2,0:0|0:0,0:0:0:0:
40,236,57964,2,0,L|156:244,1,99,8|0,0:0|0:0,0:0:0:0:
312,184,58247,5,2,0:0:0:0:
180,8,58389,1,2,0:0:0:0:
12,200,58530,2,0,B|43:221|79:202|79:202|134:232|134:232|214:235,1,198,8|2,0:0|0:0,0:0:0:0:
340,160,58955,1,2,0:0:0:0:
200,4,59096,2,0,P|184:50|191:98,1,99,8|0,0:0|0:0,0:0:0:0:
336,320,59379,6,0,B|366:308|366:308|410:232|362:151,1,198,6|8,0:0|0:0,0:0:0:0:
149,151,59804,2,0,B|101:232|145:308|145:308|176:320,1,198,6|2,0:0|0:0,0:0:0:0:
364,152,60228,1,8,0:0:0:0:
136,128,60370,1,2,0:0:0:0:
475,248,60511,6,0,P|504:154|476:60,1,198,14|2,0:0|0:0,0:0:0:0:
284,20,60936,1,8,0:0:0:0:
240,232,61077,1,0,0:0:0:0:
384,156,61219,1,2,0:0:0:0:
184,104,61360,2,0,B|20:92|20:92|48:68,1,198,12|2,0:0|0:0,0:0:0:0:
264,8,61785,5,8,0:0:0:0:
220,224,61926,1,0,0:0:0:0:
100,16,62068,1,2,0:0:0:0:
352,136,62209,1,8,0:0:0:0:
128,272,62351,1,2,0:0:0:0:
196,112,62492,1,4,0:3:0:0:
196,112,62563,1,0,0:0:0:0:
196,112,62634,1,2,0:0:0:0:
196,112,62705,1,0,0:0:0:0:
196,112,62776,6,0,P|236:208|196:328,1,198,14|2,0:0|0:0,0:0:0:0:
60,380,63200,1,12,0:0:0:0:
0,212,63342,2,0,L|116:216,1,99,2|2,0:0|0:0,0:0:0:0:
348,288,63625,1,8,0:0:0:0:
184,316,63766,1,0,0:0:0:0:
172,108,63908,1,2,0:0:0:0:
372,180,64049,6,0,B|384:216|379:252|379:252|359:298|359:298|352:344|366:378,1,198,14|2,0:0|0:0,0:0:0:0:
484,112,64474,1,8,0:0:0:0:
466,90,64544,1,0,0:0:0:0:
442,72,64615,1,0,0:0:0:0:
415,59,64686,1,0,0:0:0:0:
386,54,64757,1,0,0:0:0:0:
356,55,64827,1,0,0:0:0:0:
328,63,64898,1,0,0:0:0:0:
302,78,64969,1,0,0:0:0:0:
280,98,65040,6,0,B|232:120|179:96|179:96|120:72|68:100,1,198,12|2,0:0|0:0,0:0:0:0:
12,220,65464,1,2,0:0:0:0:
8,236,65747,1,4,0:3:0:0:
180,327,65889,6,0,B|212:232|130:180|130:180|112:128|151:86|151:86|200:108|260:96|260:96|292:152|244:208,1,495,0|0,0:0|3:0,0:0:0:0:
250,201,67445,1,0,3:0:0:0:
76,280,67587,1,0,3:0:0:0:
11,79,67728,6,0,P|83:63|152:87,1,148.500005664826,0|0,3:0|3:0,0:0:0:0:
76,280,68153,2,0,P|64:224|76:164,1,111.375004248619,4|0,3:1|2:0,0:0:0:0:
136,104,68436,5,8,0:0:0:0:
265,267,68577,1,0,0:0:0:0:
227,278,68647,1,0,0:0:0:0:
188,274,68718,1,8,0:0:0:0:
151,262,68789,1,0,0:0:0:0:
111,263,68860,1,0,0:0:0:0:
76,280,68930,1,0,0:0:0:0:
48,308,69002,6,0,L|44:360,1,49.5
176,184,69143,2,0,L|180:236,1,49.5
12,52,69285,2,0,L|8:104,1,49.5
216,32,69426,6,0,B|290:39|290:39|331:71|331:71|368:60|403:77,1,198,6|2,0:0|0:0,0:0:0:0:
476,212,69851,2,0,B|403:206|403:206|362:174|362:174|324:184|290:168,1,198,8|2,0:0|0:0,0:0:0:0:
424,52,70276,1,2,0:0:0:0:
504,200,70417,2,0,P|492:244|500:312,1,99,8|0,0:0|0:0,0:0:0:0:
284,368,70700,6,0,P|300:272|256:164,1,198,2|8,0:0|0:0,0:0:0:0:
132,128,71125,1,0,0:0:0:0:
48,332,71266,1,2,0:0:0:0:
192,276,71408,1,2,0:0:0:0:
36,180,71549,1,8,0:0:0:0:
140,372,71691,1,0,0:0:0:0:
120,156,71832,6,0,L|8:164,1,99,2|2,0:0|0:0,0:0:0:0:
212,256,72115,1,8,0:0:0:0:
152,32,72257,1,0,0:0:0:0:
8,192,72398,1,2,0:0:0:0:
228,272,72540,2,0,P|240:220|216:152,1,99,2|8,0:0|0:0,0:0:0:0:
416,40,72823,6,0,P|474:120|476:216,1,198,0|2,0:0|0:0,0:0:0:0:
320,352,73247,1,12,0:0:0:0:
376,160,73389,1,0,0:0:0:0:
464,344,73530,2,0,L|366:337,1,99,2|0,0:0|0:0,0:0:0:0:
256,192,73813,1,8,0:0:0:0:
8,320,73955,6,0,P|96:360|192:332,1,198,6|2,0:0|0:0,0:0:0:0:
248,144,74379,1,8,0:0:0:0:
108,248,74521,1,0,0:0:0:0:
336,324,74662,2,0,B|348:298|348:298|344:212,1,99,2|2,0:0|0:0,0:0:0:0:
208,68,74945,1,8,0:0:0:0:
464,32,75087,6,0,B|476:68|476:68|464:236,1,198,2|2,0:0|0:0,0:0:0:0:
292,356,75511,2,0,B|252:276|308:208|308:208|360:216,1,198,8|2,0:0|0:0,0:0:0:0:
488,260,75936,1,2,0:0:0:0:
284,376,76077,2,0,P|260:320|280:216,1,148.5,8|0,0:0|0:0,0:0:0:0:
340,180,76360,5,6,0:0:0:0:
448,320,76502,1,2,0:0:0:0:
464,60,76643,1,8,0:0:0:0:
324,156,76785,1,0,0:0:0:0:
492,312,76926,5,2,0:0:0:0:
240,368,77068,1,2,0:0:0:0:
368,152,77209,1,8,0:0:0:0:
496,364,77351,1,0,0:0:0:0:
496,364,77422,1,0,0:0:0:0:
496,364,77492,6,0,L|368:356,1,99,12|0,0:0|0:0,0:0:0:0:
184,312,77776,1,8,0:0:0:0:
368,152,77917,1,0,0:0:0:0:
368,152,77987,1,0,0:0:0:0:
368,152,78058,1,8,0:0:0:0:
208,28,78200,6,0,L|216:152,1,111.375004248619,2|0,0:0|2:0,0:0:0:0:
232,156,78483,1,6,0:0:0:0:
412,168,78625,5,8,0:0:0:0:
412,168,78695,2,0,P|440:100|412:12,1,148.5,4|8,0:3|0:0,0:0:0:0:
220,16,79049,1,0,0:0:0:0:
232,256,79191,2,0,L|336:252,1,99,2|2,0:0|0:0,0:0:0:0:
228,32,79474,2,0,L|124:28,1,99,8|0,0:0|0:0,0:0:0:0:
16,204,79757,5,2,0:0:0:0:
228,280,79898,1,2,0:0:0:0:
240,48,80040,2,0,B|200:32|200:32|28:48,1,198,8|2,0:0|0:0,0:0:0:0:
0,212,80464,1,2,0:0:0:0:
132,356,80606,2,0,L|116:240,1,99,8|0,0:0|0:0,0:0:0:0:
240,48,80889,6,0,P|256:120|219:195,1,148.5,2|0,0:0|0:0,0:0:0:0:
46,102,81172,2,0,L|144:108,1,99,8|0,0:0|0:0,0:0:0:0:
236,216,81455,1,2,0:0:0:0:
116,360,81596,1,2,0:0:0:0:
52,124,81738,1,12,0:0:0:0:
16,276,81879,1,0,0:0:0:0:
168,88,82021,5,6,0:0:0:0:
256,308,82162,2,0,L|196:300,1,49.5
116,360,82304,1,8,0:0:0:0:
4,176,82445,6,0,L|56:168,1,49.5
144,228,82587,1,8,0:0:0:0:
308,36,82728,6,0,L|244:28,1,49.5
168,88,82870,1,2,0:0:0:0:
288,284,83011,1,2,0:0:0:0:
504,136,83153,6,0,P|456:120|384:132,1,99,6|0,0:0|0:0,0:0:0:0:
292,312,83436,2,0,L|408:308,1,99,2|2,0:0|0:0,0:0:0:0:
204,104,83719,2,0,B|212:228|212:228|188:260,1,148.5,8|0,0:0|0:0,0:0:0:0:
136,312,84002,2,0,L|20:308,1,99,0|2,0:0|0:0,0:0:0:0:
104,108,84285,6,0,L|203:104,1,99,6|8,0:0|0:0,0:0:0:0:
360,208,84568,1,2,0:0:0:0:
256,8,84709,1,2,0:0:0:0:
216,248,84851,1,8,0:0:0:0:
364,72,84992,1,2,0:0:0:0:
492,272,85134,1,8,0:0:0:0:
252,352,85276,6,0,P|224:268|264:168,1,198,6|2,0:0|0:0,0:0:0:0:
440,104,85700,1,2,0:0:0:0:
432,88,85983,1,8,0:0:0:0:
372,312,86125,1,2,0:0:0:0:
272,160,86266,1,8,0:0:0:0:
496,192,86408,1,0,0:0:0:0:
224,320,86549,5,2,0:0:0:0:
396,300,86691,1,2,0:0:0:0:
308,128,86832,1,12,0:0:0:0:
179,250,86974,1,0,0:0:0:0:
181,279,87044,1,0,0:0:0:0:
184,309,87115,1,2,0:0:0:0:
377,181,87257,1,8,0:3:0:0:
374,210,87327,1,2,0:0:0:0:
371,240,87398,1,4,0:3:0:0:
160,64,87540,1,0,0:0:0:0:
377,181,87681,5,2,0:0:0:0:
425,189,87751,1,0,0:0:0:0:
470,171,87822,1,0,0:0:0:0:
498,131,87893,1,0,0:0:0:0:
500,82,87964,1,2,0:0:0:0:
475,40,88034,1,0,0:0:0:0:
431,18,88105,1,0,0:0:0:0:
383,23,88176,1,0,0:0:0:0:
345,54,88247,6,0,L|348:128,1,49.5,2|0,0:0|0:0,0:0:0:0:
280,264,88389,2,0,L|283:214,1,49.5
164,28,88530,2,0,L|167:77,1,49.5,2|0,0:0|0:0,0:0:0:0:
84,304,88672,2,0,L|88:240,1,49.5,0|8,0:0|0:0,0:0:0:0:
148,116,88813,5,8,0:0:0:0:
144,92,89804,6,0,P|236:120|348:68,1,198,6|2,0:0|0:0,0:0:0:0:
492,236,90228,1,8,0:0:0:0:
488,224,90511,1,2,0:0:0:0:
472,32,90653,1,2,0:0:0:0:
360,280,90794,1,8,0:0:0:0:
264,132,90936,6,0,P|356:98|449:126,1,198,6|2,0:0|0:0,0:0:0:0:
368,296,91360,1,8,0:0:0:0:
376,312,91643,1,2,0:0:0:0:
256,24,91785,1,2,0:0:0:0:
216,228,91926,1,8,0:0:0:0:
444,240,92068,6,0,B|457:198|438:164|438:164|458:122|458:122|452:46,1,198,6|2,0:0|0:0,0:0:0:0:
240,232,92492,1,8,0:0:0:0:
260,236,92776,1,8,0:0:0:0:
480,256,92917,1,2,0:0:0:0:
252,32,93059,1,8,0:0:0:0:
81,253,93200,6,0,P|174:279|261:235,1,198,6|2,0:0|0:0,0:0:0:0:
264,32,93625,1,12,0:0:0:0:
164,164,93766,1,0,0:0:0:0:
440,344,93908,1,2,0:0:0:0:
439,309,93978,1,0,0:0:0:0:
438,274,94049,1,0,0:0:0:0:
436,240,94120,1,0,0:0:0:0:
435,205,94191,1,2,0:0:0:0:
434,170,94261,1,0,0:0:0:0:
432,136,94332,1,0,0:0:0:0:
431,101,94403,1,0,0:0:0:0:
430,67,94474,6,0,B|360:16|275:49|275:49|264:100,1,198,6|8,0:0|0:0,0:0:0:0:
268,82,95040,1,2,0:0:0:0:
236,256,95181,1,2,0:0:0:0:
476,316,95323,2,0,L|352:304,1,99,8|0,0:0|0:0,0:0:0:0:
168,348,95606,6,0,P|202:256|174:163,1,198,2|8,0:0|0:0,0:0:0:0:
16,96,96030,1,0,0:0:0:0:
256,16,96172,2,0,L|252:128,1,99,2|2,0:0|0:0,0:0:0:0:
304,348,96455,1,8,0:0:0:0:
488,224,96596,1,0,0:0:0:0:
492,212,96667,1,0,0:0:0:0:
496,200,96738,6,0,B|421:193|421:193|375:213|375:213|303:207,1,198,2|8,0:0|0:0,0:0:0:0:
232,24,97162,1,0,0:0:0:0:
448,16,97304,2,0,P|437:63|441:112,1,99,2|2,0:0|0:0,0:0:0:0:
380,348,97587,2,0,P|385:298|373:251,1,99,8|0,0:0|0:0,0:0:0:0:
224,128,97870,6,0,P|140:160|24:136,1,198,2|8,0:0|0:0,0:0:0:0:
36,142,98436,1,2,0:0:0:0:
76,312,98577,1,2,0:0:0:0:
124,48,98719,1,8,0:0:0:0:
253,253,98860,1,0,0:0:0:0:
240,260,98931,1,0,0:0:0:0:
227,267,99002,6,0,B|207:103|207:103|235:143,1,198,2|8,0:0|0:0,0:0:0:0:
236,120,99568,2,0,P|284:128|344:112,1,99,2|2,0:0|0:0,0:0:0:0:
120,24,99851,2,0,P|72:16|12:32,1,99,8|0,0:0|0:0,0:0:0:0:
0,272,100134,6,0,P|112:260|216:300,1,198,2|8,0:0|0:0,0:0:0:0:
252,104,100559,1,0,0:0:0:0:
16,48,100700,2,0,L|24:156,1,99,2|2,0:0|0:0,0:0:0:0:
92,364,100983,1,8,0:0:0:0:
220,140,101125,1,2,0:0:0:0:
0,272,101266,5,12,0:0:0:0:
192,284,101408,1,2,0:0:0:0:
108,168,101549,1,2,0:0:0:0:
292,356,101691,5,12,0:0:0:0:
160,280,101832,1,2,0:0:0:0:
288,104,101974,1,2,0:0:0:0:
36,52,102115,5,12,0:0:0:0:
224,288,102257,1,2,0:0:0:0:
292,88,102398,1,8,0:0:0:0:
92,192,102540,5,2,0:0:0:0:
196,4,102681,1,8,0:0:0:0:
300,208,102823,1,2,0:0:0:0:
416,8,102964,5,4,0:3:0:0:
453,39,103034,1,0,0:0:0:0:
472,84,103105,1,0,0:0:0:0:
471,133,103176,1,0,0:0:0:0:
448,177,103247,1,2,0:0:0:0:
410,208,103317,1,0,0:0:0:0:
391,253,103388,1,0,0:0:0:0:
392,302,103459,1,0,0:0:0:0:
415,346,103530,6,0,L|513:332,1,99,12|0,0:0|0:0,0:0:0:0:
284,120,103813,1,2,0:0:0:0:
192,360,103955,1,8,0:0:0:0:
456,224,104096,2,0,L|358:210,1,99,2|2,0:0|0:0,0:0:0:0:
56,224,104379,2,0,L|154:210,1,99,8|2,0:0|0:0,0:0:0:0:
274,24,104662,6,0,P|288:71|284:120,1,99,2|12,0:0|0:0,0:0:0:0:
148,224,104945,2,0,L|268:236,1,99,2|2,0:0|0:0,0:0:0:0:
416,344,105228,1,8,0:0:0:0:
492,116,105370,1,2,0:0:0:0:
332,300,105511,1,8,0:0:0:0:
504,208,105653,1,2,0:0:0:0:
360,48,105794,5,12,0:0:0:0:
144,184,105936,2,0,L|264:192,1,99,2|2,0:0|0:0,0:0:0:0:
400,360,106219,1,8,0:0:0:0:
508,116,106361,2,0,L|363:125,1,99,2|2,0:0|0:0,0:0:0:0:
236,208,106643,2,0,P|256:132|228:48,1,148.5,8|0,0:0|0:0,0:0:0:0:
160,24,106926,5,8,0:0:0:0:
16,152,107115,1,4,0:3:0:0:
236,208,107304,1,4,0:3:0:0:
0,132,107492,6,0,L|152:136,1,148.5,8|2,0:0|0:0,0:0:0:0:
168,116,107776,1,0,0:0:0:0:
256,332,107917,1,2,0:0:0:0:
496,112,108059,6,0,P|422:66|336:81,1,178.199994561768,6|0,0:0|0:0,0:0:0:0:
256,136,108342,1,8,0:0:0:0:
248,348,108483,1,6,0:0:0:0:
256,332,108908,1,6,0:0:0:0:
263,315,109474,6,0,B|232:248|264:192|264:192|308:120|267:55,1,272.25,6|0,0:0|0:2,0:0:0:0:
188,20,110323,5,8,0:0:0:0:
4,132,110606,1,8,0:0:0:0:
8,148,110889,5,8,0:0:0:0:
196,120,111030,1,2,0:0:0:0:
100,280,111172,1,0,0:0:0:0:
12,24,111313,1,8,0:0:0:0:
208,120,111455,6,0,L|220:268,1,132,2|4,0:0|0:3,0:0:0:0:
188,324,111738,5,8,0:0:0:0:
241,329,111832,1,8,0:3:0:0:
294,333,111926,1,4,0:3:0:0:
369,354,112021,5,8,0:0:0:0:
365,301,112115,1,8,0:3:0:0:
360,248,112209,1,4,0:3:0:0:
328,180,112304,5,8,0:0:0:0:
381,175,112398,1,4,0:3:0:0:
434,171,112492,1,0,0:0:0:0:
408,88,112587,6,0,P|320:112|216:80,1,198,6|8,0:0|0:0,0:0:0:0:
219,83,113153,1,2,0:0:0:0:
384,296,113294,1,2,0:0:0:0:
316,16,113436,1,8,0:0:0:0:
72,200,113577,6,0,B|143:194|143:194|189:214|189:214|265:208,1,198,6|2,0:0|0:0,0:0:0:0:
492,180,114002,1,8,0:0:0:0:
480,168,114285,1,2,0:0:0:0:
296,376,114426,2,0,P|256:300|284:180,1,198
484,352,114851,5,6,0:0:0:0:
484,352,114992,1,2,0:0:0:0:
264,184,115134,1,8,0:0:0:0:
504,192,115276,1,0,0:0:0:0:
312,300,115417,1,2,0:0:0:0:
312,68,115559,1,2,0:0:0:0:
508,112,115700,1,2,0:0:0:0:
160,236,115842,1,6,0:0:0:0:
256,192,115912,12,2,117115,3:2:0:0:
384,200,117681,5,0,0:0:0:0:
164,344,118106,1,0,0:0:0:0:
164,344,118247,1,2,0:0:0:0:
176,356,118813,1,2,0:0:0:0:
24,192,119096,1,0,0:0:0:0:
256,240,119379,5,2,2:0:0:0:
252,256,119662,1,2,2:0:0:0:
136,60,119804,1,2,0:0:0:0:
128,52,120087,1,2,0:0:0:0:
120,44,120370,6,0,B|140:92|120:140|120:140|100:188|115:238,1,198,6|0,0:0|0:0,0:0:0:0:
256,360,120794,1,2,0:0:0:0:
204,188,120936,1,2,0:0:0:0:
16,352,121077,1,2,0:0:0:0:
288,264,121219,1,2,0:0:0:0:
8,112,121360,1,2,0:0:0:0:
140,348,121502,1,2,0:0:0:0:
256,24,121643,1,12,0:0:0:0:
264,36,121926,6,0,L|260:128,1,74.2500028324128,2|0,0:0|0:0,0:0:0:0:
145,274,122209,2,0,P|197:252|232:252,1,74.2500028324128,2|0,0:0|0:0,0:0:0:0:
292,304,122398,2,0,P|340:300|385:321,1,99.0000037765504,2|0,0:0|0:0,0:0:0:0:
464,376,122634,6,0,P|430:265|472:155,1,237.599992749024,6|2,0:0|0:0,0:0:0:0:
296,24,123059,2,0,L|304:152,1,118.799996374512,8|0,0:0|0:0,0:0:0:0:
224,352,123342,1,2,0:0:0:0:
316,156,123483,1,2,0:0:0:0:
504,272,123625,2,0,B|361:268|361:268|393:296,1,178.199994561768,8|0,0:0|0:0,0:0:0:0:
336,352,123908,6,0,P|279:336|223:353,1,118.799996374512,2|2,0:0|0:0,0:0:0:0:
8,200,124191,2,0,L|132:192,1,118.799996374512,8|0,0:0|0:0,0:0:0:0:
336,124,124474,1,2,0:0:0:0:
216,368,124615,1,2,0:0:0:0:
16,220,124757,2,0,P|24:124|4:44,1,178.199994561768,8|0,0:0|0:0,0:0:0:0:
116,20,125040,6,0,P|104:68|124:156,1,118.799996374512,2|2,0:0|0:0,0:0:0:0:
256,288,125323,1,8,0:0:0:0:
352,140,125464,1,0,0:0:0:0:
192,80,125606,1,2,0:0:0:0:
352,244,125747,1,2,0:0:0:0:
112,264,125889,1,8,0:0:0:0:
444,356,126030,6,0,P|480:244|432:128,1,237.599992749024,6|2,0:0|0:0,0:0:0:0:
256,24,126455,1,8,0:0:0:0:
256,24,126738,2,0,B|232:72|256:116|256:116|276:160|260:197,1,178.199994561768,2|0,0:0|0:0,0:0:0:0:
192,260,127021,1,8,0:0:0:0:
408,328,127162,6,0,B|240:348|240:348|248:320|288:296,1,237.599992749024,6|2,0:0|0:0,0:0:0:0:
472,152,127587,2,0,P|488:208|476:272,1,118.799996374512,8|0,0:0|0:0,0:0:0:0:
408,328,127799,1,0,0:0:0:0:
408,328,127870,1,2,0:0:0:0:
316,104,128011,1,2,0:0:0:0:
192,260,128153,1,8,0:0:0:0:
480,172,128294,1,0,0:0:0:0:
220,36,128436,6,0,P|200:92|216:164,1,118.799996374512,2|2,0:0|0:0,0:0:0:0:
324,380,128719,2,0,L|320:260,1,118.799996374512,8|0,0:0|0:0,0:0:0:0:
200,160,129002,1,2,0:0:0:0:
408,328,129143,1,2,0:0:0:0:
488,119,129285,2,0,B|460:100|460:100|316:104,1,178.199994561768,8|0,0:0|0:0,0:0:0:0:
300,80,129568,5,6,0:0:0:0:
216,312,129709,1,2,0:0:0:0:
72,56,129851,1,8,0:0:0:0:
276,204,129992,1,2,0:0:0:0:
0,296,130134,1,8,0:0:0:0:
84,40,130276,1,2,0:0:0:0:
132,332,130417,1,2,0:0:0:0:
256,28,130559,1,8,0:0:0:0:
0,160,130700,6,0,L|132:172,1,118.799996374512,6|0,0:0|0:0,0:0:0:0:
140,200,130912,1,0,0:0:0:0:
160,228,130983,1,8,0:0:0:0:
352,380,131125,1,0,0:0:0:0:
348,348,131196,1,0,0:0:0:0:
345,315,131266,1,8,0:0:0:0:
268,168,131408,6,0,P|284:116|264:40,1,111.375004248619,2|0,0:0|0:2,0:0:0:0:
388,36,131691,6,0,P|372:140|420:268,1,237.599992749024,6|2,0:0|0:0,0:0:0:0:
192,368,132115,2,0,P|208:274|172:182,1,178.199994561768,8|0,0:0|0:0,0:0:0:0:
100,164,132398,1,2,0:0:0:0:
8,356,132540,1,2,0:0:0:0:
0,140,132681,2,0,L|132:152,1,118.799996374512,8|0,0:0|0:0,0:0:0:0:
388,36,132964,5,2,0:0:0:0:
268,168,133106,1,2,0:0:0:0:
268,168,133176,1,0,0:0:0:0:
268,168,133247,1,8,0:0:0:0:
420,360,133389,2,0,B|404:164|404:164|432:212,1,237.599992749024,0|2,0:0|0:0,0:0:0:0:
284,348,133813,1,8,0:0:0:0:
504,240,133955,1,0,0:0:0:0:
392,48,134096,6,0,L|260:56,1,118.799996374512,2|2,0:0|0:0,0:0:0:0:
72,24,134379,2,0,P|106:106|97:193,1,178.199994561768,8|0,0:0|0:0,0:0:0:0:
32,248,134662,1,2,0:0:0:0:
220,376,134804,1,2,0:0:0:0:
266,154,134945,2,0,B|202:160|202:160|164:187|164:187|96:193,1,178.199994561768,8|0,0:0|0:0,0:0:0:0:
32,248,135228,6,0,P|24:312|60:380,1,118.799996374512,6|0,0:0|0:0,0:0:0:0:
43,362,135441,1,0,0:0:0:0:
43,362,135511,1,8,0:0:0:0:
311,353,135653,2,0,B|348:246|266:154|266:154|240:206,1,237.599992749024,6|2,0:0|0:0,0:0:0:0:
116,296,136077,1,8,0:0:0:0:
76,24,136219,1,2,0:0:0:0:
360,32,136360,6,0,P|347:90|364:152,1,118.799996374512,6|2,0:0|0:0,0:0:0:0:
488,304,136643,1,2,0:0:0:0:
464,88,136785,2,0,B|380:80|380:80|325:108|325:108|233:99,1,237.599992749024,8|2,0:0|0:0,0:0:0:0:
4,48,137209,2,0,P|61:30|128:40,1,118.799996374512,8|2,0:0|0:0,0:0:0:0:
204,76,137422,1,0,0:0:0:0:
232,100,137492,6,0,L|220:232,1,118.799996374512,12|2,0:0|0:0,0:0:0:0:
64,368,137776,2,0,P|48:312|64:236,1,118.799996374512,8|2,0:0|0:0,0:0:0:0:
348,196,138059,2,0,P|364:252|348:328,1,118.799996374512,8|0,0:0|0:0,0:0:0:0:
464,352,138271,2,0,P|452:300|484:212,1,118.799996374512,8|0,0:3|0:0,0:0:0:0:
476,124,138483,6,0,P|365:163|248:144,1,237.599992749024,6|2,0:0|0:0,0:0:0:0:
448,4,138908,1,8,0:0:0:0:
388,300,139049,1,0,0:0:0:0:
188,196,139191,2,0,P|204:135|192:76,1,118.799996374512,2|2,0:0|0:0,0:0:0:0:
16,16,139474,1,8,0:0:0:0:
4,296,139615,6,0,B|208:280|208:280|185:304,1,237.599992749024
464,352,140040,1,2,0:0:0:0:
496,96,140181,1,0,0:0:0:0:
451,57,140251,1,0,0:0:0:0:
393,46,140322,1,2,0:0:0:0:
337,63,140393,1,0,0:0:0:0:
297,106,140464,1,0,0:0:0:0:
282,163,140534,1,0,0:0:0:0:
297,220,140605,1,8,0:0:0:0:
337,262,140676,1,0,0:0:0:0:
393,280,140747,1,0,0:0:0:0:
451,268,140817,1,0,0:0:0:0:
496,229,140888,5,6,0:0:0:0:
500,204,142021,5,6,0:0:0:0:
496,176,143011,6,0,P|401:152|304:180,1,198,6|0,0:0|0:0,0:0:0:0:
400,328,143436,1,8,0:0:0:0:
404,312,143719,1,0,0:0:0:0:
216,356,143860,1,0,0:0:0:0:
214,321,143930,1,0,0:0:0:0:
213,286,144001,1,0,0:0:0:0:
211,252,144072,1,0,0:0:0:0:
210,217,144143,1,8,0:0:0:0:
88,136,144285,5,2,0:0:0:0:
304,168,144426,1,0,0:0:0:0:
48,280,144568,1,8,0:0:0:0:
184,96,144709,1,8,0:3:0:0:
212,288,144851,1,0,0:0:0:0:
64,144,144992,1,8,0:3:0:0:
280,72,145134,1,2,0:0:0:0:
120,220,145276,1,2,0:0:0:0:
156,16,145417,5,6,0:0:0:0:
148,24,151926,5,12,0:0:0:0:
16,260,152209,6,0,L|84:248,1,49.5,2|0,0:3|0:0,0:0:0:0:
156,140,152351,1,4,0:3:0:0:
204,356,152492,1,2,0:0:0:0:
376,180,152634,6,0,L|308:172,1,49.5,8|0,0:3|0:0,0:0:0:0:
168,120,152776,1,4,0:3:0:0:
208,344,152917,1,0,0:0:0:0:
392,164,153059,1,2,0:0:0:0:
392,164,153129,1,0,0:0:0:0:
392,164,153200,1,0,0:0:0:0:
328,372,153342,5,2,0:0:0:0:
160,272,153483,1,8,0:3:0:0:
160,272,153554,1,4,0:3:0:0:
160,272,153625,1,4,0:3:0:0:
376,180,153766,1,0,0:0:0:0:
144,112,153908,1,8,0:0:0:0:
115,120,153978,1,0,0:0:0:0:
90,135,154049,1,0,0:0:0:0:
68,156,154120,1,0,0:0:0:0:
52,181,154191,1,12,0:0:0:0:
43,209,154261,1,0,0:0:0:0:
40,238,154332,1,0,0:0:0:0:
44,267,154403,1,0,0:0:0:0:
56,295,154474,6,0,P|160:272|260:304,1,198,6|2,0:0|0:0,0:0:0:0:
376,180,154898,1,0,0:0:0:0:
268,48,155040,2,0,L|260:164,1,99,2|0,0:0|0:0,0:0:0:0:
492,216,155323,2,0,L|485:117,1,99,2|0,0:0|0:0,0:0:0:0:
284,32,155606,6,0,P|196:68|76:40,1,198,2|2,0:0|0:0,0:0:0:0:
8,192,156030,1,0,0:0:0:0:
96,332,156172,2,0,B|108:168|108:168|128:204,1,198,2|2,0:0|0:0,0:0:0:0:
268,48,156596,1,0,0:0:0:0:
288,256,156738,6,0,P|244:264|188:252,1,99,2|0,0:0|0:0,0:0:0:0:
52,80,157021,2,0,P|100:69|148:77,1,99,2|0,0:0|0:0,0:0:0:0:
280,244,157304,2,0,P|260:148|293:56,1,198,2|2,0:0|0:0,0:0:0:0:
444,12,157728,1,0,0:0:0:0:
360,152,157870,5,2,0:0:0:0:
184,28,158011,1,0,0:0:0:0:
328,48,158153,1,2,0:0:0:0:
128,148,158294,1,0,0:0:0:0:
280,244,158436,1,2,0:0:0:0:
240,96,158577,1,0,0:0:0:0:
208,344,158719,1,2,0:0:0:0:
288,204,158860,1,0,0:0:0:0:
488,340,159002,6,0,B|320:332|320:332|368:304,1,198,6|2,0:0|0:0,0:0:0:0:
172,228,159426,1,0,0:0:0:0:
316,40,159568,2,0,L|308:138,1,99,2|0,0:0|0:0,0:0:0:0:
468,256,159851,2,0,P|476:204|460:156,1,99,2|0,0:0|0:0,0:0:0:0:
184,248,160134,6,0,L|300:240,1,99,2|0,0:0|0:0,0:0:0:0:
304,28,160417,2,0,L|188:20,1,99,2|0,0:0|0:0,0:0:0:0:
32,104,160700,1,2,0:0:0:0:
192,264,160842,1,0,0:0:0:0:
200,24,160983,1,2,0:0:0:0:
104,184,161125,1,0,0:0:0:0:
376,56,161266,6,0,P|408:145|400:244,1,193.049991162873,6|8,0:0|0:0,0:0:0:0:
352,312,161549,1,8,0:0:0:0:
120,60,161691,2,0,P|84:181|114:305,1,257.399988217164,6|8,0:0|0:0,0:0:0:0:
408,60,162115,2,0,P|445:181|415:305,1,257.399988217164,6|8,0:0|0:0,0:0:0:0:
84,60,162540,2,0,P|48:181|78:305,1,257.399988217164,6|8,0:0|0:0,0:0:0:0:
256,380,162964,1,6,0:0:0:0:
371,212,163106,1,0,0:0:0:0:
371,212,163177,1,0,0:0:0:0:
371,212,163247,1,8,0:0:0:0:
371,212,163318,1,0,0:0:0:0:
371,212,163389,1,0,0:0:0:0:
371,212,163460,1,8,0:0:0:0:
371,212,163530,6,0,P|318:249|331:136,1,257.399988217164,6|8,0:0|0:0,0:0:0:0:
371,212,163955,6,0,P|318:249|267:111,1,257.399988217164,6|8,0:0|0:0,0:0:0:0:
371,212,164379,6,0,P|318:249|187:134,1,257.399988217164,6|8,0:0|0:0,0:0:0:0:
371,212,164804,6,0,P|318:249|139:209,1,257.399988217164,6|2,0:0|0:0,0:0:0:0:
76,40,165228,1,12,0:0:0:0:
436,40,165370,1,6,0:0:0:0:
360,188,165511,1,8,0:0:0:0:
484,304,165653,1,6,0:0:0:0:
484,304,165724,1,0,0:0:0:0:
484,304,165794,5,0,0:0:0:0:
467,293,165864,1,0,0:0:0:0:
448,286,165935,1,8,0:0:0:0:
429,281,166006,1,0,0:0:0:0:
409,279,166077,1,0,0:0:0:0:
390,281,166147,1,0,0:0:0:0:
370,285,166218,1,2,0:0:0:0:
352,292,166289,1,0,0:0:0:0:
335,302,166360,5,2,0:0:0:0:
336,277,166430,1,0,0:0:0:0:
337,252,166501,1,0,0:0:0:0:
338,227,166572,1,0,0:0:0:0:
339,203,166643,1,12,0:0:0:0:
340,178,166713,1,0,0:0:0:0:
341,153,166784,1,8,0:0:0:0:
342,128,166855,1,0,0:0:0:0:
343,104,166926,5,2,0:0:0:0:
304,126,166996,1,0,0:0:0:0:
262,140,167067,1,12,0:0:0:0:
218,145,167138,1,0,0:0:0:0:
173,141,167209,1,8,0:0:0:0:
131,127,167279,1,0,0:0:0:0:
92,106,167350,1,0,0:0:0:0:
58,77,167421,1,0,0:0:0:0:
40,36,167492,6,0,P|46:86|22:153,1,99,12|8,0:0|0:3,0:0:0:0:
60,332,167776,1,4,0:3:0:0:
244,256,167917,2,0,P|224:156|268:48,1,198,0|2,0:0|0:0,0:0:0:0:
372,40,168271,1,2,0:0:0:0:
352,24,168342,6,0,P|258:50|169:13,1,198,12|2,0:0|0:0,0:0:0:0:
16,104,168766,1,2,0:0:0:0:
88,268,168908,2,0,L|220:260,1,99,8|0,0:0|0:0,0:0:0:0:
384,328,169191,5,2,0:0:0:0:
356,136,169332,1,2,0:0:0:0:
200,252,169474,1,8,0:0:0:0:
452,216,169615,1,0,0:0:0:0:
264,120,169757,2,0,P|255:71|269:24,1,99,2|2,0:0|0:0,0:0:0:0:
472,88,170040,2,0,L|461:187,1,99,8|0,0:0|0:0,0:0:0:0:
488,368,170323,6,0,P|390:341|290:373,1,198,2|8,0:0|0:0,0:0:0:0:
168,256,170747,1,0,0:0:0:0:
296,104,170889,2,0,L|292:212,1,99,0|2,0:0|0:0,0:0:0:0:
476,336,171172,1,8,0:0:0:0:
476,88,171313,6,0,B|404:81|404:81|361:106|361:106|285:99,1,198,2|2,0:0|0:0,0:0:0:0:
120,8,171738,1,8,0:0:0:0:
8,168,171879,1,0,0:0:0:0:
56,158,171949,1,0,0:0:0:0:
105,149,172020,1,8,0:0:0:0:
256,248,172162,1,8,0:3:0:0:
253,272,172232,1,0,0:0:0:0:
250,297,172303,1,2,0:0:0:0:
247,321,172374,1,0,0:0:0:0:
244,346,172445,6,0,P|172:364|92:332,1,148.500005664826,12|0,0:0|0:0,0:0:0:0:
56,158,172870,1,2,0:0:0:0:
176,264,173011,1,0,0:0:0:0:
12,360,173153,2,0,L|4:252,1,74.2500028324128,2|0,0:0|0:0,0:0:0:0:
68,136,173436,1,2,0:0:0:0:
176,264,173577,6,0,L|184:96,1,148.500005664826
88,24,174002,1,2,0:0:0:0:
16,164,174143,1,0,0:0:0:0:
196,104,174285,1,2,0:0:0:0:
76,272,174426,1,0,0:0:0:0:
84,40,174568,1,2,0:0:0:0:
284,220,174709,1,0,0:0:0:0:
284,220,174780,1,0,0:0:0:0:
284,220,174851,6,0,L|300:108,1,99,12|2,0:0|0:0,0:0:0:0:
176,264,175134,1,2,0:0:0:0:
468,348,175276,2,0,L|460:236,1,99,12|8,0:0|0:0,0:0:0:0:
320,112,175559,1,2,0:0:0:0:
72,324,175700,6,0,L|188:312,1,99,8|2,0:0|0:0,0:0:0:0:
284,220,175983,1,2,0:0:0:0:
84,40,176125,2,0,L|96:156,1,99,2|2,0:0|0:0,0:0:0:0:
260,208,176408,1,2,0:0:0:0:
56,340,176549,1,12,0:0:0:0:
104,128,176691,1,0,0:0:0:0:
104,128,176761,1,0,0:0:0:0:
104,128,176832,1,8,0:0:0:0:
212,352,176974,1,0,0:0:0:0:
216,336,177044,1,0,0:0:0:0:
220,320,177115,6,0,P|172:328|112:312,1,99,8|2,0:0|0:0,0:0:0:0:
0,112,177398,2,0,P|80:120|168:88,1,148.5,12|0,0:0|0:0,0:0:0:0:
196,36,177681,1,2,0:0:0:0:
176,232,177823,1,2,0:0:0:0:
336,144,177964,2,0,B|332:24|332:24|308:68,1,148.5,8|0,0:0|0:0,0:0:0:0:
248,108,178247,5,2,0:0:0:0:
324,328,178389,1,2,0:0:0:0:
84,360,178530,2,0,L|88:236,1,99,8|0,0:0|0:0,0:0:0:0:
0,112,178813,1,2,0:0:0:0:
196,36,178955,1,2,0:0:0:0:
96,252,179096,1,8,0:0:0:0:
48,12,179238,1,0,0:0:0:0:
232,152,179379,6,0,B|307:145|307:145|345:113|345:113|418:107,1,198,2|8,0:0|0:0,0:0:0:0:
512,236,179804,1,0,0:0:0:0:
368,352,179945,2,0,L|352:240,1,99,2|0,0:0|0:0,0:0:0:0:
424,100,180228,1,8,0:0:0:0:
200,24,180370,6,0,P|184:116|224:216,1,198,6|2,0:0|0:0,0:0:0:0:
460,120,180794,1,8,0:0:0:0:
276,112,180936,1,0,0:0:0:0:
240,312,181077,2,0,L|384:296,1,132,8|4,0:0|0:3,0:0:0:0:
456,208,181360,2,0,L|336:200,1,99,2|0,0:0|0:0,0:0:0:0:
176,8,181643,5,6,0:0:0:0:
356,180,181785,1,0,0:0:0:0:
192,180,181926,1,2,0:0:0:0:
296,20,182068,1,2,0:0:0:0:
72,64,182209,2,0,P|104:160|84:268,1,198,8|0,0:0|0:0,0:0:0:0:
8,368,182634,1,2,0:0:0:0:
216,360,182776,6,0,L|214:257,1,99,0|8,0:0|0:0,0:0:0:0:
96,80,183059,1,2,0:0:0:0:
308,192,183200,1,2,0:0:0:0:
100,332,183342,2,0,L|96:156,1,148.5,8|0,0:0|0:0,0:0:0:0:
64,104,183625,1,0,0:0:0:0:
291,2,183766,6,0,P|276:99|308:192,1,198,6|2,0:0|0:0,0:0:0:0:
504,96,184191,2,0,P|456:84|388:92,1,99,0|2,0:0|0:0,0:0:0:0:
280,312,184474,2,0,P|384:280|488:312,1,198,8|0,0:0|0:0,0:0:0:0:
469,300,184898,1,2,0:0:0:0:
400,76,185040,5,0,0:0:0:0:
280,300,185181,1,8,0:0:0:0:
380,192,185323,1,2,0:0:0:0:
140,156,185464,1,2,0:0:0:0:
160,292,185606,1,8,0:0:0:0:
240,44,185747,1,2,0:0:0:0:
16,88,185889,1,8,0:0:0:0:
164,280,186030,1,0,0:0:0:0:
320,144,186172,5,2,0:0:0:0:
305,112,186242,1,0,0:0:0:0:
284,85,186313,1,0,0:0:0:0:
257,63,186384,1,0,0:0:0:0:
226,48,186455,1,0,0:0:0:0:
193,39,186525,1,0,0:0:0:0:
158,38,186596,1,0,0:0:0:0:
124,44,186667,1,0,0:0:0:0:
92,58,186738,5,2,0:0:0:0:
64,78,186808,1,0,0:0:0:0:
41,103,186879,1,0,0:0:0:0:
23,133,186950,1,0,0:0:0:0:
13,166,187021,1,8,0:0:0:0:
10,200,187091,1,0,0:0:0:0:
14,235,187162,1,0,0:0:0:0:
26,267,187233,1,0,0:0:0:0:
44,297,187304,5,6,0:0:0:0:
44,297,188294,6,0,P|61:199|41:103,1,198,6|2,0:0|0:0,0:0:0:0:
192,356,188718,1,8,0:0:0:0:
188,336,189001,1,2,0:0:0:0:
36,120,189143,1,2,0:0:0:0:
24,324,189284,1,8,0:0:0:0:
276,180,189426,6,0,B|354:186|354:186|391:218|391:218|463:224,1,198,6|2,0:0|0:0,0:0:0:0:
463,224,189850,1,8,0:0:0:0:
456,208,190133,1,2,0:0:0:0:
296,24,190275,1,2,0:0:0:0:
328,324,190416,1,8,0:0:0:0:
492,68,190558,6,0,B|450:55|416:74|416:74|374:54|374:54|298:60,1,198,6|2,0:0|0:0,0:0:0:0:
60,128,190982,1,12,0:0:0:0:
76,136,191266,1,0,0:0:0:0:
308,72,191407,1,2,0:0:0:0:
40,12,191549,1,8,0:0:0:0:
0,256,191690,6,0,P|93:282|180:238,1,198,6|2,0:0|0:0,0:0:0:0:
216,16,192115,1,12,0:0:0:0:
84,176,192256,1,0,0:0:0:0:
284,280,192398,1,8,0:0:0:0:
283,245,192468,1,0,0:0:0:0:
282,210,192539,1,8,0:3:0:0:
280,176,192610,1,4,0:3:0:0:
279,141,192681,2,0,L|212:132,1,49.5,2|0,0:0|0:0,0:0:0:0:
116,52,192823,2,0,L|166:45,1,49.5,4|0,0:3|0:0,0:0:0:0:
416,8,192964,6,0,P|400:104|440:208,1,198,6|8,0:0|0:0,0:0:0:0:
433,197,193530,1,2,0:0:0:0:
352,368,193672,1,2,0:0:0:0:
280,140,193813,1,0,0:0:0:0:
472,304,193955,1,8,0:0:0:0:
216,332,194096,6,0,P|204:280|212:232,1,99,0|2,0:0|0:0,0:0:0:0:
88,32,194379,2,0,L|92:130,1,99,8|0,0:0|0:0,0:0:0:0:
228,224,194662,1,2,0:0:0:0:
84,120,194804,1,2,0:0:0:0:
56,344,194945,1,8,0:0:0:0:
184,128,195087,1,8,0:0:0:0:
336,312,195228,6,0,P|248:332|164:296,1,148.5,6|0,0:0|0:0,0:0:0:0:
144,252,195511,1,8,0:0:0:0:
260,108,195653,1,0,0:0:0:0:
60,16,195794,2,0,L|72:140,1,99,2|2,0:0|0:0,0:0:0:0:
32,292,196077,1,0,0:0:0:0:
256,348,196219,6,0,P|232:252|264:144,1,198,8|2,0:0|0:0,0:0:0:0:
456,156,196643,1,0,0:0:0:0:
468,364,196785,2,0,B|393:360|393:360|354:333|354:333|278:329,1,198,8|2,0:0|0:0,0:0:0:0:
88,368,197209,1,8,0:0:0:0:
12,144,197351,1,0,0:0:0:0:
12,144,197422,1,0,0:0:0:0:
12,144,197492,6,0,B|88:147|88:147|127:174|127:174|203:178,1,198,6|8,0:0|0:0,0:0:0:0:
202,177,198059,1,2,0:0:0:0:
320,24,198200,1,2,0:0:0:0:
80,24,198342,2,0,L|88:140,1,99,0|8,0:0|0:0,0:0:0:0:
120,344,198625,5,0,0:0:0:0:
4,188,198766,1,2,0:0:0:0:
244,120,198908,2,0,B|238:191|238:191|210:233|210:233|203:317,1,198,8|2,0:0|0:0,0:0:0:0:
360,200,199332,1,2,0:0:0:0:
398,351,199474,2,0,L|496:348,1,99,8|2,0:0|0:0,0:0:0:0:
368,184,199757,5,12,0:0:0:0:
208,308,199898,1,2,0:0:0:0:
400,340,200040,1,2,0:0:0:0:
228,112,200181,5,12,0:0:0:0:
240,328,200323,1,2,0:0:0:0:
36,188,200464,1,2,0:0:0:0:
352,216,200606,5,6,0:0:0:0:
224,16,200747,1,2,0:0:0:0:
188,296,200889,1,12,0:0:0:0:
360,260,201030,1,2,0:0:0:0:
324,88,201172,1,12,0:0:0:0:
152,124,201313,1,2,0:0:0:0:
360,260,201455,5,0,0:0:0:0:
400,255,201525,1,0,0:0:0:0:
435,238,201596,1,2,0:0:0:0:
463,211,201667,1,0,0:0:0:0:
481,175,201738,1,0,0:0:0:0:
487,136,201808,1,0,0:0:0:0:
479,98,201879,1,0,0:0:0:0:
459,63,201950,1,0,0:0:0:0:
430,38,202021,6,0,P|376:48|312:32,1,99,12|2,0:0|0:0,0:0:0:0:
152,124,202304,1,2,0:0:0:0:
360,260,202445,1,12,0:0:0:0:
100,344,202587,2,0,P|91:295|98:247,1,99,2|2,0:0|0:0,0:0:0:0:
308,168,202870,1,12,0:0:0:0:
180,296,203011,1,2,0:0:0:0:
52,120,203153,6,0,L|164:124,1,99,2|12,0:0|0:0,0:0:0:0:
220,64,203365,1,0,0:0:0:0:
220,64,203436,2,0,P|272:72|340:48,1,99,2|2,0:0|0:0,0:0:0:0:
480,212,203719,1,12,0:0:0:0:
300,272,203860,1,2,0:0:0:0:
316,44,204002,1,8,0:0:0:0:
412,288,204143,1,2,0:0:0:0:
456,56,204285,5,12,0:0:0:0:
308,168,204427,2,0,L|192:156,1,99,2|2,0:0|0:0,0:0:0:0:
36,344,204710,1,12,0:0:0:0:
16,88,204851,2,0,L|132:76,1,99,4|4,0:0|0:0,0:0:0:0:
312,188,205134,2,0,P|292:112|320:28,1,148.5,12|0,0:0|0:0,0:0:0:0:
388,16,205417,5,8,0:0:0:0:
504,224,205606,1,2,0:0:0:0:
384,116,205795,1,2,0:0:0:0:
272,320,205983,6,0,B|300:336|300:336|424:328,1,148.5,8|2,0:0|0:0,0:0:0:0:
480,264,206267,1,0,0:0:0:0:
312,60,206408,1,0,0:0:0:0:
88,176,206550,6,0,B|94:239|94:239|117:277|117:277|124:347,1,178.199994561768,6|0,0:0|0:0,0:0:0:0:
124,347,206833,1,8,0:0:0:0:
256,108,206974,1,6,0:0:0:0:
256,108,207399,1,2,0:0:0:0:
256,108,207965,6,0,P|160:184|152:68,1,272.25,6|0,0:0|2:0,0:0:0:0:
208,28,208814,5,2,0:0:0:0:
384,60,208955,2,0,L|388:128,1,49.5,8|0,0:0|0:0,0:0:0:0:
352,196,209096,1,4,0:3:0:0:
484,352,209238,1,2,0:0:0:0:
512,154,209379,1,0,0:0:0:0:
485,174,209449,1,0,0:0:0:0:
453,189,209520,1,0,0:0:0:0:
420,198,209591,1,0,0:0:0:0:
385,200,209662,1,2,0:0:0:0:
351,196,209732,1,0,0:0:0:0:
318,186,209803,1,0,0:0:0:0:
288,169,209874,1,0,0:0:0:0:
261,147,209945,6,0,B|208:124|156:148|156:148|104:168|69:150,1,198,2|2,0:0|0:0,0:0:0:0:
112,48,210370,1,0,0:0:0:0:
216,248,210511,1,2,0:0:0:0:
8,232,210653,1,0,0:0:0:0:
216,64,210794,2,0,L|208:116,1,49.5,4|0,0:3|0:0,0:0:0:0:
108,288,210936,2,0,L|101:239,1,49.5,2|0,0:0|0:0,0:0:0:0:
332,356,211078,6,0,B|172:348|172:348|220:324,1,198,6|8,0:0|0:0,0:0:0:0:
206,331,211643,1,2,0:0:0:0:
408,264,211784,1,2,0:0:0:0:
68,240,211926,1,8,0:0:0:0:
280,72,212067,6,0,P|312:164|295:261,1,198,6|2,0:0|0:0,0:0:0:0:
84,360,212492,1,8,0:0:0:0:
84,360,212775,1,2,0:0:0:0:
16,76,212916,2,0,B|88:82|88:82|126:109|126:109|218:117,1,198,2|0,0:0|0:0,0:0:0:0:
388,8,213341,5,6,0:0:0:0:
456,192,213482,1,2,0:0:0:0:
204,116,213624,1,8,0:0:0:0:
500,88,213766,1,0,0:0:0:0:
304,292,213907,1,2,0:0:0:0:
276,24,214049,1,2,0:0:0:0:
200,220,214190,1,8,0:0:0:0:
416,204,214332,1,2,0:0:0:0:
160,52,214474,5,0,0:0:0:0:
160,52,214615,1,2,0:0:0:0:
404,104,214757,1,8,0:0:0:0:
404,104,214898,1,0,0:0:0:0:
200,220,215040,1,2,0:0:0:0:
304,24,215181,1,2,0:0:0:0:
392,280,215323,1,8,0:0:0:0:
236,92,215464,1,2,0:0:0:0:
484,24,215606,6,0,L|476:152,1,99,6|0,0:0|0:0,0:0:0:0:
416,168,215818,1,0,0:0:0:0:
388,188,215889,2,0,L|380:120,1,49.5
272,92,216030,2,0,L|280:24,1,49.5,2|0,0:0|0:0,0:0:0:0:
120,196,216172,1,2,0:0:0:0:
155,192,216242,1,0,0:0:0:0:
189,189,216313,1,2,0:0:0:0:
224,185,216384,1,0,0:0:0:0:
258,182,216455,1,8,0:0:0:0:
48,288,216596,6,0,P|11:198|39:105,1,198,6|2,0:0|0:0,0:0:0:0:
116,64,216950,1,0,0:0:0:0:
116,64,217021,1,12,0:0:0:0:
264,180,217162,1,2,0:0:0:0:
32,304,217304,1,12,0:0:0:0:
256,36,217445,2,0,P|268:96|252:160,1,111.375004248619,6|0,0:0|2:0,0:0:0:0:
377,236,217728,6,0,P|342:124|377:12,1,237.599992749024,6|2,0:0|0:0,0:0:0:0:
512,328,218153,2,0,P|456:312|397:317,1,118.799996374512,8|0,0:0|0:0,0:0:0:0:
212,172,218436,1,2,0:0:0:0:
472,128,218577,1,2,0:0:0:0:
240,368,218719,2,0,B|235:300|235:300|251:258|251:258|245:193,1,178.199994561768,8|0,0:0|0:0,0:0:0:0:
176,152,219002,6,0,P|160:92|180:24,1,118.799996374512,2|2,0:0|0:0,0:0:0:0:
468,16,219285,2,0,L|460:148,1,118.799996374512,8|0,0:0|0:0,0:0:0:0:
328,316,219568,1,2,0:0:0:0:
256,92,219709,1,2,0:0:0:0:
512,232,219851,2,0,P|424:208|320:232,1,178.199994561768,8|0,0:0|0:0,0:0:0:0:
260,184,220134,6,0,P|200:196|136:180,1,118.799996374512,2|2,0:0|0:0,0:0:0:0:
16,16,220417,1,8,0:0:0:0:
200,116,220559,1,0,0:0:0:0:
24,308,220700,2,0,L|20:180,1,118.799996374512,2|2,0:0|0:0,0:0:0:0:
20,8,220983,1,8,0:0:0:0:
276,8,221125,6,0,B|290:50|262:90|262:90|280:149|280:149|256:247,1,237.599992749024,6|2,0:0|0:0,0:0:0:0:
259,235,221478,1,0,0:0:0:0:
259,235,221549,1,8,0:0:0:0:
108,360,221691,1,0,0:0:0:0:
16,168,221832,1,2,0:0:0:0:
268,264,221974,1,0,0:0:0:0:
44,296,222115,1,8,0:0:0:0:
412,368,222257,6,0,P|440:254|395:146,1,237.599992749024,6|2,0:0|0:0,0:0:0:0:
184,44,222681,2,0,P|244:44|304:16,1,118.799996374512,8|0,0:0|0:0,0:0:0:0:
512,128,222964,1,2,0:0:0:0:
268,264,223106,1,2,0:0:0:0:
304,8,223247,1,8,0:0:0:0:
444,256,223389,1,0,0:0:0:0:
160,352,223530,6,0,P|133:268|148:188,1,158.399995166016,2|2,0:0|0:0,0:0:0:0:
228,132,223813,1,8,0:0:0:0:
328,364,223955,1,0,0:0:0:0:
48,336,224096,2,0,L|44:204,1,118.799996374512,2|2,0:0|0:0,0:0:0:0:
230,17,224379,2,0,P|242:74|228:132,1,118.799996374512,8|0,0:0|0:0,0:0:0:0:
32,204,224662,5,6,0:0:0:0:
292,308,224804,1,2,0:0:0:0:
108,120,224945,1,8,0:0:0:0:
200,356,225087,1,2,0:0:0:0:
20,176,225228,1,8,0:0:0:0:
336,136,225370,1,2,0:0:0:0:
24,48,225511,1,8,0:0:0:0:
304,284,225653,1,6,0:0:0:0:
160,40,225794,5,8,0:0:0:0:
161,75,225864,1,0,0:0:0:0:
162,111,225935,1,2,0:0:0:0:
163,146,226006,1,0,0:0:0:0:
164,182,226077,1,2,0:0:0:0:
165,218,226147,1,0,0:0:0:0:
166,253,226218,1,2,0:0:0:0:
167,289,226289,1,0,0:0:0:0:
168,325,226360,5,0,0:0:0:0:
384,360,226502,2,0,P|392:312|364:232,1,111.375004248619,0|0,3:0|2:0,0:0:0:0:
252,192,226785,6,0,P|368:215|480:182,1,237.599992749024,6|2,0:0|0:0,0:0:0:0:
196,4,227209,2,0,L|204:140,1,118.799996374512,8|0,0:0|0:0,0:0:0:0:
129,360,227492,2,0,P|117:302|137:247,1,118.799996374512,2|2,0:0|0:0,0:0:0:0:
388,76,227776,2,0,L|379:253,1,178.199994561768,8|0,0:0|0:0,0:0:0:0:
372,344,228059,5,2,0:0:0:0:
512,164,228200,1,2,0:0:0:0:
296,56,228342,1,8,0:0:0:0:
256,288,228483,2,0,B|344:212|448:280|448:280|440:324,1,237.599992749024,0|2,0:0|0:0,0:0:0:0:
177,352,228908,2,0,P|157:296|164:238,1,118.799996374512,8|0,0:0|0:0,0:0:0:0:
256,12,229191,6,0,L|252:148,1,118.799996374512,2|2,0:0|0:0,0:0:0:0:
40,248,229474,2,0,B|32:104|32:104|48:64,1,178.199994561768,8|0,0:0|0:0,0:0:0:0:
128,44,229757,1,2,0:0:0:0:
256,288,229898,1,2,0:0:0:0:
376,104,230040,2,0,P|432:116|512:100,1,118.799996374512,8|0,0:0|0:0,0:0:0:0:
504,344,230323,6,0,P|400:304|256:332,1,237.599992749024,6|8,0:0|0:0,0:0:0:0:
192,360,230676,1,8,0:0:0:0:
192,360,230747,2,0,B|184:268|184:268|213:221|213:221|205:130,1,237.599992749024,6|2,0:0|0:0,0:0:0:0:
20,20,231172,1,8,0:0:0:0:
292,64,231313,1,2,0:0:0:0:
76,192,231455,5,8,0:0:0:0:
324,168,231596,1,2,0:0:0:0:
204,352,231738,1,2,0:0:0:0:
152,116,231879,1,8,0:0:0:0:
408,108,232021,2,0,P|420:162|400:236,1,118.799996374512,2|2,0:0|0:0,0:0:0:0:
204,352,232304,2,0,P|190:294|202:237,1,118.799996374512,8|2,0:0|0:0,0:0:0:0:
64,16,232587,6,0,L|59:156,1,118.799996374512,12|2,0:0|0:0,0:0:0:0:
184,336,232870,1,8,0:0:0:0:
316,168,233011,1,2,0:0:0:0:
24,344,233153,2,0,L|16:208,1,118.799996374512,8|0,0:0|0:0,0:0:0:0:
112,176,233365,2,0,L|105:294,1,118.799996374512,8|0,0:3|0:0,0:0:0:0:
184,336,233577,6,0,B|276:344|276:344|326:320|326:320|418:328,1,237.599992749024,6|2,0:0|0:0,0:0:0:0:
488,112,234002,1,8,0:0:0:0:
256,244,234143,1,0,0:0:0:0:
500,364,234285,2,0,P|492:303|508:243,1,118.799996374512,2|2,0:0|0:0,0:0:0:0:
372,16,234568,2,0,P|387:73|379:131,1,118.799996374512,8|0,0:0|0:0,0:0:0:0:
236,264,234851,5,6,0:0:0:0:
221,255,234921,1,0,0:0:0:0:
204,249,234992,1,0,0:0:0:0:
187,243,235063,1,0,0:0:0:0:
170,240,235134,1,8,0:0:0:0:
152,238,235204,1,0,0:0:0:0:
134,237,235275,1,0,0:0:0:0:
116,238,235346,1,0,0:0:0:0:
99,241,235417,5,2,0:0:0:0:
58,217,235487,1,0,0:0:0:0:
31,179,235558,1,0,0:0:0:0:
22,133,235629,1,0,0:0:0:0:
34,87,235700,1,8,0:0:0:0:
63,51,235770,1,0,0:0:0:0:
106,30,235841,1,0,0:0:0:0:
153,29,235912,1,0,0:0:0:0:
196,48,235983,6,0,P|176:124|200:196,1,148.500005664826,4|0,0:0|0:0,0:0:0:0:
292,340,236408,2,0,L|296:176,1,148.500005664826,2|0,0:0|0:0,0:0:0:0:
436,148,236832,2,0,P|448:88|430:29,1,111.375004248619,2|0,0:0|0:0,0:0:0:0:
356,16,237115,6,0,L|207:23,1,148.500005664826,2|2,0:0|0:0,0:0:0:0:
0,176,237681,2,0,P|67:203|139:190,1,148.500005664826,2|0,0:0|0:0,0:0:0:0:
184,32,238106,1,2,0:0:0:0:
400,116,238247,6,0,L|396:236,1,99,6|2,0:0|0:0,0:0:0:0:
396,214,238459,1,0,0:0:0:0:
396,214,238530,1,2,0:0:0:0:
256,352,238672,1,8,0:0:0:0:
140,188,238813,2,0,B|307:173|307:173|281:189,1,198,2|2,0:0|0:0,0:0:0:0:
488,156,239238,1,8,0:0:0:0:
320,4,239379,6,0,P|310:50|326:106,1,99,2|2,0:0|0:0,0:0:0:0:
392,144,239592,1,0,0:0:0:0:
392,144,239662,1,2,0:0:0:0:
228,36,239804,1,8,0:0:0:0:
108,212,239945,2,0,P|132:116|108:16,1,198,2|2,0:0|0:0,0:0:0:0:
0,252,240370,1,0,0:0:0:0:
232,364,240511,6,0,L|228:252,1,99,6|0,0:0|0:0,0:0:0:0:
320,128,240794,1,2,0:0:0:0:
108,212,240936,1,8,0:0:0:0:
332,328,241077,2,0,L|328:216,1,99,2|0,0:0|0:0,0:0:0:0:
412,8,241360,2,0,P|419:56|408:104,1,99,2|8,0:0|0:0,0:0:0:0:
216,184,241643,5,2,0:0:0:0:
328,52,241785,1,0,0:0:0:0:
480,216,241926,1,10,0:0:0:0:
224,92,242068,1,8,0:0:0:0:
272,312,242209,1,2,0:0:0:0:
416,96,242351,1,0,0:0:0:0:
160,36,242492,1,2,0:0:0:0:
160,36,242563,1,0,0:0:0:0:
160,36,242634,1,0,0:0:0:0:
160,36,242705,1,0,0:0:0:0:
160,36,242776,6,0,P|112:136|144:240,1,198,6|8,0:0|0:0,0:0:0:0:
272,312,243200,1,8,0:0:0:0:
352,152,243342,2,0,L|240:144,1,99
68,324,243625,2,0,P|116:331|162:315,1,99,2|8,0:0|0:0,0:0:0:0:
248,132,243908,5,2,0:0:0:0:
104,240,244049,1,0,0:0:0:0:
260,360,244191,1,8,0:0:0:0:
160,140,244332,1,8,0:0:0:0:
68,324,244474,1,2,0:0:0:0:
20,96,244615,1,0,0:0:0:0:
240,256,244757,1,2,0:0:0:0:
265,250,244827,1,0,0:0:0:0:
289,244,244898,1,0,0:0:0:0:
313,239,244969,1,0,0:0:0:0:
337,233,245040,6,0,B|400:156|352:76|352:76|312:64,1,198,6|8,0:0|0:0,0:0:0:0:
160,140,245464,1,8,0:0:0:0:
245,354,245606,2,0,L|240:256,1,99,2|0,0:0|0:0,0:0:0:0:
228,64,245889,1,10,0:0:0:0:
336,232,246030,1,8,0:0:0:0:
120,160,246172,6,0,P|88:248|124:356,1,198,2|10,0:0|0:0,0:0:0:0:
276,364,246596,1,0,0:0:0:0:
344,200,246738,2,0,L|236:204,1,99,2|0,0:0|0:0,0:0:0:0:
245,203,246950,1,0,0:0:0:0:
245,203,247021,1,8,0:0:0:0:
172,20,247162,1,0,0:0:0:0:
172,20,247233,1,8,0:0:0:0:
172,20,247304,6,0,L|280:24,1,99,6|2,0:0|0:0,0:0:0:0:
456,16,247587,2,0,P|440:92|468:172,1,148.5,8|0,0:0|0:0,0:0:0:0:
512,220,247870,1,2,0:0:0:0:
372,372,248011,1,2,0:0:0:0:
248,204,248153,2,0,P|260:152|248:92,1,99,8|0,0:0|0:0,0:0:0:0:
56,8,248436,5,2,0:0:0:0:
140,264,248577,1,2,0:0:0:0:
336,68,248719,2,0,B|268:62|268:62|222:82|222:82|142:75,1,198,8|2,0:0|0:0,0:0:0:0:
0,208,249143,1,2,0:0:0:0:
56,8,249285,1,8,0:0:0:0:
140,264,249426,6,0,B|220:270|220:270|266:250|266:250|335:256,1,198,6|2,0:0|0:0,0:0:0:0:
504,368,249851,1,8,0:0:0:0:
508,360,250134,1,2,0:0:0:0:
332,256,250276,1,2,0:0:0:0:
512,160,250417,1,8,0:0:0:0:
252,348,250559,6,0,P|220:256|268:148,1,198,6|2,0:0|0:0,0:0:0:0:
388,4,250983,2,0,L|392:116,1,99,8|0,0:0|0:0,0:0:0:0:
392,102,251195,1,0,0:0:0:0:
392,102,251266,1,2,0:0:0:0:
504,244,251408,1,2,0:0:0:0:
252,164,251549,1,8,0:0:0:0:
416,360,251691,6,0,B|428:196|428:196|408:240,1,198,6|2,0:0|0:0,0:0:0:0:
252,96,252115,2,0,P|320:120|412:88,1,148.5,8|0,0:0|0:0,0:0:0:0:
476,124,252398,1,2,0:0:0:0:
408,340,252540,1,2,0:0:0:0:
328,24,252681,1,8,0:0:0:0:
256,248,252823,6,0,B|164:276|164:276|36:248,1,198,6|2,0:0|0:0,0:0:0:0:
24,56,253247,1,8,0:0:0:0:
160,180,253389,1,0,0:0:0:0:
12,372,253530,1,2,0:0:0:0:
36,160,253672,1,2,0:0:0:0:
136,348,253813,1,12,0:0:0:0:
220,92,253955,1,0,0:0:0:0:
336,220,254097,5,10,0:0:0:0:
64,144,254238,1,8,0:0:0:0:
60,160,254521,5,2,0:0:0:0:
412,112,254663,1,8,0:0:0:0:
420,128,254946,5,10,0:0:0:0:
60,12,255087,1,8,0:0:0:0:
48,28,255512,6,0,P|60:120|40:248,1,198,6|8,0:0|0:0,0:0:0:0:
28,248,255865,1,0,0:0:0:0:
58,251,255935,1,0,0:0:0:0:
87,255,256006,1,0,0:0:0:0:
117,259,256078,2,0,L|125:335,1,49.5,8|0,0:3|0:0,0:0:0:0:
252,356,256219,2,0,L|257:306,1,49.5,4|0,0:3|0:0,0:0:0:0:
224,156,256361,6,0,B|303:149|303:149|345:165|345:165|418:159,1,198,6|8,0:0|0:0,0:0:0:0:
512,16,256785,1,0,0:0:0:0:
296,16,256927,2,0,P|284:64|292:114,1,99,2|2,0:0|0:0,0:0:0:0:
476,232,257210,1,8,0:0:0:0:
268,364,257351,1,0,0:0:0:0:
268,364,257422,1,0,0:0:0:0:
268,364,257493,6,0,L|272:264,1,99,6|2,0:0|0:0,0:0:0:0:
44,152,257776,2,0,L|47:250,1,99,8|0,0:0|0:0,0:0:0:0:
208,36,258059,1,2,0:0:0:0:
280,248,258200,1,2,0:0:0:0:
32,140,258342,1,8,0:0:0:0:
232,20,258483,6,0,P|324:44|440:16,1,198,6|2,0:0|0:0,0:0:0:0:
508,232,258908,2,0,P|428:220|348:244,1,148.5,8|0,0:0|0:0,0:0:0:0:
312,308,259191,1,2,0:0:0:0:
500,372,259332,1,2,0:0:0:0:
456,120,259474,1,8,0:0:0:0:
296,296,259615,6,0,B|224:302|224:302|182:281|182:281|103:288,1,198,6|2,0:0|0:0,0:0:0:0:
12,96,260040,2,0,L|132:104,1,99,8|2,0:0|0:0,0:0:0:0:
296,24,260323,1,2,0:0:0:0:
200,268,260464,1,2,0:0:0:0:
364,144,260606,1,8,0:0:0:0:
140,24,260747,6,0,P|108:116|132:211,1,198,6|2,0:0|0:0,0:0:0:0:
392,182,261172,2,0,P|403:109|380:40,1,148.5,8|0,0:0|0:0,0:0:0:0:
208,120,261455,2,0,P|256:128|305:119,1,99,2|2,0:0|0:0,0:0:0:0:
500,12,261738,1,8,0:0:0:0:
484,280,261880,6,0,P|384:296|272:252,1,198,6|2,0:0|0:0,0:0:0:0:
264,24,262304,1,8,0:0:0:0:
392,192,262446,1,2,0:0:0:0:
192,312,262587,1,8,0:0:0:0:
344,84,262729,1,2,0:0:0:0:
92,88,262870,1,8,0:0:0:0:
292,268,263012,1,0,0:0:0:0:
220,96,263153,5,6,0:0:0:0:
192,312,263295,1,2,0:0:0:0:
296,152,263436,1,8,0:0:0:0:
68,256,263578,5,6,0:0:0:0:
304,128,263719,1,2,0:0:0:0:
260,360,263861,1,8,0:0:0:0:
96,132,264002,5,6,0:0:0:0:
236,360,264144,1,2,0:0:0:0:
276,40,264285,1,8,0:0:0:0:
104,172,264427,5,6,0:0:0:0:
236,344,264568,1,2,0:0:0:0:
408,212,264710,1,8,0:0:0:0:
276,40,264851,2,0,P|260:88|266:138,1,99,6|0,0:0|0:0,0:0:0:0:
440,332,265134,2,0,P|445:283|429:236,1,99,6|0,0:0|0:0,0:0:0:0:
256,140,265417,5,6,0:0:0:0:
168,356,265559,1,8,0:0:0:0:
168,356,265630,1,0,0:0:0:0:
168,356,265700,1,2,0:0:0:0:
368,296,265842,1,4,0:3:0:0:
60,180,265983,1,2,0:0:0:0:
192,360,266125,1,4,0:3:0:0:
256,88,266266,5,6,0:0:0:0:
256,192,266337,12,0,267681,0:0:0:0:
152,88,276738,6,0,P|81:108|9:93,2,148.500005664826,2|2|2,0:0|0:0|0:0,0:0:0:0:
296,40,277446,1,0,0:0:0:0:
284,192,277587,2,0,L|204:180,1,74.2500028324128,2|0,0:0|0:0,0:0:0:0:
392,128,277870,6,0,P|404:184|388:256,2,111.375004248619,2|0|0,0:0|0:0|0:0,0:0:0:0:
256,36,278436,1,2,0:0:0:0:
284,192,278578,1,0,0:0:0:0:
440,32,278719,2,0,L|336:24,1,74.2500028324128,2|0,0:0|0:0,0:0:0:0:
160,104,279002,6,0,P|231:120|302:100,1,148.500005664826,2|2,0:0|0:0,0:0:0:0:
424,192,279427,1,0,0:0:0:0:
316,344,279568,2,0,L|325:192,1,148.500005664826,2|2,0:0|0:0,0:0:0:0:
228,28,279993,1,0,0:0:0:0:
104,144,280134,6,0,P|71:152|29:149,1,74.2500028324128,2|0,0:0|0:0,0:0:0:0:
208,168,280417,2,0,P|216:135|239:100,1,74.2500028324128,2|0,0:0|0:0,0:0:0:0:
140,248,280700,2,0,P|163:271|182:309,1,74.2500028324128,2|0,0:0|0:0,0:0:0:0:
84,332,280983,1,2,0:0:0:0:
104,164,281125,1,0,0:0:0:0:
304,224,281266,6,0,P|314:297|298:369,1,148.500005664826,2|0,0:0|0:0,0:0:0:0:
180,112,281691,2,0,L|352:100,1,148.500005664826,2|0,0:0|0:0,0:0:0:0:
80,32,282115,2,0,P|159:107|57:147,1,259.875009913445,2|0,0:0|0:0,0:0:0:0:
12,244,282681,6,0,P|160:208|296:276,1,297,6|8,0:0|0:0,0:0:0:0:
377,234,283625,2,0,L|372:372,1,132
480,155,283955,1,0,0:0:0:0:
311,13,284096,2,0,B|334:85|334:85|318:169,1,148.5
320,156,284379,1,0,0:0:0:0:
213,250,284521,1,0,0:0:0:0:
63,179,284698,6,0,L|1:189,2,49.5
100,213,284875,2,0,B|199:220|199:220|165:249,1,123.75
180,236,285229,6,0,L|320:224,2,132,2|8|4,0:0|0:3|0:3,0:0:0:0:
384,112,285795,6,0,P|434:194|420:296,1,198,6|8,0:0|0:0,0:0:0:0:
188,224,286219,1,0,0:0:0:0:
240,32,286361,2,0,P|288:40|344:32,1,99,2|2,0:0|0:0,0:0:0:0:
512,176,286644,1,8,0:0:0:0:
364,348,286785,6,0,P|268:324|173:345,1,198,6|2,0:0|0:0,0:0:0:0:
0,208,287210,1,8,0:0:0:0:
0,208,287493,1,2,0:0:0:0:
184,332,287634,1,2,0:0:0:0:
240,32,287776,1,8,0:0:0:0:
108,244,287917,1,2,0:0:0:0:
16,32,288059,6,0,L|136:36,1,99,6|2,0:0|0:0,0:0:0:0:
344,16,288342,1,8,0:0:0:0:
200,176,288483,1,0,0:0:0:0:
201,225,288553,1,0,0:0:0:0:
218,271,288624,1,8,0:0:0:0:
250,309,288695,1,0,0:0:0:0:
292,334,288766,1,0,0:0:0:0:
340,344,288836,1,0,0:0:0:0:
389,338,288907,1,2,0:0:0:0:
433,315,288978,1,0,0:0:0:0:
467,280,289049,5,6,0:0:0:0:
466,280,290323,6,0,L|460:201,1,79.2,2|0,0:1|0:0,0:0:0:0:
512,28,290606,1,2,0:3:0:0:
448,188,290747,1,0,0:0:0:0:
360,72,290889,2,0,P|280:52|200:72,1,158.4,2|0,0:3|0:0,0:0:0:0:
124,192,291313,1,2,0:1:0:0:
208,315,291455,6,0,P|285:331|360:312,1,158.4,2|2,0:1|0:3,0:0:0:0:
408,140,291880,1,0,0:0:0:0:
280,244,292021,1,2,0:3:0:0:
432,348,292163,1,0,0:0:0:0:
344,192,292304,1,2,0:3:0:0:
208,316,292446,1,0,0:0:0:0:
88,72,292587,6,0,L|200:84,1,99,6|2,0:0|0:0,0:0:0:0:
384,48,292870,1,2,0:0:0:0:
200,104,293012,1,12,0:0:0:0:
372,272,293153,2,0,L|364:152,1,99,2|2,0:0|0:0,0:0:0:0:
147,173,293436,2,0,L|140:272,1,99,12|2,0:0|0:0,0:0:0:0:
288,44,293719,5,12,0:0:0:0:
56,120,293861,1,2,0:0:0:0:
168,304,294002,1,2,0:0:0:0:
152,24,294144,1,2,0:0:0:0:
324,168,294285,2,0,L|216:156,1,99,2|0,0:0|0:0,0:0:0:0:
32,328,294568,2,0,P|80:340|128:328,1,99,8|2,0:0|0:0,0:0:0:0:
216,136,294851,5,6,0:0:0:0:
320,348,294993,1,0,0:0:0:0:
320,348,295063,1,0,0:0:0:0:
320,348,295134,1,2,0:0:0:0:
512,192,295276,2,0,P|416:212|320:191,1,198,6|2,0:0|0:0,0:0:0:0:
256,8,295700,1,6,0:0:0:0:
420,112,295842,1,0,0:0:0:0:
192,288,295983,5,8,0:0:0:0:
192,288,296054,1,0,0:0:0:0:
192,288,296125,1,2,0:0:0:0:
324,76,296266,1,2,0:0:0:0:
324,76,296337,1,0,0:0:0:0:
324,76,296408,1,2,0:0:0:0:
424,316,296549,2,0,L|296:312,1,99,0|2,0:0|0:0,0:0:0:0:
64,360,296832,2,0,P|84:292|68:208,1,148.5,12|0,0:0|0:0,0:0:0:0:
8,120,297115,6,0,B|40:136|40:136|224:120,1,198,6|8,0:0|0:0,0:0:0:0:
388,20,297540,1,0,0:0:0:0:
508,200,297681,2,0,L|410:190,1,99,2|2,0:0|0:0,0:0:0:0:
212,112,297964,1,8,0:0:0:0:
244,348,298106,6,0,P|340:363|425:315,1,198,6|2,0:0|0:0,0:0:0:0:
160,192,298530,2,0,L|168:304,1,99,8|0,0:0|0:0,0:0:0:0:
300,84,298813,1,2,0:0:0:0:
44,12,298955,1,2,0:0:0:0:
156,176,299096,1,8,0:0:0:0:
360,16,299238,6,0,P|331:109|354:204,1,198,6|2,0:0|0:0,0:0:0:0:
512,280,299663,1,8,0:0:0:0:
416,116,299804,1,0,0:0:0:0:
240,204,299946,1,2,0:0:0:0:
492,192,300087,1,2,0:0:0:0:
232,72,300229,1,12,0:0:0:0:
504,24,300370,1,2,0:0:0:0:
372,304,300512,6,0,L|376:224,1,49.5,2|4,0:0|0:3,0:0:0:0:
408,120,300653,1,2,0:0:0:0:
228,316,300795,1,2,0:0:0:0:
472,276,300936,1,0,0:0:0:0:
144,240,301078,1,12,0:0:0:0:
500,108,301219,1,8,0:0:0:0:
504,96,301502,6,0,P|384:120|264:84,1,237.599992749024,6|2,0:0|0:0,0:0:0:0:
128,264,301927,1,8,0:0:0:0:
16,12,302068,1,0,0:0:0:0:
256,63,302210,2,0,P|264:122|247:178,1,118.799996374512,2|2,0:0|0:0,0:0:0:0:
36,364,302493,2,0,L|28:168,1,178.199994561768,8|0,0:0|0:0,0:0:0:0:
20,100,302776,5,2,0:0:0:0:
188,320,302917,1,2,0:0:0:0:
352,120,303059,2,0,P|264:128|164:100,1,178.199994561768,8|0,0:0|0:0,0:0:0:0:
72,196,303342,2,0,P|131:188|188:204,1,118.799996374512,2|2,0:0|0:0,0:0:0:0:
352,372,303625,1,8,0:0:0:0:
368,96,303766,1,0,0:0:0:0:
168,192,303908,6,0,L|180:316,1,118.799996374512,2|2,0:0|0:0,0:0:0:0:
188,320,304120,1,0,0:0:0:0:
196,332,304191,1,8,0:0:0:0:
72,196,304332,1,0,0:0:0:0:
316,184,304474,1,2,0:0:0:0:
44,72,304615,1,2,0:0:0:0:
368,32,304757,1,8,0:0:0:0:
188,320,304898,6,0,B|166:257|199:196|199:196|233:135|210:72,1,237.599992749024,6|2,0:0|0:0,0:0:0:0:
8,12,305323,2,0,L|16:140,1,118.799996374512,8|0,0:0|0:0,0:0:0:0:
40,160,305535,1,0,0:0:0:0:
68,188,305606,1,2,0:0:0:0:
240,76,305747,1,0,0:0:0:0:
4,116,305889,1,8,0:0:0:0:
80,344,306030,6,0,B|168:336|168:336|210:304|210:304|307:296,1,237.599992749024,6|2,0:0|0:0,0:0:0:0:
496,376,306455,2,0,P|488:317|503:260,1,118.799996374512,8|0,0:0|0:0,0:0:0:0:
376,52,306738,1,2,0:0:0:0:
308,280,306880,1,2,0:0:0:0:
512,148,307021,2,0,L|368:132,1,118.799996374512,8|2,0:0|0:0,0:0:0:0:
176,216,307304,5,6,0:0:0:0:
384,124,307446,1,2,0:0:0:0:
144,56,307587,1,8,0:0:0:0:
248,308,307729,1,2,0:0:0:0:
240,16,307870,1,8,0:0:0:0:
112,288,308012,1,2,0:0:0:0:
368,92,308153,1,8,0:0:0:0:
32,12,308295,6,0,L|40:148,1,118.799996374512,6|8,0:0|0:0,0:0:0:0:
64,160,308507,1,0,0:0:0:0:
92,188,308578,1,2,0:0:0:0:
300,368,308719,2,0,P|289:310|302:252,1,118.799996374512,2|2,0:0|0:0,0:0:0:0:
432,8,309002,2,0,L|428:132,1,118.799996374512,2|2,0:0|0:0,0:0:0:0:
500,352,309285,1,0,0:0:0:0:
272,240,309427,6,0,P|296:124|248:8,1,237.599992749024,6|2,0:0|0:0,0:0:0:0:
8,168,309851,1,12,0:0:0:0:
200,136,309993,1,2,0:0:0:0:
32,16,310134,1,8,0:0:0:0:
32,16,310205,1,0,0:0:0:0:
32,16,310276,6,0,L|24:128,1,111.375004248619,4|0,0:3|2:0,0:0:0:0:
0,224,310559,6,0,B|88:216|88:216|142:243|142:243|230:235,1,237.599992749024,6|2,0:0|0:0,0:0:0:0:
448,360,310983,2,0,P|441:301|454:243,1,118.799996374512,8|0,0:0|0:0,0:0:0:0:
340,28,311266,1,2,0:0:0:0:
240,224,311408,1,2,0:0:0:0:
476,228,311549,2,0,P|496:141|468:56,1,178.199994561768,8|0,0:0|0:0,0:0:0:0:
280,139,311832,6,0,P|337:155|396:148,1,118.799996374512,2|2,0:0|0:0,0:0:0:0:
464,352,312115,1,8,0:0:0:0:
184,376,312257,2,0,P|152:263|188:151,1,237.599992749024,0|2,0:0|0:0,0:0:0:0:
340,28,312681,1,8,0:0:0:0:
84,52,312823,1,0,0:0:0:0:
256,268,312964,6,0,L|388:252,1,118.799996374512,2|2,0:0|0:0,0:0:0:0:
456,112,313247,1,8,0:0:0:0:
244,280,313389,1,0,0:0:0:0:
184,64,313530,2,0,L|316:80,1,118.799996374512,2|2,0:0|0:0,0:0:0:0:
384,220,313813,1,8,0:0:0:0:
172,52,313955,1,0,0:0:0:0:
479,11,314096,6,0,P|492:69|477:126,1,118.799996374512,6|8,0:0|0:0,0:0:0:0:
456,160,314309,1,0,0:0:0:0:
436,192,314380,1,2,0:0:0:0:
232,296,314521,2,0,L|212:56,1,237.599992749024,6|2,0:0|0:0,0:0:0:0:
396,72,314946,1,8,0:0:0:0:
252,312,315087,1,2,0:0:0:0:
8,179,315229,6,0,P|65:167|124:177,1,118.799996374512,12|2,0:0|0:0,0:0:0:0:
216,376,315512,1,2,0:0:0:0:
68,256,315653,1,8,0:0:0:0:
232,80,315795,2,0,L|220:208,1,118.799996374512,2|2,0:0|0:0,0:0:0:0:
76,272,316078,1,8,0:0:0:0:
336,224,316219,1,2,0:0:0:0:
104,88,316361,5,8,0:0:0:0:
396,72,316502,1,2,0:0:0:0:
176,272,316644,1,8,0:0:0:0:
268,8,316785,1,2,0:0:0:0:
484,192,316927,2,0,P|425:183|368:198,1,118.799996374512,8|0,0:0|0:0,0:0:0:0:
308,120,317139,2,0,P|250:134|192:126,1,118.799996374512,8|0,0:3|0:0,0:0:0:0:
104,88,317351,6,0,P|128:188|72:312,1,237.599992749024,6|2,0:0|0:0,0:0:0:0:
0,108,317776,1,8,0:0:0:0:
236,192,317917,1,0,0:0:0:0:
124,360,318059,2,0,P|66:348|8:360,1,118.799996374512,2|2,0:0|0:0,0:0:0:0:
96,72,318342,2,0,P|153:83|212:72,1,118.799996374512,8|2,0:0|0:0,0:0:0:0:
484,192,318625,5,12,0:0:0:0:
316,352,318766,1,0,0:0:0:0:
319,298,318836,1,0,0:0:0:0:
322,245,318907,1,2,0:0:0:0:
200,82,319049,1,0,0:0:0:0:
204,123,319119,1,0,0:0:0:0:
208,164,319190,5,2,0:0:0:0:
155,139,319261,1,0,0:0:0:0:
96,144,319332,1,0,0:0:0:0:
49,178,319403,1,0,0:0:0:0:
25,232,319474,1,2,0:0:0:0:
32,290,319544,1,0,0:0:0:0:
68,336,319615,1,0,0:0:0:0:
123,358,319686,1,0,0:0:0:0:
184,354,319757,5,6,0:0:0:0:
204,308,320889,5,6,0:0:0:0:
228,264,321880,6,0,P|188:176|220:72,1,185.625007081032,6|0,0:0|0:0,0:0:0:0:
276,40,322304,5,8,0:0:0:0:
287,40,322374,1,0,0:0:0:0:
298,41,322445,1,0,0:0:0:0:
309,42,322516,1,0,0:0:0:0:
320,42,322587,1,2,0:0:0:0:
331,43,322657,1,0,0:0:0:0:
342,44,322728,1,8,0:0:0:0:
353,45,322799,1,0,0:0:0:0:
364,45,322870,1,2,0:0:0:0:
376,46,322940,1,0,0:0:0:0:
387,47,323011,1,0,0:0:0:0:
398,48,323082,1,0,0:0:0:0:
409,48,323153,6,0,L|384:164,1,111.375004248619,6|0,0:0|0:0,0:0:0:0:
460,208,323436,2,0,L|468:280,1,49.5,8|0,0:0|0:0,0:0:0:0:
328,352,323578,2,0,L|333:302,1,49.5,8|0,0:0|0:0,0:0:0:0:
268,160,323719,1,2,0:0:0:0:
237,144,323789,1,0,0:0:0:0:
202,140,323860,1,0,0:0:0:0:
169,147,323931,1,0,0:0:0:0:
139,165,324002,1,2,0:0:0:0:
117,191,324072,1,0,0:0:0:0:
104,223,324143,1,0,0:0:0:0:
103,258,324214,1,0,0:0:0:0:
113,291,324285,5,6,0:0:0:0:
256,192,324356,12,2,326549,0:0:0:0:
108,304,327398,5,2,0:0:0:0:
16,192,327681,1,0,0:0:0:0:
216,232,327964,1,0,0:0:0:0:
88,328,328247,1,2,0:0:0:0:
124,68,328530,1,0,0:0:0:0:
132,84,328813,5,2,0:0:0:0:
212,252,329096,1,0,0:0:0:0:
280,44,329379,1,0,0:0:0:0:
280,44,329521,1,2,0:0:0:0:
204,264,329804,2,0,L|216:100,1,148.5
212,104,330512,5,2,0:0:0:0:
56,196,330653,1,0,0:0:0:0:
48,208,330936,1,0,0:0:0:0:
296,360,331360,2,0,P|323:278|308:200,1,148.5
240,148,331926,1,2,0:0:0:0:
100,212,332076,1,0,0:0:0:0:
232,276,332226,5,0,0:0:0:0:
236,260,332526,1,2,0:0:0:0:
192,48,332692,1,0,0:0:0:0:
104,196,332952,5,0,0:0:0:0:
264,140,333160,1,2,0:0:0:0:
88,92,333374,1,0,0:0:0:0:
124,296,333601,1,0,0:0:0:0:
128,280,333895,1,2,0:0:0:0:
132,264,334349,1,2,0:0:0:0:
196,52,334621,5,0,0:0:0:0:
196,52,334721,2,0,L|192:16,2,24.75,2|0|0,0:0|0:0|0:0,0:0:0:0:
132,260,335081,1,0,0:0:0:0:
256,192,335342,1,2,0:0:0:0:
300,368,335626,1,0,0:0:0:0:
324,112,335978,5,2,0:0:0:0:
256,192,336066,12,0,340919,0:0:0:0:
