osu file format v11

[General]
AudioFilename: Mizuki Nana - Synchrogazer.mp3
AudioLeadIn: 0
PreviewTime: 58336
Countdown: 0
SampleSet: Normal
StackLeniency: 0.7
Mode: 0
LetterboxInBreaks: 1

[Editor]
DistanceSpacing: 1.2
BeatDivisor: 4
GridSize: 8

[Metadata]
Title:Synchrogazer
TitleUnicode:Synchrogazer
Artist:Mizuki Nana
ArtistUnicode:水樹奈々
Creator:minyeob
Version:Insane
Source:Senki Zesshou Symphogear
Tags:
BeatmapID:207682
BeatmapSetID:72751

[Difficulty]
HPDrainRate:7
CircleSize:5
OverallDifficulty:7
ApproachRate:8
SliderMultiplier:1.8
SliderTickRate:1

[Events]
//Background and Video events
0,0,"symphogear.jpg"
//Break Periods
2,15894,20982
2,91367,96454
2,103442,105511
2,190989,201360
//Storyboard Layer 0 (Background)
//Storyboard Layer 1 (Fail)
//Storyboard Layer 2 (Pass)
//Storyboard Layer 3 (Foreground)
//Storyboard Sound Samples
//Background Colour Transformations
3,100,163,162,255

[TimingPoints]
2110,377.358490566038,4,1,0,80,1,0
51827,-200,4,2,0,80,0,0
56167,-100,4,1,0,80,0,0
175695,-100,4,1,0,80,0,1
190695,-100,4,2,0,80,0,1
190884,-100,4,1,0,80,0,0
258525,-100,4,1,0,50,0,0
261732,-100,4,1,0,20,0,0

[Colours]
Combo1 : 255,0,255
Combo2 : 255,128,128
Combo3 : 0,128,255
Combo4 : 192,192,192

[HitObjects]
256,40,2110,5,0,0:0:0
256,40,2204,1,0,0:0:0
256,344,2676,1,0,0:0:0
256,344,2770,1,0,0:0:0
256,344,3242,1,0,0:0:0
154,236,3620,5,0,0:0:0
154,236,3713,1,0,0:0:0
154,236,3808,1,0,0:0:0
362,236,3996,1,0,0:0:0
362,236,4089,1,0,0:0:0
362,236,4184,1,0,0:0:0
256,52,4562,1,0,0:0:0
256,52,4751,1,0,0:0:0
155,92,4940,6,0,P|101:68,2,45
256,128,5317,1,0,0:0:0
356,97,5506,2,0,P|397:78,2,45,0|0|0,0:0|0:0|0:0,0:0:0
354,319,6072,1,0,0:0:0
255,361,6260,1,0,0:0:0
155,319,6449,1,0,0:0:0
256,282,6638,2,0,P|257:143,1,135
257,16,7204,1,0,0:0:0
257,16,7393,1,0,0:0:0
257,16,7770,1,0,0:0:0
256,192,8147,12,0,9279,0:0:0
256,368,9657,6,0,P|256:176,1,180
256,16,10223,2,0,P|256:196,1,180
72,192,10789,2,0,P|256:192,1,180
440,192,11355,2,0,P|256:192,1,180
256,72,11921,1,0,0:0:0
256,72,12298,1,0,0:0:0
166,158,12676,6,0,P|211:206|203:288,1,135
187,320,13053,1,0,0:0:0
346,226,13242,2,0,P|301:178|300:111,1,135
325,64,13619,1,0,0:0:0
202,19,13808,2,0,P|169:59|73:76,1,135
43,104,14185,1,0,0:0:0
97,256,14374,2,0,P|134:219|204:219,1,90
248,136,14751,2,0,P|243:180|209:221,1,90
226,323,15128,2,0,P|196:291|196:242,1,90
410,229,15694,1,0,0:0:0
256,192,21732,12,0,24374,0:0:0
46,313,24752,6,0,P|67:265|103:242,1,90
124,85,25129,2,0,P|159:118|172:173,1,90
208,259,25506,1,0,0:0:0
299,201,25695,2,0,P|332:238|388:250,2,90
392,147,26261,1,0,0:0:0
498,130,26450,2,0,P|443:60|354:31,1,180
255,63,27016,2,0,P|221:150,1,90
222,146,27299,1,0,0:0:0
222,146,27393,1,0,0:0:0
131,204,27582,1,0,0:0:0
117,96,27770,1,0,0:0:0
55,288,28148,6,0,P|51:333|4:360,2,90
13,188,28714,2,0,P|112:174|136:269,1,180
120,339,29280,2,0,P|217:341|251:258,1,180
349,228,29846,2,0,P|441:224|467:308,1,180
367,329,30412,1,0,0:0:0
470,77,30789,5,4,0:0:0
371,122,30978,1,0,0:0:0
395,16,31167,1,0,0:0:0
294,55,31355,1,0,0:0:0
268,160,31544,2,0,P|288:210,2,45
268,160,31827,1,0,0:0:0
268,160,31921,1,0,0:0:0
168,118,32110,2,0,P|143:163|93:203,1,90
33,340,32487,6,0,P|116:295|226:265,1,180
213,163,33053,1,0,0:0:0
306,216,33242,1,0,0:0:0
275,319,33431,1,0,0:0:0
381,301,33620,2,0,P|416:344,2,45
414,198,33997,1,0,0:0:0
356,106,34186,6,0,P|466:74,2,90
250,81,34752,2,0,P|313:15,2,90
250,81,35318,1,0,0:0:0
91,113,35601,1,0,0:0:0
121,272,35884,1,0,0:0:0
225,246,36072,1,0,0:0:0
196,350,36261,1,0,0:0:0
221,358,36355,1,0,0:0:0
247,365,36450,1,0,0:0:0
347,326,36638,6,0,P|378:298|367:239,2,90
489,213,37204,1,4,0:0:0
489,213,37393,2,0,P|445:164|327:142,1,180
161,92,37959,2,0,P|159:46|190:18,2,90
81,233,38619,1,0,0:0:0
81,233,38714,1,0,0:0:0
171,290,38903,1,0,0:0:0
81,351,39091,5,0,0:0:0
256,88,39374,1,0,0:0:0
431,351,39657,1,0,0:0:0
340,290,39846,5,0,0:0:0
424,236,40035,1,0,0:0:0
345,162,40223,2,0,P|263:139|154:173,1,180,4|0,0:0|0:0,0:0:0
77,110,40789,1,0,0:0:0
74,218,40978,1,0,0:0:0
171,264,41167,1,0,0:0:0
171,264,41355,1,0,0:0:0
256,56,41638,1,0,0:0:0
344,263,41921,1,0,0:0:0
256,192,42110,1,0,0:0:0
256,352,42393,1,0,0:0:0
24,140,42676,6,0,P|97:102|220:82,1,180,4|0,0:0|0:0,0:0:0
289,35,43242,2,0,P|325:82|328:126,1,90
251,190,43619,1,0,0:0:0
334,258,43808,1,0,0:0:0
251,190,43997,1,0,0:0:0
459,50,44186,6,0,P|451:122|389:212,1,180,4|0,0:0|0:0,0:0:0
453,298,44752,1,0,0:0:0
349,327,44940,1,0,0:0:0
282,241,45129,1,0,0:0:0
310,136,45318,1,0,0:0:0
310,136,45412,1,0,0:0:0
84,39,45695,6,0,P|41:117|136:157|56:232,1,180
22,306,46261,1,0,0:0:0
130,305,46450,1,0,0:0:0
130,305,46544,1,0,0:0:0
130,305,46638,2,0,P|200:347|252:266|340:333,2,180
149,254,47487,1,0,0:0:0
84,167,47676,1,0,0:0:0
114,122,47770,1,0,0:0:0
33,49,47959,1,0,0:0:0
33,49,48148,2,0,P|60:99|40:147,1,90
7,227,48525,2,0,P|-22:285,4,45
195,250,49091,6,0,P|261:222,1,45
485,71,49469,1,0,0:0:0
378,82,49657,1,0,0:0:0
378,82,49846,2,0,P|339:48,1,45
344,52,50223,1,0,0:0:0
239,78,50412,2,0,P|190:102,3,45
156,131,50789,2,0,P|157:170|102:182,1,90
24,127,51167,1,0,0:0:0
24,127,51261,2,0,P|24:31,1,90
24,37,51544,1,4,0:0:0
128,10,51733,1,0,0:0:0
208,76,51921,6,0,P|298:51,1,90
400,76,52676,1,0,0:0:0
400,76,53053,2,0,P|465:256,1,180
391,325,54186,2,0,P|366:367,2,45
249,344,54940,2,0,P|101:374,2,135
309,266,56261,5,4,0:0:0
309,266,56638,1,0,0:0:0
310,157,56827,1,0,0:0:0
86,53,57016,1,0,0:0:0
86,157,57204,1,0,0:0:0
312,53,57393,1,0,0:0:0
197,52,57582,1,0,0:0:0
197,52,57770,2,0,P|196:169,1,90
196,172,58053,1,0,0:0:0
368,119,58336,1,0,0:0:0
434,278,58525,1,0,0:0:0
434,278,58620,1,0,0:0:0
434,278,58714,2,0,P|395:242|384:192,1,90
331,192,58997,2,0,P|277:221|204:237,1,135
101,221,59469,5,0,0:0:0
71,325,59657,1,0,0:0:0
175,299,59846,1,0,0:0:0
208,196,60035,2,0,P|182:151,2,45
308,236,60412,1,0,0:0:0
289,129,60601,1,0,0:0:0
390,165,60789,1,0,0:0:0
368,59,60978,5,0,0:0:0
264,26,61167,2,0,P|274:69,3,45
274,68,61544,1,0,0:0:0
167,89,61733,1,0,0:0:0
478,206,61921,2,0,P|410:147|301:132,1,180
384,39,62487,1,0,0:0:0
225,72,62770,1,0,0:0:0
225,72,62865,1,0,0:0:0
245,178,63053,2,0,P|244:230|213:250,2,90
142,142,63619,1,0,0:0:0
38,291,63808,5,0,0:0:0
38,291,63997,2,0,P|96:248|217:226,1,180
304,251,64563,2,0,P|319:294,2,45
217,316,64940,1,0,0:0:0
308,373,65129,1,0,0:0:0
334,367,65223,1,0,0:0:0
360,361,65318,1,0,0:0:0
386,356,65412,1,0,0:0:0
412,351,65506,5,0,0:0:0
479,203,65789,1,0,0:0:0
414,54,66072,2,0,P|387:25|286:104|227:36,1,180
137,14,66638,1,0,0:0:0
111,19,66733,1,0,0:0:0
85,25,66827,1,0,0:0:0
59,30,66921,1,0,0:0:0
33,35,67016,5,0,0:0:0
92,185,67299,1,0,0:0:0
34,336,67582,2,0,P|90:372|147:301|227:355,1,180
313,318,68148,1,0,0:0:0
233,245,68336,2,0,P|214:198,2,45
337,213,68714,1,0,0:0:0
337,213,68808,1,0,0:0:0
337,213,68903,1,0,0:0:0
261,135,69091,1,0,0:0:0
364,104,69280,1,0,0:0:0
282,33,69469,2,0,P|338:19,2,45
282,33,69752,1,0,0:0:0
282,33,69846,1,0,0:0:0
178,64,70035,5,0,0:0:0
141,81,70129,1,0,0:0:0
109,105,70223,1,0,0:0:0
82,135,70318,1,0,0:0:0
71,174,70412,1,0,0:0:0
69,214,70506,1,0,0:0:0
79,253,70601,1,0,0:0:0
239,316,70789,5,0,0:0:0
229,277,70884,1,0,0:0:0
231,237,70978,1,0,0:0:0
242,198,71072,1,0,0:0:0
269,168,71167,1,0,0:0:0
301,144,71261,1,0,0:0:0
338,127,71355,1,0,0:0:0
410,26,71544,5,0,0:0:0
442,49,71638,1,0,0:0:0
468,79,71733,1,0,0:0:0
484,115,71827,1,0,0:0:0
495,153,71921,1,0,0:0:0
497,193,72016,1,0,0:0:0
486,231,72110,1,0,0:0:0
465,265,72204,1,0,0:0:0
437,295,72299,1,0,0:0:0
405,319,72393,1,0,0:0:0
367,333,72487,1,0,0:0:0
327,343,72582,1,0,0:0:0
286,345,72676,1,0,0:0:0
316,241,72865,1,0,0:0:0
214,277,73053,6,0,P|176:313|126:322,1,90
140,322,73336,1,0,0:0:0
39,362,73525,1,0,0:0:0
39,362,73619,1,0,0:0:0
63,257,73808,1,0,0:0:0
6,164,73997,2,0,P|68:116|176:106,1,180
246,31,74563,1,0,0:0:0
344,76,74752,1,0,0:0:0
256,138,74940,1,0,0:0:0
256,138,75035,1,0,0:0:0
256,138,75129,1,0,0:0:0
351,189,75318,1,0,0:0:0
18,291,75506,6,0,P|74:258|203:213,1,180
258,298,76072,1,0,0:0:0
258,74,76355,1,0,0:0:0
258,74,76450,1,0,0:0:0
152,52,76638,1,0,0:0:0
99,141,76827,1,0,0:0:0
258,196,77110,1,0,0:0:0
410,148,77393,1,0,0:0:0
358,243,77582,1,0,0:0:0
258,74,77865,1,0,0:0:0
157,243,78148,1,0,0:0:0
157,243,78242,1,0,0:0:0
157,243,78336,2,0,P|157:350,1,90
357,333,78714,2,0,P|357:237,1,90
453,194,79091,5,4,0:0:0
304,37,79469,1,0,0:0:0
392,98,79657,1,0,0:0:0
296,149,79846,2,0,P|215:186|105:214,1,180,4|0,0:0|0:0,0:0:0
23,180,80412,1,0,0:0:0
53,283,80601,1,4,0:0:0
157,309,80789,1,0,0:0:0
250,254,80978,1,0,0:0:0
291,269,81072,1,0,0:0:0
333,285,81167,1,0,0:0:0
385,379,81355,1,0,0:0:0
484,335,81544,1,0,0:0:0
428,242,81733,1,0,0:0:0
102,67,82110,5,0,0:0:0
30,148,82299,2,0,P|2:155|4:179,2,45
73,246,82676,2,0,P|70:258|42:265,2,45
173,286,83053,2,0,P|208:306,9,22.5
146,364,83620,2,0,P|228:365|339:341,1,180
323,346,84186,1,0,0:0:0
297,241,84374,1,0,0:0:0
297,241,84469,1,0,0:0:0
297,241,84563,1,0,0:0:0
400,271,84752,2,0,P|440:246|456:189,1,90
512,113,85129,6,0,P|436:74|342:55,1,180,4|0,0:0|0:0,0:0:0
280,142,85695,1,0,0:0:0
280,142,85789,1,0,0:0:0
280,142,85884,2,0,P|312:242,1,90
233,306,86261,2,0,P|204:208,1,90
8,116,86638,6,0,P|84:78|188:55,1,180,4|0,0:0|0:0,0:0:0
169,164,87204,1,0,0:0:0
67,202,87393,1,0,0:0:0
58,309,87582,1,0,0:0:0
58,309,87770,2,0,P|149:287|248:224,1,180,0|0,0:0|0:0,0:0:0
378,193,88431,1,0,0:0:0
378,193,88525,1,0,0:0:0
281,144,88714,1,0,0:0:0
297,250,88903,2,0,P|324:346,1,90
363,83,89280,2,0,P|332:-12,1,90
256,192,89657,12,4,91167,0:0:0
41,153,97204,6,0,P|125:111|233:84,1,180
299,144,97770,2,0,P|322:189,1,45
319,184,97959,1,0,0:0:0
404,250,98148,1,0,0:0:0
431,146,98336,1,4,0:0:0
81,238,98714,5,0,0:0:0
108,134,98903,1,0,0:0:0
192,199,99091,1,0,0:0:0
192,199,99186,2,0,P|213:240,1,45
304,296,99469,2,0,P|387:273|471:231,1,180,0|4,0:0|0:0,0:0:0
125,283,100223,5,0,0:0:0
116,266,100318,1,0,0:0:0
101,255,100412,1,0,0:0:0
85,245,100506,1,0,0:0:0
67,242,100601,1,0,0:0:0
21,329,100789,5,0,0:0:0
203,223,100978,1,0,0:0:0
190,199,101072,1,0,0:0:0
172,177,101167,1,0,0:0:0
148,164,101261,1,0,0:0:0
121,161,101355,1,0,0:0:0
21,329,101544,1,0,0:0:0
106,45,101733,5,0,0:0:0
146,42,101827,1,0,0:0:0
185,48,101921,1,0,0:0:0
223,60,102016,1,0,0:0:0
256,82,102110,1,0,0:0:0
284,110,102204,1,0,0:0:0
300,147,102299,1,0,0:0:0
310,185,102393,1,0,0:0:0
308,225,102487,1,0,0:0:0
344,355,102676,1,0,0:0:0
384,225,102865,1,0,0:0:0
418,355,103053,1,0,0:0:0
459,227,103242,1,4,0:0:0
94,187,106261,5,4,0:0:0
188,238,106450,2,0,P|198:188|132:163,1,90
128,64,106827,2,0,P|213:57|266:163,1,180
451,238,107582,1,0,0:0:0
371,310,107770,2,0,P|379:357|331:370,2,90
264,328,108336,2,0,P|284:249|385:217,1,180
441,132,108903,1,4,0:0:0
336,101,109091,6,0,P|369:11,2,90
232,70,109657,2,0,P|268:173,2,90
126,96,110223,2,0,P|162:-1,2,90
34,152,110789,2,0,P|29:164|48:156|37:170|52:154|37:167|52:160|38:169|57:164|41:172|61:162|45:173|64:164|49:176|67:165|52:177|65:168|50:180|68:170|53:183|72:171|57:185|79:172|63:188|68:190|68:190|82:180|72:191|197:200,1,180
294,172,111355,1,0,0:0:0
294,172,111733,1,0,0:0:0
261,274,111921,1,0,0:0:0
367,252,112110,1,0,0:0:0
393,147,112299,6,0,P|437:152|437:152|468:193,2,90,4|0|0,0:0|0:0|0:0,0:0:0
316,70,112865,2,0,P|252:97|201:118|201:118|133:105,1,180
41,81,113431,1,0,0:0:0
71,184,113620,1,0,0:0:0
123,173,113714,1,0,0:0:0
165,206,113808,1,0,0:0:0
91,273,113997,1,0,0:0:0
91,273,114186,1,0,0:0:0
19,353,114374,1,0,0:0:0
64,383,114469,1,0,0:0:0
117,377,114563,1,0,0:0:0
194,301,114752,5,0,0:0:0
219,309,114846,1,0,0:0:0
244,317,114940,1,0,0:0:0
270,324,115035,1,0,0:0:0
295,332,115129,1,0,0:0:0
320,339,115223,1,0,0:0:0
345,347,115318,1,4,0:0:0
445,309,115506,5,0,0:0:0
363,237,115695,2,0,P|332:214|332:214|333:148,2,90
460,190,116261,2,0,P|512:204|512:204|512:257,2,90
460,190,116827,1,0,0:0:0
257,56,117110,1,0,0:0:0
257,298,117393,1,0,0:0:0
132,193,117582,5,0,0:0:0
65,277,117770,2,0,P|26:246,4,45
118,266,118242,1,0,0:0:0
118,266,118336,1,0,0:0:0
434,333,118714,2,0,P|479:299,2,45,4|0|0,0:0|0:0|0:0,0:0:0
336,285,119091,1,0,0:0:0
416,105,119469,2,0,P|416:12,2,90
321,157,120035,1,0,0:0:0
321,157,120223,1,0,0:0:0
321,157,120412,2,0,P|321:62,1,90
322,34,120695,1,0,0:0:0
221,73,120884,1,0,0:0:0
63,36,121167,1,0,0:0:0
127,122,121355,6,0,P|163:158|171:202,1,90
12,328,121733,2,0,P|94:285|201:262,1,180,4|0,0:0|0:0,0:0:0
158,370,122299,1,0,0:0:0
261,339,122487,1,0,0:0:0
298,237,122676,1,0,0:0:0
467,354,122865,6,0,P|399:280|371:192,1,180
457,138,123431,1,0,0:0:0
353,107,123620,1,0,0:0:0
186,211,123903,1,0,0:0:0
80,78,124185,5,0,0:0:0
80,78,124280,1,0,0:0:0
80,78,124374,1,0,0:0:0
183,108,124563,2,0,P|225:68,2,45
109,187,124940,1,0,0:0:0
213,214,125129,1,0,0:0:0
213,214,125223,1,0,0:0:0
24,345,125412,6,0,P|94:320|190:296,1,135
206,307,125789,1,0,0:0:0
258,320,125884,1,0,0:0:0
360,285,126072,1,0,0:0:0
280,211,126261,1,0,0:0:0
377,163,126450,1,0,0:0:0
292,96,126638,2,0,P|224:61|162:47,1,135
122,77,127016,1,0,0:0:0
22,118,127204,1,0,0:0:0
111,179,127393,2,0,P|188:152,4,45
24,244,127959,5,0,0:0:0
24,244,128053,1,0,0:0:0
24,244,128148,2,0,P|92:286|220:308,1,180
291,275,128714,2,0,P|326:243|326:180,2,90
261,378,129280,1,0,0:0:0
491,194,129657,1,0,0:0:0
256,48,130035,1,0,0:0:0
215,147,130223,1,0,0:0:0
135,73,130412,6,0,P|113:34,2,45
135,311,130789,2,0,P|113:350,2,45
377,311,131167,2,0,P|399:350,2,45
377,73,131544,2,0,P|399:34,2,45
272,102,131921,1,0,0:0:0
272,102,132016,1,0,0:0:0
259,263,132299,1,0,0:0:0
153,240,132487,1,0,0:0:0
153,240,132582,1,0,0:0:0
153,240,132676,2,0,P|152:140,2,90
48,182,133242,1,0,0:0:0
57,271,133431,5,0,0:0:0
133,327,133620,1,0,0:0:0
172,336,133714,1,0,0:0:0
211,342,133808,1,0,0:0:0
287,369,133997,1,0,0:0:0
326,362,134091,1,0,0:0:0
366,355,134186,1,0,0:0:0
444,334,134374,2,0,P|455:305|472:240,1,90
459,167,134752,2,0,P|424:140|376:120,2,90
394,216,135318,1,0,0:0:0
320,182,135506,1,0,0:0:0
282,197,135601,1,0,0:0:0
244,211,135695,1,0,0:0:0
171,175,135884,1,0,0:0:0
171,175,136072,1,0,0:0:0
171,175,136261,1,0,0:0:0
141,250,136450,5,0,0:0:0
102,239,136544,1,0,0:0:0
71,212,136638,1,0,0:0:0
67,171,136733,1,0,0:0:0
75,131,136827,1,0,0:0:0
123,58,137016,1,0,0:0:0
215,70,137204,1,0,0:0:0
254,81,137299,1,0,0:0:0
285,105,137393,1,0,0:0:0
296,143,137487,1,0,0:0:0
285,182,137582,1,0,0:0:0
235,263,137770,1,0,0:0:0
235,263,137959,1,0,0:0:0
325,322,138148,1,0,0:0:0
359,300,138242,1,0,0:0:0
385,269,138336,1,0,0:0:0
403,232,138431,1,0,0:0:0
414,193,138525,1,0,0:0:0
413,152,138620,1,0,0:0:0
404,112,138714,1,0,0:0:0
329,144,138903,1,0,0:0:0
329,144,139091,6,0,P|248:188|144:196,1,180
130,117,139657,1,0,0:0:0
130,117,139846,1,0,0:0:0
130,117,140035,2,0,P|213:75|316:70,1,180
398,31,140601,1,0,0:0:0
368,134,140789,1,0,0:0:0
474,114,140978,2,0,P|490:161|487:217,1,90
446,299,141355,1,0,0:0:0
373,218,141544,2,0,P|296:265|190:274,1,180
144,363,142110,2,0,P|104:355|65:317,1,90
35,298,142393,5,0,0:0:0
7,268,142487,1,0,0:0:0
25,189,142676,1,0,0:0:0
63,175,142770,1,0,0:0:0
103,167,142865,1,0,0:0:0
124,239,143053,1,0,0:0:0
124,239,143148,1,0,0:0:0
124,239,143242,2,0,P|160:268|208:268,1,90
241,198,143620,2,0,P|210:162|207:111,1,90
129,92,143997,1,0,0:0:0
193,42,144186,1,0,0:0:0
270,63,144374,1,0,0:0:0
300,138,144563,1,0,0:0:0
300,138,144752,5,0,0:0:0
355,79,144940,1,0,0:0:0
382,155,145129,1,0,0:0:0
437,95,145318,1,0,0:0:0
464,171,145506,1,0,0:0:0
446,207,145601,1,0,0:0:0
419,236,145695,1,0,0:0:0
386,259,145789,1,0,0:0:0
348,274,145884,1,0,0:0:0
308,283,145978,1,0,0:0:0
267,283,146072,1,0,0:0:0
267,242,146167,1,0,0:0:0
268,201,146261,1,0,0:0:0
227,201,146355,1,0,0:0:0
187,210,146449,1,0,0:0:0
149,225,146544,1,0,0:0:0
116,248,146638,1,0,0:0:0
89,277,146732,1,0,0:0:0
72,313,146827,1,0,0:0:0
149,359,147016,5,4,0:0:0
357,304,147393,2,0,P|400:289|421:240,1,90
492,215,147770,2,0,P|477:168|431:152,1,90
388,90,148148,2,0,P|339:106|333:160,1,90
251,165,148525,1,0,0:0:0
309,220,148713,1,0,0:0:0
309,220,148808,1,0,0:0:0
230,241,148997,1,0,0:0:0
230,241,149091,2,0,P|194:272|140:274,1,90
74,298,149469,2,0,P|68:338|24:372,2,90
107,216,150035,1,0,0:0:0
33,181,150223,1,0,0:0:0
33,181,150318,1,0,0:0:0
33,181,150412,1,0,0:0:0
33,181,150601,1,0,0:0:0
97,133,150789,1,0,0:0:0
97,133,150978,1,0,0:0:0
97,133,151072,1,0,0:0:0
97,133,151167,1,0,0:0:0
171,163,151355,1,0,0:0:0
188,242,151544,5,0,0:0:0
249,189,151733,2,0,P|332:167|435:158,1,180
425,158,152204,1,0,0:0:0
425,158,152299,1,0,0:0:0
484,103,152487,1,0,0:0:0
410,68,152676,1,0,0:0:0
410,68,152865,1,0,0:0:0
333,93,153053,1,4,0:0:0
333,93,153431,5,0,0:0:0
251,96,153620,1,0,0:0:0
183,52,153808,1,4,0:0:0
169,131,153997,2,0,P|164:175|127:218,2,90
130,117,154469,1,0,0:0:0
94,97,154563,1,0,0:0:0
24,138,154752,1,0,0:0:0
91,182,154940,1,0,0:0:0
36,242,155129,1,0,0:0:0
114,262,155318,1,0,0:0:0
112,342,155506,1,0,0:0:0
152,334,155601,1,0,0:0:0
185,310,155695,1,0,0:0:0
189,228,155884,6,0,P|232:207|277:210,1,90
298,290,156261,2,0,P|366:314,1,45
380,296,156450,1,0,0:0:0
349,221,156638,1,0,0:0:0
349,221,156733,2,0,P|336:166,1,45
399,123,157016,1,0,0:0:0
399,123,157110,1,0,0:0:0
399,123,157204,1,0,0:0:0
320,102,157393,2,0,P|245:72|136:58,1,180
71,87,157959,2,0,P|45:47|46:8,2,45
71,87,158336,1,0,0:0:0
71,87,158714,1,0,0:0:0
140,129,158903,6,0,P|168:156|172:214,1,90
92,294,159374,1,0,0:0:0
208,329,159657,1,0,0:0:0
254,262,159846,2,0,P|256:77,2,180
295,331,160789,1,0,0:0:0
498,194,161167,2,0,P|448:159|377:224|303:170,1,180
356,108,161733,1,0,0:0:0
256,192,162110,12,0,163431,0:0:0
123,94,163619,5,0,0:0:0
256,192,163808,12,0,164940,0:0:0
403,297,165129,1,0,0:0:0
404,53,165695,5,0,0:0:0
404,53,165884,1,0,0:0:0
154,233,166261,5,0,0:0:0
56,279,166450,1,0,0:0:0
141,344,166638,1,0,0:0:0
352,306,167016,5,0,0:0:0
436,238,167204,1,0,0:0:0
332,206,167393,1,0,0:0:0
67,58,167770,5,0,0:0:0
67,58,167959,1,0,0:0:0
168,95,168148,2,0,P|224:119,1,45
262,102,168336,2,0,P|320:84,1,45
355,109,168525,2,0,P|408:133,1,45
450,122,168714,2,0,P|472:165,1,45
500,207,168903,2,0,P|466:249,1,45
417,242,169091,2,0,P|356:269,1,45
328,286,169280,2,0,P|275:257,3,45
262,271,169657,5,0,0:0:0
235,267,169752,1,0,0:0:0
210,256,169846,1,0,0:0:0
187,241,169940,1,0,0:0:0
169,219,170035,1,0,0:0:0
157,194,170129,1,0,0:0:0
153,167,170223,1,0,0:0:0
157,140,170318,1,0,0:0:0
172,117,170412,1,0,0:0:0
191,98,170506,1,0,0:0:0
213,83,170601,1,0,0:0:0
238,73,170695,1,0,0:0:0
264,69,170789,1,0,0:0:0
291,72,170884,1,0,0:0:0
315,83,170978,1,0,0:0:0
335,100,171072,2,0,P|348:123,25,22.5
256,192,172676,12,0,174186,0:0:0
426,81,175695,5,4,0:0:0
426,81,175789,1,0,0:0:0
426,81,175884,2,0,P|456:45,2,45
452,213,176261,1,0,0:0:0
328,158,176450,1,0,0:0:0
337,292,176638,1,0,0:0:0
337,292,176733,2,0,P|280:328|188:332,1,135
152,217,177204,1,0,0:0:0
153,217,177299,2,0,P|195:162|191:103,2,112.5
30,159,177959,1,0,0:0:0
53,292,178148,1,0,0:0:0
53,292,178336,1,4,0:0:0
401,362,178525,6,0,P|324:310|240:281,1,180
136,366,179091,1,0,0:0:0
241,280,179280,1,0,0:0:0
188,155,179469,1,0,0:0:0
311,102,179657,1,0,0:0:0
311,102,179752,1,0,0:0:0
311,102,179846,1,0,0:0:0
13,27,180035,6,0,P|87:61|185:80,1,180,4|0,0:0|0:0,0:0:0
310,33,180601,1,0,0:0:0
420,109,180789,1,0,0:0:0
296,164,180978,1,0,0:0:0
296,164,181355,5,0,0:0:0
406,242,181544,1,0,0:0:0
283,299,181733,2,0,P|300:349,2,45
296,164,182110,1,0,0:0:0
296,164,182299,1,0,0:0:0
172,217,182487,2,0,P|130:274,2,45
296,164,182865,1,0,0:0:0
296,164,183053,1,0,0:0:0
197,71,183242,2,0,P|167:15,1,45
175,31,183431,1,0,0:0:0
74,121,183619,1,0,0:0:0
169,215,183808,1,0,0:0:0
50,280,183997,1,0,0:0:0
156,362,184186,2,0,P|203:351,1,45
199,351,184374,1,0,0:0:0
297,271,184563,1,0,0:0:0
384,208,184752,5,0,0:0:0
409,199,184846,1,0,0:0:0
419,174,184940,1,0,0:0:0
293,124,185129,1,0,0:0:0
293,124,185318,1,0,0:0:0
182,46,185506,1,0,0:0:0
157,35,185601,1,0,0:0:0
130,29,185695,1,0,0:0:0
103,35,185789,1,0,0:0:0
78,46,185884,1,0,0:0:0
129,170,186072,1,0,0:0:0
2,219,186261,5,0,0:0:0
113,289,186450,1,0,0:0:0
138,296,186544,1,0,0:0:0
163,303,186638,1,0,0:0:0
188,311,186733,1,0,0:0:0
213,318,186827,1,0,0:0:0
238,326,186921,1,0,0:0:0
263,334,187016,1,0,0:0:0
389,287,187204,1,0,0:0:0
291,193,187393,1,4,0:0:0
497,37,187582,6,0,P|449:113|387:180,1,180,0|0,0:0|0:0,0:0:0
258,216,188148,2,0,P|161:282|171:249,1,360,4|0,0:0|0:0,0:0:0
182,118,189091,1,0,0:0:0
182,118,189280,2,0,P|160:57,2,45
55,71,189657,1,0,0:0:0
88,201,189846,1,0,0:0:0
15,314,190035,1,0,0:0:0
256,360,190412,1,0,0:0:0
497,314,190789,1,4,0:0:0
256,64,202110,5,0,0:0:0
256,320,202487,1,0,0:0:0
126,278,202865,2,0,P|94:208|135:97,1,180,4|0,0:0|0:0,0:0:0
391,112,203431,2,0,P|418:208|386:278,1,180
215,225,203997,2,0,P|229:280|297:225,2,180
258,125,204940,1,0,0:0:0
258,125,205129,1,0,0:0:0
27,213,205506,6,0,P|28:-4,2,180,0|4|0,0:0|0:0|0:0,0:0:0
118,154,206450,2,0,P|118:344,1,180
186,79,207016,1,0,0:0:0
186,79,207204,2,0,P|392:79,1,180
474,79,207770,1,0,0:0:0
418,335,208148,2,0,P|418:144,2,180
189,318,209280,2,0,P|71:354|152:229,1,360,4|4,0:0|0:0,0:0:0
76,146,210223,1,0,0:0:0
169,122,210412,2,4,P|287:86|206:211,1,360,0|0,0:0|0:0,0:0:0
437,247,211921,6,0,P|477:214|482:158,2,90
399,138,212487,2,0,P|408:87|376:40,2,90
299,79,213053,2,0,P|273:33|219:19,2,90
179,98,213619,2,0,P|127:97|87:137,2,90
269,216,214186,1,0,0:0:0
269,216,214563,1,0,0:0:0
183,319,214940,6,0,P|156:290|55:369|-4:301,1,180
60,218,215506,1,0,0:0:0
60,218,215695,1,0,0:0:0
60,218,215884,1,0,0:0:0
98,231,215978,1,0,0:0:0
137,223,216072,1,0,0:0:0
176,233,216167,1,0,0:0:0
214,221,216261,1,0,0:0:0
251,236,216355,1,0,0:0:0
289,221,216450,6,0,P|350:188,1,45
486,165,216827,1,0,0:0:0
432,71,217016,2,0,P|375:38,1,45
343,68,217204,2,0,P|380:160,1,90
329,178,217487,2,0,P|192:136,1,135
118,67,217959,5,0,0:0:0
44,146,218148,1,0,0:0:0
81,184,218242,1,0,0:0:0
49,287,218431,1,0,0:0:0
96,262,218525,2,0,P|166:314|266:333,1,180
351,284,219091,2,0,P|390:253|390:213,2,90
263,219,219657,1,0,0:0:0
218,187,219752,1,0,0:0:0
112,206,219940,1,0,0:0:0
146,163,220035,1,0,0:0:0
240,110,220223,2,0,P|239:17,2,90
340,70,220789,5,0,0:0:0
340,70,220978,1,0,0:0:0
435,19,221167,2,0,P|435:113,1,90
338,157,221544,1,0,0:0:0
436,201,221733,1,0,0:0:0
256,345,222016,1,0,0:0:0
76,201,222299,1,0,0:0:0
76,201,222487,2,0,P|76:137,2,45
73,309,222865,1,0,0:0:0
166,254,223053,1,0,0:0:0
168,145,223242,2,0,P|161:81|44:48,1,180
63,39,223808,5,0,0:0:0
63,39,223997,1,0,0:0:0
259,96,224280,1,0,0:0:0
445,43,224563,1,0,0:0:0
370,121,224752,5,0,0:0:0
473,150,224940,1,0,0:0:0
392,221,225129,1,0,0:0:0
382,246,225223,1,0,0:0:0
371,271,225318,1,0,0:0:0
361,296,225412,1,0,0:0:0
350,320,225506,1,0,0:0:0
244,343,225695,2,0,P|218:393,2,45
283,242,226072,2,0,P|208:192|88:170,1,180
171,74,226638,1,0,0:0:0
64,92,226827,5,0,0:0:0
64,92,226921,1,0,0:0:0
32,136,227016,1,0,0:0:0
64,238,227204,1,0,0:0:0
64,238,227299,1,0,0:0:0
113,260,227393,1,0,0:0:0
67,358,227582,1,0,0:0:0
172,339,227770,2,0,P|259:324|358:285,1,180
443,335,228336,1,0,0:0:0
438,226,228525,5,0,0:0:0
438,226,228714,1,0,0:0:0
283,175,228903,1,0,0:0:0
283,175,229091,1,0,0:0:0
402,65,229280,1,0,0:0:0
402,65,229469,1,0,0:0:0
247,19,229657,1,0,0:0:0
247,19,229846,1,0,0:0:0
121,121,230035,1,0,0:0:0
140,281,230223,2,0,P|114:328,6,45
177,297,230884,1,0,0:0:0
214,312,230978,1,0,0:0:0
250,328,231072,1,0,0:0:0
287,343,231167,5,0,0:0:0
381,291,231355,1,0,0:0:0
290,230,231544,1,0,0:0:0
382,174,231733,2,0,P|361:121,1,45
320,33,232016,1,0,0:0:0
271,56,232110,2,0,P|188:102|71:72,1,180
59,119,232582,1,0,0:0:0
59,119,232676,2,0,P|37:211,1,90
87,317,233053,5,0,0:0:0
87,317,233148,2,0,P|113:212,1,90
154,201,233431,1,0,0:0:0
154,201,233525,2,0,P|232:200|312:147,1,135
246,73,233997,1,0,0:0:0
350,99,234186,1,0,0:0:0
381,201,234374,1,0,0:0:0
310,283,234563,6,0,P|325:332,2,45
205,309,234940,2,0,P|17:270,2,180,4|0|4,0:0|0:0|0:0,0:0:0
242,206,235884,1,0,0:0:0
138,236,236072,2,0,P|65:218,1,45
61,127,236355,1,0,0:0:0
61,127,236450,2,0,P|92:41,1,90
191,84,236827,2,0,P|265:145|355:159,1,180,0|4,0:0|0:0,0:0:0
324,53,237393,5,0,0:0:0
426,86,237582,1,0,0:0:0
426,86,237959,1,0,0:0:0
485,176,238148,1,0,0:0:0
450,277,238336,1,0,0:0:0
362,340,238525,2,0,P|378:385,2,45
340,233,238903,1,0,0:0:0
257,301,239091,1,0,0:0:0
155,339,239280,2,0,P|128:268,1,45
139,297,239469,1,0,0:0:0
32,279,239657,1,0,0:0:0
106,200,239846,1,0,0:0:0
8,152,240035,1,0,0:0:0
8,152,240223,2,0,P|88:109|208:98,1,180
281,74,240789,6,0,P|304:16,2,45
392,135,241167,2,0,P|447:104,2,45
377,278,241544,2,0,P|419:320,2,45
272,306,241921,2,0,P|69:306,1,180
5,240,242487,2,0,P|6:141,2,90
5,240,243242,1,0,0:0:0
108,209,243431,6,0,P|108:101,1,90
318,69,243997,2,0,P|513:69,2,180
315,177,244940,1,0,0:0:0
315,177,245129,1,0,0:0:0
195,356,245506,2,0,P|195:151,2,180
256,192,246638,12,0,247770,0:0:0
258,61,248147,5,0,0:0:0
171,197,248430,1,0,0:0:0
30,115,248713,1,0,0:0:0
134,144,248902,1,0,0:0:0
258,247,249185,1,0,0:0:0
381,142,249468,1,0,0:0:0
486,117,249657,1,0,0:0:0
454,219,249845,6,0,P|487:321,1,90
393,368,250223,1,0,0:0:0
393,368,250317,2,0,P|224:325,1,135
158,364,250789,1,0,0:0:0
180,258,250977,1,0,0:0:0
282,224,251166,1,0,0:0:0
282,224,251260,2,0,P|242:86,1,135
162,23,251732,1,0,0:0:0
162,23,251826,2,0,P|125:65|40:91,1,135
0,183,252298,1,0,0:0:0
73,262,252487,1,0,0:0:0
121,165,252676,6,0,P|74:143,2,45
121,165,253053,1,0,0:0:0
216,113,253242,2,0,P|204:63,1,45
306,31,253525,2,0,P|357:46,1,45
441,100,253808,2,0,P|423:201,1,90
502,264,254185,5,0,0:0:0
399,297,254374,1,0,0:0:0
399,297,254468,1,0,0:0:0
303,165,254751,1,0,0:0:0
338,62,254940,1,0,0:0:0
125,23,255317,1,0,0:0:0
17,210,255694,6,0,P|17:148,4,45
60,308,256260,1,0,0:0:0
127,220,256449,1,0,0:0:0
259,312,256732,1,0,0:0:0
391,218,257015,1,0,0:0:0
455,130,257204,2,0,P|517:130,2,45
389,43,257581,1,0,0:0:0
280,41,257770,2,0,P|208:42,2,45
339,131,258147,1,0,0:0:0
273,217,258336,1,0,0:0:0
256,192,258525,12,0,262110,0:0:0
