osu file format v12

[General]
AudioFilename: Mizuki Nana - Synchrogazer.mp3
AudioLeadIn: 0
PreviewTime: 58336
Countdown: 0
SampleSet: Normal
StackLeniency: 0.7
Mode: 0
LetterboxInBreaks: 1

[Editor]
DistanceSpacing: 1.2
BeatDivisor: 4
GridSize: 4

[Metadata]
Title:Synchrogazer
TitleUnicode:Synchrogazer
Artist:Mizuki Nana
ArtistUnicode:水樹奈々
Creator:minyeob
Version:Hard
Source:Senki Zesshou Symphogear
Tags:
BeatmapID:215405
BeatmapSetID:72751

[Difficulty]
HPDrainRate:7
CircleSize:5
OverallDifficulty:7
ApproachRate:7
SliderMultiplier:1.6
SliderTickRate:1

[Events]
//Background and Video events
0,0,"symphogear.jpg",0,0
//Break Periods
2,91367,105361
2,188206,201210
//Storyboard Layer 0 (Background)
//Storyboard Layer 1 (Fail)
//Storyboard Layer 2 (Pass)
//Storyboard Layer 3 (Foreground)
//Storyboard Sound Samples
//Background Colour Transformations
3,100,163,162,255

[TimingPoints]
3620,377.358490566038,4,1,0,70,1,0
51827,-200,4,2,0,70,0,0
56167,-100,4,1,0,70,0,0
175695,-100,4,1,0,70,0,1
190695,-100,4,2,0,80,0,1
190884,-100,4,1,0,70,0,0

[Colours]
Combo1 : 255,0,255
Combo2 : 255,128,128
Combo3 : 0,128,255
Combo4 : 192,192,192

[HitObjects]
347,326,36638,6,0,P|378:298|367:239,2,80
489,213,37204,1,4,0:0:0:0:
489,213,37393,2,0,P|445:164|327:142,1,160
161,92,37959,2,0,P|159:46|190:18,2,80
81,233,38619,1,0,0:0:0:0:
81,233,38714,1,0,0:0:0:0:
171,290,38903,1,0,0:0:0:0:
81,351,39091,5,0,0:0:0:0:
256,88,39374,1,0,0:0:0:0:
431,351,39657,1,0,0:0:0:0:
340,290,39846,5,0,0:0:0:0:
424,236,40035,1,0,0:0:0:0:
345,162,40223,2,0,P|263:139|154:173,1,200,4|0,0:0|0:0,0:0:0:0:
77,110,40789,1,0,0:0:0:0:
74,218,40978,1,0,0:0:0:0:
171,264,41167,1,0,0:0:0:0:
171,264,41355,1,0,0:0:0:0:
256,56,41638,1,0,0:0:0:0:
344,263,41921,1,0,0:0:0:0:
256,192,42110,1,0,0:0:0:0:
256,352,42393,1,0,0:0:0:0:
24,140,42676,6,0,P|97:102|220:82,1,200,4|0,0:0|0:0,0:0:0:0:
289,35,43242,2,0,P|325:82|328:126,1,80
251,190,43619,1,0,0:0:0:0:
334,258,43808,1,0,0:0:0:0:
251,190,43997,1,0,0:0:0:0:
459,50,44186,6,0,P|451:122|389:212,1,160,4|0,0:0|0:0,0:0:0:0:
453,298,44752,1,0,0:0:0:0:
349,327,44940,1,0,0:0:0:0:
282,241,45129,1,0,0:0:0:0:
310,136,45318,1,0,0:0:0:0:
310,136,45412,1,0,0:0:0:0:
84,39,45695,6,0,B|41:117|136:157|56:232,1,200
22,306,46261,1,0,0:0:0:0:
130,305,46450,1,0,0:0:0:0:
130,305,46544,1,0,0:0:0:0:
130,305,46638,2,0,B|200:347|252:266|340:333,2,200
149,254,47487,1,0,0:0:0:0:
84,167,47676,1,0,0:0:0:0:
114,122,47770,1,0,0:0:0:0:
33,49,47959,1,0,0:0:0:0:
33,49,48148,2,0,P|60:99|40:147,1,80
7,227,48525,2,0,L|-22:285,4,40
195,250,49091,6,0,L|261:222,1,40
485,71,49469,1,0,0:0:0:0:
378,82,49657,1,0,0:0:0:0:
378,82,49846,2,0,L|339:48,1,40
344,52,50223,1,0,0:0:0:0:
239,78,50412,2,0,L|190:102,3,40
156,131,50789,2,0,P|157:170|102:182,1,80
24,127,51167,1,0,0:0:0:0:
24,127,51261,2,0,L|24:31,1,80
24,37,51544,1,4,0:0:0:0:
128,10,51733,1,0,0:0:0:0:
208,76,51921,6,0,L|286:55,1,80
333,57,52487,2,0,L|410:77,1,80
439,115,53053,2,0,L|489:269,1,160
391,325,54186,2,0,L|366:367,2,45
249,344,54940,2,0,L|101:374,2,135
309,266,56261,5,4,0:0:0:0:
309,266,56638,1,0,0:0:0:0:
310,157,56827,1,0,0:0:0:0:
86,53,57016,1,0,0:0:0:0:
86,157,57204,1,0,0:0:0:0:
312,53,57393,1,0,0:0:0:0:
197,52,57582,1,0,0:0:0:0:
197,52,57770,2,0,L|196:169,1,90
196,172,58053,1,0,0:0:0:0:
368,119,58336,1,0,0:0:0:0:
434,278,58525,1,0,0:0:0:0:
434,278,58619,1,0,0:0:0:0:
434,278,58714,2,0,P|395:242|384:192,1,90
331,192,58997,2,0,P|277:221|204:237,1,135
91,192,59469,5,0,0:0:0:0:
65,284,59657,1,0,0:0:0:0:
157,257,59846,1,0,0:0:0:0:
157,257,60035,2,0,P|218:304|324:316,1,160
387,355,60601,1,0,0:0:0:0:
377,259,60789,1,0,0:0:0:0:
289,218,60978,1,0,0:0:0:0:
360,154,61167,2,0,P|379:150|394:126,1,40
465,62,61450,1,0,0:0:0:0:
465,62,61544,2,0,P|496:86|506:128,2,80
380,15,62110,2,0,P|313:50|214:64,1,160
98,121,62770,5,0,0:0:0:0:
98,121,62865,1,0,0:0:0:0:
172,180,63053,2,0,P|200:207|204:257,2,80
111,255,63620,1,0,0:0:0:0:
26,300,63808,2,0,P|96:342|195:362,1,160
257,318,64374,2,0,P|289:289|297:244,2,80
223,227,64940,1,0,0:0:0:0:
305,177,65129,1,0,0:0:0:0:
378,239,65318,1,0,0:0:0:0:
352,331,65506,5,0,0:0:0:0:
488,192,65789,1,0,0:0:0:0:
357,68,66072,2,0,B|330:39|235:118|191:44,1,160
108,60,66638,1,0,0:0:0:0:
156,143,66827,1,0,0:0:0:0:
156,143,66921,1,0,0:0:0:0:
156,143,67016,1,0,0:0:0:0:
66,255,67299,1,0,0:0:0:0:
156,366,67582,2,0,B|212:402|264:336|333:386,1,160
408,373,68148,1,0,0:0:0:0:
347,298,68336,6,0,L|328:260,2,40
441,278,68714,2,0,P|474:232|472:117,1,160
401,72,69280,1,0,0:0:0:0:
401,72,69374,2,0,P|357:63|327:39,1,80
291,33,69657,2,0,L|191:53,1,80
118,24,70035,5,0,0:0:0:0:
143,116,70223,1,0,0:0:0:0:
48,92,70412,1,0,0:0:0:0:
69,185,70601,1,0,0:0:0:0:
74,208,70695,1,0,0:0:0:0:
78,231,70789,1,0,0:0:0:0:
282,321,70978,6,0,P|223:272|128:241,1,160
95,325,71544,1,0,0:0:0:0:
95,325,71733,2,0,L|66:372,4,40
18,267,72299,1,0,0:0:0:0:
327,343,72487,1,0,0:0:0:0:
286,345,72676,1,0,0:0:0:0:
316,241,72865,1,0,0:0:0:0:
214,277,73053,6,0,P|176:313|126:322,1,90
140,322,73336,1,0,0:0:0:0:
39,362,73525,1,0,0:0:0:0:
39,362,73619,1,0,0:0:0:0:
63,257,73808,1,0,0:0:0:0:
6,164,73997,2,0,P|68:116|176:106,1,180
246,31,74563,1,0,0:0:0:0:
344,76,74752,1,0,0:0:0:0:
256,138,74940,1,0,0:0:0:0:
256,138,75035,1,0,0:0:0:0:
256,138,75129,1,0,0:0:0:0:
351,189,75318,1,0,0:0:0:0:
18,291,75506,6,0,P|74:258|203:213,1,180
258,298,76072,1,0,0:0:0:0:
258,74,76355,1,0,0:0:0:0:
258,74,76450,1,0,0:0:0:0:
152,52,76638,1,0,0:0:0:0:
99,141,76827,1,0,0:0:0:0:
258,196,77110,1,0,0:0:0:0:
410,148,77393,1,0,0:0:0:0:
358,243,77582,1,0,0:0:0:0:
258,74,77865,1,0,0:0:0:0:
157,243,78148,1,0,0:0:0:0:
157,243,78242,1,0,0:0:0:0:
157,243,78336,2,0,L|157:350,1,90
357,333,78714,2,0,L|357:237,1,90
453,194,79091,5,4,0:0:0:0:
304,37,79469,1,0,0:0:0:0:
392,98,79657,1,0,0:0:0:0:
296,149,79846,2,0,P|215:186|105:214,1,180,4|0,0:0|0:0,0:0:0:0:
23,180,80412,1,0,0:0:0:0:
53,283,80601,1,4,0:0:0:0:
157,309,80789,1,0,0:0:0:0:
250,254,80978,1,0,0:0:0:0:
291,269,81072,1,0,0:0:0:0:
333,285,81167,1,0,0:0:0:0:
385,379,81355,1,0,0:0:0:0:
484,335,81544,1,0,0:0:0:0:
428,242,81733,1,0,0:0:0:0:
280,142,85695,1,0,0:0:0:0:
280,142,85789,1,0,0:0:0:0:
280,142,85884,2,0,L|312:242,1,90
233,306,86261,2,0,L|204:208,1,90
8,116,86638,6,0,P|84:78|188:55,1,180,4|0,0:0|0:0,0:0:0:0:
169,164,87204,1,0,0:0:0:0:
67,202,87393,1,0,0:0:0:0:
58,309,87582,1,0,0:0:0:0:
58,309,87770,2,0,P|149:287|248:224,1,180,0|0,0:0|0:0,0:0:0:0:
378,193,88431,1,0,0:0:0:0:
378,193,88525,1,0,0:0:0:0:
281,144,88714,1,0,0:0:0:0:
297,250,88903,2,0,L|324:346,1,90
363,83,89280,2,0,L|332:-12,1,90
256,192,89657,12,4,91167,0:0:0:0:
102,359,106261,5,4,0:0:0:0:
171,292,106450,2,0,P|160:254|121:227,1,80
451,238,107582,1,0,0:0:0:0:
371,310,107770,2,0,P|379:357|331:370,2,90
264,328,108336,2,0,P|284:249|385:217,1,180
441,132,108903,1,4,0:0:0:0:
336,101,109091,6,0,L|369:11,2,90
232,70,109657,2,0,L|268:173,2,90
126,96,110223,2,0,L|162:-1,2,90
34,152,110789,2,0,B|29:164|48:156|37:170|52:154|37:167|52:160|38:169|57:164|41:172|61:162|45:173|64:164|49:176|67:165|52:177|65:168|50:180|68:170|53:183|72:171|57:185|79:172|63:188|68:190|68:190|82:180|72:191|197:200,1,180
294,172,111355,1,0,0:0:0:0:
294,172,111733,1,0,0:0:0:0:
261,274,111921,1,0,0:0:0:0:
367,252,112110,1,0,0:0:0:0:
393,147,112299,6,0,B|437:152|437:152|468:193,2,90,4|0|0,0:0|0:0|0:0,0:0:0:0:
316,70,112865,2,0,B|252:97|201:118|201:118|133:105,1,180
41,81,113431,1,0,0:0:0:0:
71,184,113619,1,0,0:0:0:0:
123,173,113714,1,0,0:0:0:0:
165,206,113808,1,0,0:0:0:0:
91,273,113997,1,0,0:0:0:0:
91,273,114186,1,0,0:0:0:0:
19,353,114374,1,0,0:0:0:0:
64,383,114469,1,0,0:0:0:0:
117,377,114563,1,0,0:0:0:0:
194,301,114752,5,0,0:0:0:0:
219,309,114846,1,0,0:0:0:0:
244,317,114940,1,0,0:0:0:0:
270,324,115035,1,0,0:0:0:0:
295,332,115129,1,0,0:0:0:0:
320,339,115223,1,0,0:0:0:0:
345,347,115318,1,4,0:0:0:0:
445,309,115506,5,0,0:0:0:0:
363,237,115695,2,0,B|332:214|332:214|333:148,2,90
460,190,116261,2,0,B|512:204|512:204|512:257,2,90
460,190,116827,1,0,0:0:0:0:
257,56,117110,1,0,0:0:0:0:
257,298,117393,1,0,0:0:0:0:
55,194,117582,5,0,0:0:0:0:
434,333,118714,2,0,L|479:299,2,45,4|0|0,0:0|0:0|0:0,0:0:0:0:
336,285,119091,1,0,0:0:0:0:
416,105,119469,2,0,L|416:12,2,90
321,157,120035,1,0,0:0:0:0:
321,157,120223,1,0,0:0:0:0:
321,157,120412,2,0,L|321:62,1,90
322,34,120695,1,0,0:0:0:0:
221,73,120884,1,0,0:0:0:0:
63,36,121167,1,0,0:0:0:0:
127,122,121355,6,0,P|163:158|171:202,1,90
12,328,121733,2,0,P|94:285|201:262,1,180,4|0,0:0|0:0,0:0:0:0:
158,370,122299,1,0,0:0:0:0:
261,339,122487,1,0,0:0:0:0:
298,237,122676,1,0,0:0:0:0:
467,354,122865,6,0,P|399:280|371:192,1,180
457,138,123431,1,0,0:0:0:0:
353,107,123619,1,0,0:0:0:0:
186,211,123903,1,0,0:0:0:0:
80,78,124186,5,0,0:0:0:0:
80,78,124280,1,0,0:0:0:0:
80,78,124374,1,0,0:0:0:0:
183,108,124563,2,0,L|225:68,2,45
109,187,124940,1,0,0:0:0:0:
213,214,125129,1,0,0:0:0:0:
213,214,125223,1,0,0:0:0:0:
24,345,125412,6,0,P|94:320|190:296,1,135
206,307,125789,1,0,0:0:0:0:
258,320,125884,1,0,0:0:0:0:
360,285,126072,1,0,0:0:0:0:
280,211,126261,1,0,0:0:0:0:
377,163,126450,1,0,0:0:0:0:
292,96,126638,2,0,P|224:61|162:47,1,135
122,77,127016,1,0,0:0:0:0:
22,118,127204,1,0,0:0:0:0:
111,179,127393,2,0,L|188:152,4,45
24,244,127959,5,0,0:0:0:0:
24,244,128053,1,0,0:0:0:0:
24,244,128148,2,0,P|92:286|220:308,1,180
291,275,128714,2,0,P|326:243|326:180,2,90
261,378,129280,1,0,0:0:0:0:
491,194,129657,1,0,0:0:0:0:
256,48,130035,1,0,0:0:0:0:
215,147,130223,1,0,0:0:0:0:
135,73,130412,6,0,L|113:34,2,45
135,311,130789,2,0,L|113:350,2,45
377,311,131167,2,0,L|399:350,2,45
377,73,131544,2,0,L|399:34,2,45
272,102,131921,1,0,0:0:0:0:
272,102,132016,1,0,0:0:0:0:
259,263,132299,1,0,0:0:0:0:
48,182,133242,1,0,0:0:0:0:
66,289,133431,5,0,0:0:0:0:
132,329,133619,1,0,0:0:0:0:
166,319,133714,1,0,0:0:0:0:
235,339,133903,1,0,0:0:0:0:
269,347,133997,1,0,0:0:0:0:
335,318,134186,1,0,0:0:0:0:
335,318,134374,2,0,P|376:288|400:245,1,80
459,236,134752,2,0,P|449:185|424:138,1,80
373,127,135129,1,0,0:0:0:0:
352,196,135318,1,0,0:0:0:0:
287,165,135506,2,0,P|228:166|126:139,1,160
108,72,136072,1,0,0:0:0:0:
57,123,136261,1,0,0:0:0:0:
73,193,136450,5,0,0:0:0:0:
118,291,136733,1,0,0:0:0:0:
118,291,136827,1,0,0:0:0:0:
140,222,137016,1,0,0:0:0:0:
191,272,137204,1,0,0:0:0:0:
191,272,137393,1,0,0:0:0:0:
211,202,137582,1,0,0:0:0:0:
211,202,137770,1,0,0:0:0:0:
158,152,137959,1,0,0:0:0:0:
105,102,138148,2,0,P|86:90|66:78,2,40
175,87,138525,1,0,0:0:0:0:
175,87,138714,2,0,P|247:55|340:48,1,160
396,65,139280,5,0,0:0:0:0:
427,82,139374,1,0,0:0:0:0:
457,101,139469,1,0,0:0:0:0:
494,162,139657,1,0,0:0:0:0:
494,162,139846,2,0,P|491:213|466:247,1,80
405,222,140223,1,0,0:0:0:0:
429,289,140412,1,0,0:0:0:0:
352,277,140601,1,0,0:0:0:0:
352,277,140789,1,0,0:0:0:0:
322,298,140884,1,0,0:0:0:0:
293,319,140978,1,0,0:0:0:0:
228,286,141167,2,0,L|165:261,1,40
128,307,141450,1,0,0:0:0:0:
128,307,141544,2,0,L|163:390,2,80
132,235,142110,1,0,0:0:0:0:
17,148,142487,5,0,0:0:0:0:
41,80,142676,1,0,0:0:0:0:
107,53,142865,1,0,0:0:0:0:
95,123,143053,1,0,0:0:0:0:
95,123,143242,2,0,P|172:144|253:149,2,160
61,187,144186,1,0,0:0:0:0:
61,187,144280,1,0,0:0:0:0:
61,187,144374,1,0,0:0:0:0:
130,207,144563,1,0,0:0:0:0:
130,207,144657,1,0,0:0:0:0:
130,207,144752,1,0,0:0:0:0:
82,260,144940,1,0,0:0:0:0:
152,274,145129,1,0,0:0:0:0:
201,221,145318,1,0,0:0:0:0:
179,152,145506,1,0,0:0:0:0:
133,95,145695,5,0,0:0:0:0:
167,84,145789,1,0,0:0:0:0:
202,79,145884,1,0,0:0:0:0:
237,84,145978,1,0,0:0:0:0:
269,99,146072,1,0,0:0:0:0:
329,139,146261,1,0,0:0:0:0:
395,111,146450,1,0,0:0:0:0:
417,138,146544,1,0,0:0:0:0:
434,169,146638,1,0,0:0:0:0:
423,203,146733,1,0,0:0:0:0:
399,229,146827,1,0,0:0:0:0:
426,295,147016,5,4,0:0:0:0:
357,304,147393,2,0,P|400:289|421:240,1,90
492,215,147770,2,0,P|477:168|431:152,1,90
388,90,148148,2,0,P|339:106|333:160,1,90
251,165,148525,1,0,0:0:0:0:
309,220,148714,1,0,0:0:0:0:
309,220,148808,1,0,0:0:0:0:
230,241,148997,1,0,0:0:0:0:
230,241,149091,2,0,P|194:272|140:274,1,90
74,298,149469,2,0,P|68:338|24:372,2,90
107,216,150035,1,0,0:0:0:0:
33,181,150223,1,0,0:0:0:0:
33,181,150318,1,0,0:0:0:0:
33,181,150412,1,0,0:0:0:0:
33,181,150601,1,0,0:0:0:0:
97,133,150789,1,0,0:0:0:0:
97,133,150978,1,0,0:0:0:0:
97,133,151072,1,0,0:0:0:0:
97,133,151167,1,0,0:0:0:0:
171,163,151355,1,0,0:0:0:0:
188,242,151544,5,0,0:0:0:0:
249,189,151733,2,0,P|332:167|435:158,1,180
425,158,152204,1,0,0:0:0:0:
425,158,152299,1,0,0:0:0:0:
484,103,152487,1,0,0:0:0:0:
410,68,152676,1,0,0:0:0:0:
410,68,152865,1,0,0:0:0:0:
333,93,153053,1,4,0:0:0:0:
333,93,153431,5,0,0:0:0:0:
251,96,153619,1,0,0:0:0:0:
183,52,153808,1,4,0:0:0:0:
169,131,153997,2,0,P|164:175|127:218,2,90
94,97,154563,1,0,0:0:0:0:
24,138,154752,1,0,0:0:0:0:
91,182,154940,1,0,0:0:0:0:
36,242,155129,1,0,0:0:0:0:
114,262,155318,1,0,0:0:0:0:
112,342,155506,1,0,0:0:0:0:
152,334,155601,1,0,0:0:0:0:
185,310,155695,1,0,0:0:0:0:
189,228,155884,6,0,P|232:207|277:210,1,90
298,290,156261,2,0,L|366:314,1,45
380,296,156450,1,0,0:0:0:0:
349,221,156638,1,0,0:0:0:0:
349,221,156733,2,0,L|336:166,1,45
399,123,157016,1,0,0:0:0:0:
399,123,157110,1,0,0:0:0:0:
399,123,157204,1,0,0:0:0:0:
320,102,157393,2,0,P|245:72|136:58,1,180
71,87,157959,2,0,P|45:47|46:8,2,45
71,87,158336,1,0,0:0:0:0:
71,87,158714,1,0,0:0:0:0:
140,129,158903,6,0,P|168:156|172:214,1,90
92,294,159374,1,0,0:0:0:0:
208,329,159657,1,0,0:0:0:0:
254,262,159846,2,0,L|256:77,2,180
295,331,160789,1,0,0:0:0:0:
498,194,161167,2,0,B|448:159|377:224|303:170,1,180
356,108,161733,1,0,0:0:0:0:
256,192,162110,12,0,163431,0:0:0:0:
123,94,163619,5,0,0:0:0:0:
256,192,163808,12,0,165129,0:0:0:0:
393,79,165695,5,0,0:0:0:0:
393,79,165884,1,0,0:0:0:0:
56,279,166450,1,0,0:0:0:0:
56,279,166638,1,0,0:0:0:0:
352,306,167016,5,0,0:0:0:0:
436,238,167204,1,0,0:0:0:0:
332,206,167393,1,0,0:0:0:0:
67,58,167770,5,0,0:0:0:0:
67,58,167959,1,0,0:0:0:0:
168,95,168148,2,0,L|220:118,3,40
257,99,168525,1,0,0:0:0:0:
342,143,168714,1,0,0:0:0:0:
500,207,168903,2,0,L|466:249,1,45
328,286,169280,2,0,L|275:257,3,45
262,271,169657,5,0,0:0:0:0:
235,267,169752,1,0,0:0:0:0:
210,256,169846,1,0,0:0:0:0:
187,241,169940,1,0,0:0:0:0:
169,219,170035,1,0,0:0:0:0:
157,194,170129,1,0,0:0:0:0:
153,167,170223,1,0,0:0:0:0:
157,140,170318,1,0,0:0:0:0:
172,117,170412,1,0,0:0:0:0:
191,98,170506,1,0,0:0:0:0:
213,83,170601,1,0,0:0:0:0:
238,73,170695,1,0,0:0:0:0:
264,69,170789,1,0,0:0:0:0:
291,72,170884,1,0,0:0:0:0:
315,83,170978,1,0,0:0:0:0:
335,100,171072,2,0,L|348:123,25,22.5
256,192,172676,12,0,174186,0:0:0:0:
74,81,175695,5,4,0:0:0:0:
97,87,175789,1,0,0:0:0:0:
120,94,175884,1,0,0:0:0:0:
142,101,175978,1,0,0:0:0:0:
164,107,176072,1,0,0:0:0:0:
218,186,176261,2,0,P|193:224|205:275,1,80
277,306,176638,1,0,0:0:0:0:
277,306,176733,2,0,P|313:270|315:232,1,80
356,215,177016,2,0,P|358:171|403:127,1,80
471,163,177393,1,0,0:0:0:0:
443,70,177582,1,0,0:0:0:0:
362,17,177770,2,0,P|312:44|192:83,1,160
181,112,178242,2,0,L|164:163,3,40
73,135,178714,5,0,0:0:0:0:
94,228,178903,2,0,P|125:257|169:268,1,80
244,228,179280,1,0,0:0:0:0:
328,273,179469,2,0,P|366:263|403:245,1,80
495,270,179846,1,0,0:0:0:0:
464,178,180035,2,0,P|394:140|303:119,1,160
224,91,180601,1,0,0:0:0:0:
249,185,180789,1,0,0:0:0:0:
169,239,180978,1,0,0:0:0:0:
20,117,181355,5,0,0:0:0:0:
86,186,181544,1,0,0:0:0:0:
44,272,181733,2,0,L|61:322,2,45
296,164,182110,1,0,0:0:0:0:
296,164,182299,1,0,0:0:0:0:
172,217,182487,2,0,L|130:274,2,45
296,164,182865,1,0,0:0:0:0:
296,164,183053,1,0,0:0:0:0:
197,71,183242,2,0,L|167:15,1,45
175,31,183431,1,0,0:0:0:0:
74,121,183619,1,0,0:0:0:0:
169,215,183808,1,0,0:0:0:0:
50,280,183997,1,0,0:0:0:0:
156,362,184186,2,0,L|203:351,1,45
199,351,184374,1,0,0:0:0:0:
297,271,184563,1,0,0:0:0:0:
384,208,184752,5,0,0:0:0:0:
409,199,184846,1,0,0:0:0:0:
419,174,184940,1,0,0:0:0:0:
293,124,185129,1,0,0:0:0:0:
293,124,185318,1,0,0:0:0:0:
182,46,185506,1,0,0:0:0:0:
157,35,185601,1,0,0:0:0:0:
130,29,185695,1,0,0:0:0:0:
103,35,185789,1,0,0:0:0:0:
78,46,185884,1,0,0:0:0:0:
129,170,186072,1,0,0:0:0:0:
2,219,186261,5,0,0:0:0:0:
113,289,186450,1,0,0:0:0:0:
138,296,186544,1,0,0:0:0:0:
163,303,186638,1,0,0:0:0:0:
188,311,186733,1,0,0:0:0:0:
213,318,186827,1,0,0:0:0:0:
238,326,186921,1,0,0:0:0:0:
263,334,187016,1,0,0:0:0:0:
389,287,187204,1,0,0:0:0:0:
291,193,187393,1,4,0:0:0:0:
497,37,187582,6,0,P|449:113|387:180,1,180,0|0,0:0|0:0,0:0:0:0:
256,64,202110,5,0,0:0:0:0:
256,320,202487,1,0,0:0:0:0:
63,320,202865,6,0,L|63:176,1,120
64,152,203242,1,0,0:0:0:0:
151,69,203431,2,0,L|151:189,1,120
151,236,203808,1,0,0:0:0:0:
233,323,203997,2,0,L|233:179,1,120
234,155,204374,1,0,0:0:0:0:
316,68,204563,1,0,0:0:0:0:
316,68,204752,2,0,L|502:68,2,160
366,168,205695,5,0,0:0:0:0:
189,318,209280,2,0,P|71:354|152:229,1,360,4|4,0:0|0:0,0:0:0:0:
76,146,210223,1,0,0:0:0:0:
169,122,210412,2,4,P|287:86|206:211,1,360,0|0,0:0|0:0,0:0:0:0:
260,312,211921,5,0,0:0:0:0:
311,139,212204,1,0,0:0:0:0:
311,139,212299,1,0,0:0:0:0:
426,171,212487,1,0,0:0:0:0:
201,139,212770,1,0,0:0:0:0:
201,139,212865,1,0,0:0:0:0:
86,171,213053,1,0,0:0:0:0:
256,230,213336,1,0,0:0:0:0:
256,230,213431,1,0,0:0:0:0:
257,109,213620,1,0,0:0:0:0:
257,109,213808,2,0,L|257:17,2,80
258,349,214563,1,0,0:0:0:0:
444,289,214940,5,0,0:0:0:0:
60,218,215506,1,0,0:0:0:0:
60,218,215695,1,0,0:0:0:0:
60,218,215884,1,0,0:0:0:0:
98,231,215978,1,0,0:0:0:0:
137,223,216072,1,0,0:0:0:0:
176,233,216167,1,0,0:0:0:0:
214,221,216261,1,0,0:0:0:0:
251,236,216355,1,0,0:0:0:0:
289,221,216450,6,0,L|350:188,1,45
486,165,216827,1,0,0:0:0:0:
432,71,217016,2,0,L|375:38,1,45
343,68,217204,2,0,L|380:160,1,90
329,178,217487,2,0,L|192:136,1,135
118,67,217959,5,0,0:0:0:0:
44,146,218148,1,0,0:0:0:0:
81,184,218242,1,0,0:0:0:0:
49,287,218431,1,0,0:0:0:0:
96,262,218525,2,0,P|166:314|260:333,1,160
351,284,219091,2,0,P|390:253|390:213,2,90
263,219,219657,1,0,0:0:0:0:
218,187,219752,1,0,0:0:0:0:
112,206,219940,1,0,0:0:0:0:
146,163,220035,1,0,0:0:0:0:
240,110,220223,2,0,L|239:17,2,90
340,70,220789,5,0,0:0:0:0:
340,70,220978,1,0,0:0:0:0:
435,19,221167,2,0,L|435:113,1,90
338,157,221544,1,0,0:0:0:0:
436,201,221733,1,0,0:0:0:0:
256,345,222016,1,0,0:0:0:0:
76,201,222299,1,0,0:0:0:0:
76,201,222487,2,0,L|76:137,2,45
73,309,222865,1,0,0:0:0:0:
166,254,223053,1,0,0:0:0:0:
168,145,223242,2,0,P|161:81|44:48,1,180
63,39,223808,5,0,0:0:0:0:
63,39,223997,1,0,0:0:0:0:
259,96,224280,1,0,0:0:0:0:
445,43,224563,1,0,0:0:0:0:
370,121,224752,5,0,0:0:0:0:
473,150,224940,1,0,0:0:0:0:
392,221,225129,1,0,0:0:0:0:
382,246,225223,1,0,0:0:0:0:
371,271,225318,1,0,0:0:0:0:
361,296,225412,1,0,0:0:0:0:
350,320,225506,1,0,0:0:0:0:
244,343,225695,2,0,L|218:393,2,45
283,242,226072,2,0,P|208:192|88:170,1,180
171,74,226638,1,0,0:0:0:0:
64,92,226827,5,0,0:0:0:0:
64,92,226921,1,0,0:0:0:0:
32,136,227016,1,0,0:0:0:0:
64,238,227204,1,0,0:0:0:0:
64,238,227299,1,0,0:0:0:0:
113,260,227393,1,0,0:0:0:0:
67,358,227582,1,0,0:0:0:0:
172,339,227770,2,0,P|259:324|358:285,1,180
443,335,228336,1,0,0:0:0:0:
438,226,228525,5,0,0:0:0:0:
438,226,228714,1,0,0:0:0:0:
283,175,228903,1,0,0:0:0:0:
283,175,229091,1,0,0:0:0:0:
402,65,229280,1,0,0:0:0:0:
402,65,229469,1,0,0:0:0:0:
247,19,229657,1,0,0:0:0:0:
247,19,229846,1,0,0:0:0:0:
121,121,230035,1,0,0:0:0:0:
140,281,230223,2,0,L|114:328,6,45
177,297,230884,1,0,0:0:0:0:
214,312,230978,1,0,0:0:0:0:
250,328,231072,1,0,0:0:0:0:
287,343,231167,5,0,0:0:0:0:
381,291,231355,1,0,0:0:0:0:
290,230,231544,1,0,0:0:0:0:
382,174,231733,2,0,L|361:121,1,45
320,33,232016,1,0,0:0:0:0:
271,56,232110,2,0,P|188:102|71:72,1,180
59,119,232582,1,0,0:0:0:0:
59,119,232676,2,0,L|37:211,1,90
87,317,233053,5,0,0:0:0:0:
87,317,233148,2,0,L|113:212,1,90
154,201,233431,1,0,0:0:0:0:
154,201,233525,2,0,P|232:200|312:147,1,135
246,73,233997,1,0,0:0:0:0:
350,99,234186,1,0,0:0:0:0:
381,201,234374,1,0,0:0:0:0:
310,283,234563,6,0,L|325:332,2,45
205,309,234940,2,0,L|17:270,2,180,4|0|4,0:0|0:0|0:0,0:0:0:0:
242,206,235884,1,0,0:0:0:0:
138,236,236072,2,0,L|65:218,1,45
61,127,236355,1,0,0:0:0:0:
61,127,236450,2,0,L|92:41,1,90
191,84,236827,2,0,P|265:145|355:159,1,180,0|4,0:0|0:0,0:0:0:0:
324,53,237393,5,0,0:0:0:0:
426,86,237582,1,0,0:0:0:0:
426,86,237959,1,0,0:0:0:0:
485,176,238148,1,0,0:0:0:0:
450,277,238336,1,0,0:0:0:0:
362,340,238525,2,0,L|378:385,2,45
340,233,238903,1,0,0:0:0:0:
257,301,239091,1,0,0:0:0:0:
155,339,239280,2,0,L|128:268,1,45
139,297,239469,1,0,0:0:0:0:
32,279,239657,1,0,0:0:0:0:
106,200,239846,1,0,0:0:0:0:
8,152,240035,1,0,0:0:0:0:
8,152,240223,2,0,P|88:109|208:98,1,180
281,74,240789,6,0,L|304:16,2,45
392,135,241167,2,0,L|447:104,2,45
377,278,241544,2,0,L|419:320,2,45
272,306,241921,2,0,L|69:306,1,180
5,240,242487,2,0,L|6:141,2,90
5,240,243242,1,0,0:0:0:0:
108,209,243431,6,0,L|108:101,1,90
318,69,243997,2,0,L|513:69,2,180
315,177,244940,1,0,0:0:0:0:
315,177,245129,1,0,0:0:0:0:
195,356,245506,2,0,L|195:151,2,180
256,192,246638,12,0,247770,0:0:0:0:
