osu file format v9

[General]
AudioFilename: Mizuki Nana - Synchrogazer.mp3
AudioLeadIn: 0
PreviewTime: 58358
Countdown: 0
SampleSet: Normal
StackLeniency: 0.6
Mode: 0
LetterboxInBreaks: 0

[Editor]
DistanceSpacing: 1
BeatDivisor: 4
GridSize: 4

[Metadata]
Title:Synchrogazer (TV Size)
Artist:Mizuki Nana
Creator:quintitem
Version:For Fun and Lienable \:D/
Source:Senki Zesshou Symphogear
Tags:

[Difficulty]
HPDrainRate:4
CircleSize:5
OverallDifficulty:5
ApproachRate:8
SliderMultiplier:1.4
SliderTickRate:2

[Events]
//Background and Video events
0,0,"symphogear.jpg"
Video,623,"Senki Zesshou Symphogear.flv"
//Break Periods
2,21955,24023
//Storyboard Layer 0 (Background)
//Storyboard Layer 1 (Fail)
//Storyboard Layer 2 (Pass)
//Storyboard Layer 3 (Foreground)
//Storyboard Sound Samples
//Background Colour Transformations
3,100,163,162,255

[TimingPoints]
623,377.358490566038,4,1,1,60,1,0
7981,-100,4,1,1,50,0,0
9302,-100,4,1,1,5,0,0
9490,-100,4,1,1,50,0,0
15717,-100,4,1,1,60,0,0
24396,-100,4,1,1,55,0,0
39019,-100,4,1,1,70,0,0
39773,-100,4,1,1,55,0,0
42038,-100,4,1,1,75,0,0
42509,-100,4,1,1,60,0,0
43547,-100,4,1,1,80,0,0
44019,-100,4,1,1,60,0,0
45056,-100,4,1,1,80,0,0
45528,-100,4,1,1,65,0,0
48924,-100,4,1,1,85,0,0
50339,-100,4,1,1,70,0,0
51943,-166.666666666667,4,2,1,55,0,0
56283,-100,4,1,1,70,0,0
59490,-86.9565217391304,4,1,1,70,0,1
59585,-86.9565217391304,4,1,1,75,0,0
62509,-86.9565217391304,4,1,1,55,0,0
64396,-86.9565217391304,4,1,1,75,0,0
65528,-86.9565217391304,4,1,1,85,0,0
66283,-86.9565217391304,4,1,1,75,0,0
67038,-86.9565217391304,4,1,1,85,0,0
67792,-86.9565217391304,4,1,1,75,0,0
68547,-86.9565217391304,4,1,1,55,0,0
69962,-86.9565217391304,4,1,1,80,0,0
71472,-86.9565217391304,4,1,1,65,0,0
73075,-86.9565217391304,4,1,1,70,0,1
73170,-86.9565217391304,4,1,1,75,0,0
76000,-86.9565217391304,4,1,1,55,0,0
77792,-86.9565217391304,4,1,1,60,0,0
78547,-86.9565217391304,4,1,1,75,0,0
83641,-86.9565217391304,4,1,1,80,0,0
85056,-86.9565217391304,4,1,1,60,0,0
88641,-100,4,1,1,70,0,0
89396,-100,4,1,1,45,0,0
89679,-100,4,2,1,5,0,0

[HitObjects]
208,88,1943,2,0,B|172:88,3,35
136,88,2321,2,0,B|92:88|92:140,1,70,0|2
92,208,2698,1,0
92,208,2792,2,0,B|91:269|156:279,1,105,2|0
216,324,3264,1,0
280,280,3453,1,0
344,324,3641,5,0
344,324,3736,2,0,B|405:314|404:248,1,105,0|2
452,192,4207,1,0
452,192,4302,2,0,B|452:128|391:119,1,105,2|0
332,72,4773,1,0
272,120,4962,1,0
212,72,5151,6,0,B|212:32,2,35
152,120,5528,1,2
92,72,5717,1,0
92,72,5811,2,0,B|92:180,1,105,2|0
36,228,6283,1,0
92,280,6472,1,0
92,280,6566,1,0
92,280,6660,1,0
148,228,6849,5,0
148,228,6943,2,0,B|208:237|208:300,1,105
256,360,7415,1,2
256,24,7792,1,2
256,192,8170,12,0,9302
56,48,9679,6,0,B|196:48,1,140,2|0
172,120,10245,2,0,B|32:120,1,140,2|0
56,192,10811,2,0,B|196:192,1,140,2|0
172,264,11377,2,0,B|32:264,1,140,2|0
56,336,11943,2,0,B|196:336,1,140,2|0
256,288,12509,1,0
312,340,12698,6,0,B|452:340,1,140,2|0
428,268,13264,2,0,B|288:268,1,140,2|0
312,196,13830,2,0,B|452:196,1,140,2|0
428,124,14396,2,0,B|288:124,1,140,2|0
312,52,14962,2,0,B|452:52,1,140,2|2
480,124,15528,6,0,B|480:184,2,35,0|0|2
404,144,15906,1,0
332,124,16094,1,2
256,144,16283,1,2
256,144,16377,1,0
256,144,16472,2,0,B|112:144,1,140,0|0
56,192,17038,1,2
56,192,17132,1,0
56,192,17226,2,0,B|12:192|12:128,2,70,2|0|2
116,240,17792,1,2
116,240,17887,1,0
116,240,17981,2,0,B|260:240,1,140
412,232,18736,6,0,B|412:344,2,105,2|2|2
412,156,19490,1,2
412,156,19868,1,2
256,192,20245,12,4,21755
256,108,24773,6,0,B|256:36,2,70,0|0|2
192,152,25339,1,0
128,108,25528,1,0
64,152,25717,2,0,B|16:152,2,35,2|0|0
64,228,26094,1,0
128,272,26283,1,2
128,272,26472,1,0
192,232,26660,1,0
192,232,26849,1,2
256,276,27038,1,0
256,276,27226,2,0,B|256:320,6,35,0|0|2|0|0|0|2
408,292,28170,6,0,B|492:278|491:173,1,140
428,148,28736,2,0,B|429:63|345:50,1,140
296,108,29302,2,0,B|214:120|215:205,2,140,2|2|2
340,256,30434,2,0,B|376:256,4,35
268,288,31000,6,0,B|268:360,2,70,0|2|0
200,256,31566,1,0
128,288,31755,2,0,B|128:324,2,35,2|0|0
60,256,32132,1,0
60,256,32226,1,0
60,256,32321,1,2
104,192,32509,1,0
36,152,32698,1,0
36,76,32887,1,2
104,40,33075,1,0
104,116,33264,1,0
116,116,33358,1,0
128,116,33453,1,2
140,116,33547,1,0
152,116,33641,1,0
164,116,33736,1,0
176,116,33830,1,2
320,68,34207,6,0,B|464:68,1,140
460,316,34773,2,0,B|320:316,1,140
256,360,35339,5,2
84,192,35623,1,2
256,24,35906,1,2
256,192,36283,6,0,B|296:192,5,35
328,192,36849,2,0,B|440:192,2,105,2|0|0
308,116,37604,1,0
308,116,37981,1,0
308,116,38358,2,0,B|416:116,2,105
256,60,39113,1,0
148,104,39396,1,0
80,196,39679,1,0
80,196,39773,1,0
80,196,39868,6,0,B|80:304,2,105
152,220,40622,2,0,B|152:328,2,105
224,196,41377,1,0
312,124,41660,1,0
400,196,41943,1,0
400,272,42132,1,0
312,348,42415,1,0
224,272,42698,6,0,B|64:272,1,140,4|0
32,216,43264,1,0
84,160,43453,1,0
32,104,43641,2,0,B|32:40|92:31,1,105
396,32,44207,6,0,B|477:44|476:129,1,140,4|0
476,204,44773,1,0
476,204,44962,1,0
476,204,45151,1,0
256,348,45434,1,0
36,204,45717,6,0,B|35:73|165:73,1,210,2|0
228,116,46472,1,2
228,116,46566,1,0
228,116,46660,2,0,B|288:106|288:43,2,105,2|0|2
164,156,47415,1,0
256,280,47792,5,2
404,324,48170,2,0,B|428:292,3,35
444,264,48547,2,0,B|452:216,3,35
452,192,48924,2,0,B|452:84,2,105,0|0|0
380,220,49679,5,0
215,71,49962,1,0
169,288,50245,1,0
256,360,50434,5,2
32,192,50811,1,2
256,24,51189,1,2
480,192,51566,1,2
480,192,51755,6,0,B|480:144,2,35,0|0|2
340,248,52321,1,0
340,248,52509,2,0,B|289:255|288:309,1,84.0000020027161,2|0
144,348,53264,2,0,B|71:335|69:253,1,126.000003004074,2|2
68,224,53924,2,0,B|68:188,6,21.000000500679,0|0|0|0|0|0|0
68,168,54585,6,0,B|20:168,2,42.0000010013581,0|0|2
200,92,55339,1,0
200,92,55528,2,0,B|199:43|148:35,2,84.0000020027161,2|0|4
476,192,56660,5,0
408,228,56849,1,0
376,156,57038,1,0
308,192,57226,1,0
240,156,57415,1,0
208,228,57604,1,0
140,192,57792,1,0
140,192,57981,6,0,B|84:192,1,35,2|0
372,192,58547,2,0,B|428:192,1,35,0|0
256,192,59490,5,6
228,116,59679,2,0,B|188:80,1,40.2500013194979
120,72,59962,2,0,B|76:112,1,40.2500013194979
40,252,60434,2,0,B|40:332,2,80.5000026389957
108,212,61000,5,2
180,252,61189,1,0
180,252,61283,1,0
248,212,61472,1,0
248,212,61566,2,0,B|416:212,1,161.000005277991
488,192,62132,6,0,B|488:112,2,80.5000026389957,0|0|2
24,192,62887,1,2
256,356,63264,1,2
392,192,63547,1,2
256,32,63830,1,2
256,32,64019,2,0,B|88:32,2,161.000005277991,2|0|0
304,96,64962,1,0
256,160,65151,5,0
244,160,65245,1,0
232,160,65339,1,0
220,160,65434,1,0
208,160,65528,2,0,B|84:160,2,120.750003958494
320,276,66472,1,2
256,324,66660,6,0,B|256:368,4,40.2500013194979
68,132,67321,1,0
332,84,67604,1,0
332,84,67981,1,2
392,136,68170,1,0
332,188,68358,5,0
332,188,68453,1,0
332,188,68547,2,0,B|332:316,2,120.750003958494,2|2|2
272,136,69302,1,2
60,72,69585,1,2
104,288,69868,1,2
168,336,70056,5,0
168,336,70245,1,0
248,320,70434,1,0
248,320,70622,1,0
340,272,70811,1,0
340,272,71000,1,0
412,164,71189,1,0
412,164,71377,1,0
304,44,71566,5,2
292,44,71660,1,0
280,44,71755,1,0
268,44,71849,1,0
256,44,71943,1,2
244,44,72038,1,0
232,44,72132,1,0
220,44,72226,1,0
208,44,72321,1,2
196,44,72415,1,0
184,44,72509,1,0
172,44,72604,1,0
160,44,72698,1,2
148,44,72792,1,0
136,44,72887,1,0
124,44,72981,1,0
112,44,73075,5,6
32,192,73264,2,0,B|52:232,1,40.2500013194979
168,348,73547,2,0,B|208:328,1,40.2500013194979
448,100,74019,1,0
384,48,74207,1,0
320,100,74396,1,0
256,48,74585,5,2
48,148,74773,1,0
48,148,74868,1,0
232,288,75056,1,0
232,288,75151,2,0,B|408:288,1,161.000005277991
448,228,75717,1,0
448,228,75906,1,0
448,228,76094,5,2
256,32,76472,1,2
64,228,76849,1,2
256,152,77132,1,2
448,228,77415,1,2
448,228,77604,1,2
256,304,77887,1,2
64,228,78170,2,0,B|16:228,2,40.2500013194979,2|0|2
256,44,78736,5,0
256,44,78924,1,0
256,44,79113,2,0,B|124:44,2,120.750003958494,4|0|0
328,84,79868,1,0
328,164,80056,1,0
256,204,80245,1,0
256,124,80434,1,0
184,164,80622,1,0
184,244,80811,1,0
256,284,81000,1,0
256,284,81189,1,0
256,284,81377,2,0,B|380:284,1,120.750003958494
408,284,81755,2,0,B|460:284|460:340,2,80.5000026389957
440,212,82321,6,0,B|480:196,2,40.2500013194979
400,140,82698,2,0,B|432:96,2,40.2500013194979
328,108,83075,2,0,B|336:60,2,40.2500013194979
240,104,83453,2,0,B|240:60,2,40.2500013194979
120,84,83924,2,0,B|76:120,1,40.2500013194979
28,164,84207,1,0
92,216,84396,1,0
144,324,84679,2,0,B|180:296,1,40.2500013194979
240,256,84962,1,0
240,256,85151,6,0,B|313:264|315:349,2,120.750003958494,2|2|2
240,176,85906,1,0
240,176,86283,1,0
240,176,86660,2,0,B|166:167|164:82,2,120.750003958494,2|2|2
320,176,87415,1,0
320,176,87792,1,0
320,176,88170,5,2
420,108,88453,1,0
320,40,88736,2,0,B|172:40,1,140,2|0
124,96,89302,1,0
72,40,89490,1,4
256,192,89679,12,0,90811
