osu file format v14

[General]
AudioFilename: 1 Synchrogazer.mp3
AudioLeadIn: 0
PreviewTime: 58423
Countdown: 0
SampleSet: Soft
StackLeniency: 0.7
Mode: 0
LetterboxInBreaks: 0
WidescreenStoryboard: 0

[Editor]
Bookmarks: 14744,31065
DistanceSpacing: 1.6
BeatDivisor: 4
GridSize: 16
TimelineZoom: 1

[Metadata]
Title:Synchrogazer
TitleUnicode:Synchrogazer
Artist:Mizuki Nana
ArtistUnicode:水樹奈々
Creator:DakeDekaane
Version:Hard
Source:戦姫絶唱シンフォギア
Tags:Senki Zesshou Symphogear: Meteoroid-Falling Burning and Disappear Then... Opening TV Size
BeatmapID:291373
BeatmapSetID:112135

[Difficulty]
HPDrainRate:6
CircleSize:4
OverallDifficulty:6
ApproachRate:7
SliderMultiplier:1.5
SliderTickRate:2

[Events]
//Background and Video events
0,0,"SymphogearBG.jpg",0,0
//Break Periods
2,21925,23844
//Storyboard Layer 0 (Background)
//Storyboard Layer 1 (Fail)
//Storyboard Layer 2 (Pass)
//Storyboard Layer 3 (Foreground)
//Storyboard Sound Samples

[TimingPoints]
2103,377.358490566038,4,2,0,65,1,0
9650,-100,4,2,0,75,0,0
15688,-100,4,2,0,70,0,0
21726,-100,4,2,0,60,0,0
24744,-100,4,2,0,70,0,0
29650,-100,4,2,0,55,0,0
30027,-100,4,2,0,60,0,0
30405,-100,4,2,0,65,0,0
30782,-100,4,2,0,70,0,0
35310,-86.9565217391304,4,2,0,70,0,0
35877,-100,4,2,0,70,0,0
51914,-133.333333333333,4,2,0,60,0,0
56254,-100,4,2,0,70,0,0
59461,-100,4,2,0,80,0,1
65499,-86.9565217391304,4,2,0,80,0,1
66066,-100,4,2,0,80,0,1
67008,-86.9565217391304,4,2,0,80,0,1
67575,-100,4,2,0,80,0,1
72952,-100,4,2,0,80,0,0
73046,-100,4,2,0,80,0,1
83612,-86.9565217391304,4,2,0,80,0,1
85027,-100,4,2,0,80,0,0
85121,-100,4,2,0,80,0,1
89461,-100,4,2,0,80,0,0

[Colours]
Combo1 : 227,70,0
Combo2 : 133,106,255
Combo3 : 96,43,255
Combo4 : 255,128,0

[HitObjects]
32,320,2103,6,0,L|40:280,1,37.5,4|0,3:0|0:0,0:0:0:0:
224,376,2669,2,0,L|232:336,1,37.5,4|2,3:0|0:0,0:0:0:0:
480,64,3612,22,0,L|472:104,1,37.5,4|0,3:0|0:0,0:0:0:0:
288,8,4178,2,0,L|280:48,1,37.5,4|2,3:0|0:0,0:0:0:0:
480,320,5121,22,0,L|472:280,1,37.5,4|0,3:0|0:0,0:0:0:0:
288,376,5687,2,0,L|280:336,1,37.5,0|2,0:0|0:0,0:0:0:0:
256,216,6065,22,0,P|199:171|129:190,1,150,8|4,0:3|3:0,0:0:0:0:
79,255,6631,2,4,P|131:272|182:252,2,112.5,4|4|4,0:0|3:0|3:0,0:0:0:0:
47,178,7386,2,0,L|37:84,1,75,4|0,0:0|0:0,0:0:0:0:
98,46,7763,1,4,0:2:0:0:
256,192,8140,12,0,9272,0:0:0:0:
160,176,9650,22,0,B|160:252|160:252|216:301|216:301|216:376,2,225,4|4|4,0:1|0:1|0:1,0:0:0:0:
338,4,11348,1,8,0:3:0:0:
427,142,11725,1,0,0:0:0:0:
427,141,11913,2,0,L|427:253,2,112.5,8|8|8,0:3|0:3|0:3,0:0:0:0:
352,176,12669,22,0,B|352:252|352:252|296:301|296:301|296:376,2,225,4|4|4,0:1|0:1|0:1,0:0:0:0:
174,4,14367,1,8,0:3:0:0:
85,141,14744,1,0,0:0:0:0:
85,141,14933,2,0,L|80:216,1,75,8|0,0:3|0:0,0:0:0:0:
27,279,15310,1,8,0:3:0:0:
95,339,15499,21,0,0:0:0:0:
95,339,15593,1,0,0:0:0:0:
95,339,15687,2,0,P|131:332|171:339,1,75,6|2,0:0|0:0,0:0:0:0:
244,372,16065,1,0,0:0:0:0:
317,335,16253,2,0,L|325:296,1,37.5,2|0,0:0|0:0,0:0:0:0:
417,45,17008,21,0,0:0:0:0:
417,45,17102,1,0,0:0:0:0:
417,45,17197,2,0,P|381:52|341:45,1,75,2|0,0:0|0:0,0:0:0:0:
268,12,17574,1,2,0:0:0:0:
195,49,17762,2,0,L|187:88,1,37.5,2|0,0:0|0:0,0:0:0:0:
95,339,18706,22,0,P|40:332|8:288,2,112.5,2|2|2,0:0|0:0|0:0,0:0:0:0:
170,306,19461,1,2,0:0:0:0:
332,330,19838,1,2,0:0:0:0:
457,222,20216,22,0,L|454:269,2,37.5,8|0|0,0:3|0:0|0:0,0:0:0:0:
424,146,20593,2,0,L|421:99,2,37.5,8|0|0,0:3|0:0|0:0,0:0:0:0:
377,214,20970,1,8,0:3:0:0:
377,214,21065,1,0,0:0:0:0:
377,214,21159,1,0,0:0:0:0:
342,138,21348,2,0,L|339:91,4,37.5,8|0|8|0|4,0:3|0:0|0:3|0:0|0:2,0:0:0:0:
256,192,24744,21,4,0:1:0:0:
256,192,25121,2,0,B|331:183|331:183|368:161|374:121,1,150,2|0,0:0|0:0,0:0:0:0:
292,108,25687,2,0,L|143:125,1,150,2|0,0:0|0:0,0:0:0:0:
128,207,26253,2,0,B|203:198|203:198|182:233|194:269,1,150,2|0,0:0|0:0,0:0:0:0:
257,322,26819,2,0,B|280:291|273:251|273:251|340:285,1,150,2|0,0:0|0:0,0:0:0:0:
418,314,27386,2,0,L|456:320,1,37.5,2|0,0:0|0:0,0:0:0:0:
450,250,27574,2,0,L|488:256,1,37.5,2|0,0:0|0:0,0:0:0:0:
264,255,28140,22,0,P|194:233|169:166,1,150,4|0,0:0|0:0,0:0:0:0:
156,85,28706,2,0,P|225:107|251:175,1,150,4|0,0:0|0:0,0:0:0:0:
195,235,29272,1,4,0:0:0:0:
195,235,29461,1,0,0:0:0:0:
138,295,29650,2,0,L|132:369,1,75,4|0,0:0|0:0,0:0:0:0:
216,352,30027,1,4,0:0:0:0:
216,352,30121,1,0,0:0:0:0:
216,352,30216,1,0,0:0:0:0:
296,333,30404,2,0,L|298:295,4,37.5,4|0|0|0|4,0:0|0:0|0:0|0:0|0:2,0:0:0:0:
459,355,31159,22,0,B|460:281|460:281|481:249|481:249|483:211,1,150,2|0,0:0|0:0,0:0:0:0:
489,125,31725,2,0,P|422:151|401:221,1,150,2|0,0:0|0:0,0:0:0:0:
379,300,32291,2,0,B|354:344|354:344|248:352,1,150,2|0,0:0|0:0,0:0:0:0:
181,313,32857,2,0,P|216:256|176:192,1,150,2|2,0:0|0:0,0:0:0:0:
93,192,33423,2,0,L|55:194,1,37.5,2|0,0:0|0:0,0:0:0:0:
71,261,33612,2,0,L|33:263,1,37.5,2|0,0:0|0:0,0:0:0:0:
257,238,34178,22,0,P|329:232|366:170,1,150,4|0,0:0|0:0,0:0:0:0:
286,161,34744,2,0,P|292:89|238:41,1,150,4|0,0:0|0:0,0:0:0:0:
216,120,35310,2,0,L|54:140,2,129.375002467632,4|4|4,0:0|0:0|0:0,0:0:0:0:
371,66,36253,1,2,0:0:0:0:
371,66,36348,1,0,0:0:0:0:
371,66,36442,2,0,P|363:95|379:159,1,75,2|0,0:0|0:0,0:0:0:0:
413,208,36819,1,4,3:0:0:0:
424,218,37197,21,4,0:0:0:0:
214,350,37763,1,0,1:0:0:0:
162,193,38140,1,0,1:0:0:0:
122,353,38518,2,0,P|147:284|216:259,1,150,0|0,1:0|0:0,0:0:0:0:
299,284,39084,2,0,P|360:289|414:263,2,112.5,0|0|0,1:0|1:0|1:0,0:0:0:0:
241,129,40027,1,0,0:0:0:0:
256,48,40216,21,4,0:0:0:0:
121,255,40782,1,0,1:0:0:0:
37,112,41159,1,0,1:0:0:0:
42,275,41536,2,0,P|89:331|161:325,1,150,0|0,1:0|1:0,0:0:0:0:
233,283,42103,2,0,P|294:277|348:303,1,112.5,0|0,1:0|1:0,0:0:0:0:
436,374,42669,22,0,B|464:333|464:333|455:232,1,150,4|0,0:0|0:0,0:0:0:0:
506,167,43235,1,2,0:0:0:0:
498,86,43423,1,0,0:0:0:0:
424,48,43612,2,0,P|369:36|320:61,1,112.5,4|0,0:0|0:0,0:0:0:0:
202,25,44178,22,0,B|181:72|181:72|192:192,1,150,4|0,0:0|0:0,0:0:0:0:
260,213,44744,1,2,0:0:0:0:
267,296,44933,1,0,0:0:0:0:
348,289,45121,2,0,P|335:342|290:374,1,112.5,4|0,0:0|0:0,0:0:0:0:
183,277,45687,22,0,P|253:195|360:207,1,225,4|0,0:0|1:0,0:0:0:0:
424,259,46442,1,0,0:0:0:0:
424,259,46536,1,0,0:0:0:0:
424,259,46631,2,0,L|445:387,2,112.5,2|2|2,0:0|0:0|0:0,0:0:0:0:
439,177,47386,1,2,0:0:0:0:
310,280,47763,1,2,1:2:0:0:
291,116,48140,1,2,0:0:0:0:
162,219,48517,1,2,1:2:0:0:
143,54,48895,22,0,B|85:48|85:48|32:64,2,112.5,4|0|0,0:0|0:0|0:0,0:0:0:0:
151,136,49650,2,0,B|93:130|93:130|40:146,2,112.5,4|0|0,0:0|0:0|0:0,0:0:0:0:
227,165,50404,2,0,P|264:163|295:144,1,75,4|0,0:0|0:0,0:0:0:0:
360,196,50782,2,0,P|377:163|376:125,1,75,4|0,0:0|0:0,0:0:0:0:
321,64,51159,1,4,0:0:0:0:
321,64,51253,1,0,0:0:0:0:
321,64,51348,1,0,0:0:0:0:
238,60,51536,2,0,L|201:63,2,37.5,2|0|0,0:2|0:0|0:0,0:0:0:0:
321,64,51914,22,0,L|433:54,1,112.5,2|0,0:2|0:0,0:0:0:0:
482,116,52480,1,2,0:2:0:0:
482,272,52857,1,0,0:0:0:0:
362,375,53235,1,2,0:0:0:0:
138,298,53801,2,0,L|135:326,2,28.1250010728836,2|0|0,0:0|0:0|0:0,0:0:0:0:
106,225,54178,2,0,L|109:197,2,28.1250010728836,2|0|0,0:0|0:0|0:0,0:0:0:0:
60,289,54555,21,2,0:0:0:0:
60,289,54744,1,0,0:0:0:0:
28,216,54933,2,0,B|34:159|34:159|74:121,1,112.500004291535,2|0,0:0|0:0,0:0:0:0:
144,157,55499,2,0,B|184:118|184:118|190:62,1,112.500004291535,2|0,0:0|0:0,0:0:0:0:
340,14,56253,22,0,L|327:126,1,112.500004291535,4|0,0:0|0:0,0:0:0:0:
362,200,56819,1,2,0:0:0:0:
362,200,57008,1,0,0:0:0:0:
407,269,57197,1,2,0:0:0:0:
407,269,57291,1,0,0:0:0:0:
407,269,57386,1,0,0:0:0:0:
451,338,57574,2,0,L|444:394,2,37.5,2|0|0,0:0|0:0|0:0,0:0:0:0:
491,265,57952,22,0,L|498:228,1,37.5,4|0,0:0|0:0,0:0:0:0:
316,64,58518,22,0,L|308:100,1,37.5,4|0,0:0|0:0,0:0:0:0:
48,259,59461,38,0,B|36:332|36:332|47:368,2,112.5,4|2|2,0:1|0:2|0:0,0:0:0:0:
196,201,60404,1,2,0:0:0:0:
165,124,60593,1,0,1:0:0:0:
100,175,60782,1,0,0:0:0:0:
130,252,60970,2,0,B|118:325|118:325|129:361,2,112.5,2|2|2,0:0|0:0|0:0,0:0:0:0:
231,121,61914,22,0,P|266:111|303:120,1,75,2|0,0:0|1:0,0:0:0:0:
269,196,62291,1,0,0:0:0:0:
351,187,62480,2,0,P|384:122|354:56,1,150,2|2,0:0|1:2,0:0:0:0:
195,93,63235,2,0,L|303:121,2,112.5,2|2|2,0:0|0:2|0:0,0:0:0:0:
182,19,63989,2,0,P|268:104|145:148,1,300,2|0,0:0|1:0,0:0:0:0:
115,70,64933,1,0,1:0:0:0:
65,135,65121,21,0,1:0:0:0:
65,135,65216,1,0,0:0:0:0:
65,135,65310,1,0,0:0:0:0:
65,135,65404,1,0,0:0:0:0:
65,135,65499,2,0,L|60:266,2,129.375002467632,4|0|4,0:0|1:0|0:0,0:0:0:0:
228,110,66442,1,4,0:0:0:0:
306,138,66631,21,0,1:0:0:0:
310,142,66725,1,0,0:0:0:0:
314,146,66820,1,0,0:0:0:0:
318,150,66914,1,0,0:0:0:0:
322,154,67008,2,0,L|327:23,2,129.375002467632,4|0|4,0:0|1:0|0:0,0:0:0:0:
159,183,67951,1,4,0:0:0:0:
194,345,68329,21,0,0:0:0:0:
194,345,68423,1,0,0:0:0:0:
194,345,68518,2,0,L|320:353,2,112.5,2|2|2,0:0|0:0|0:0,0:0:0:0:
164,268,69272,2,0,L|276:275,2,112.5,2|2|2,0:0|0:0|0:0,0:0:0:0:
81,264,70027,21,2,1:2:0:0:
81,264,70216,1,0,0:0:0:0:
35,194,70404,1,2,1:2:0:0:
35,194,70593,1,0,0:0:0:0:
47,112,70782,1,2,1:2:0:0:
47,112,70970,1,0,0:0:0:0:
119,73,71159,1,2,1:2:0:0:
119,73,71348,1,0,0:0:0:0:
200,84,71536,22,0,L|238:79,2,37.5,0|0|0,1:2|0:0|0:0,0:0:0:0:
157,161,71914,2,0,L|119:166,2,37.5,0|0|0,1:2|0:0|0:0,0:0:0:0:
244,160,72291,1,0,1:2:0:0:
244,160,72386,1,0,0:0:0:0:
244,160,72480,1,0,0:0:0:0:
295,224,72669,2,0,L|305:261,3,37.5,0|0|0|0,1:2|0:0|0:0|0:0,0:0:0:0:
314,300,73046,22,0,P|283:345|229:357,2,112.5,4|2|2,0:0|0:2|0:0,0:0:0:0:
212,193,73989,1,2,0:0:0:0:
234,273,74178,1,0,1:0:0:0:
150,271,74367,1,0,0:0:0:0:
131,190,74555,2,0,P|148:137|197:112,2,112.5,2|2|2,0:0|0:0|0:0,0:0:0:0:
280,276,75499,21,2,0:0:0:0:
280,276,75687,2,0,P|304:240|310:201,1,75,0|0,1:0|0:0,0:0:0:0:
227,209,76065,2,0,P|195:274|226:340,1,150,2|2,0:0|1:2,0:0:0:0:
389,362,76819,2,0,L|500:374,2,112.5,2|2|2,0:0|0:0|0:0,0:0:0:0:
306,356,77574,2,0,P|196:283|289:191,1,300,2|2,0:0|0:0,0:0:0:0:
444,266,78706,21,2,0:0:0:0:
362,272,78895,1,0,0:0:0:0:
280,276,79084,2,0,L|167:281,2,112.5,4|0|0,0:0|0:0|0:0,0:0:0:0:
362,272,79838,1,4,0:0:0:0:
362,272,80027,1,0,0:0:0:0:
438,239,80216,2,0,P|450:204|445:167,1,75,0|0,0:0|0:0,0:0:0:0:
399,99,80593,1,4,0:0:0:0:
317,85,80782,1,0,0:0:0:0:
254,137,80970,2,0,L|179:130,2,75,4|0|6,0:0|0:0|0:0,0:0:0:0:
362,272,81725,21,2,0:0:0:0:
361,272,82103,2,0,P|249:333|232:206,1,300,4|2,0:2|1:2,0:0:0:0:
344,85,83235,1,0,1:0:0:0:
176,44,83612,22,0,B|112:32|112:32|49:47,2,129.375002467632,4|0|0,0:1|0:0|0:0,0:0:0:0:
179,138,84367,2,0,B|116:122|116:122|52:134,2,129.375002467632,4|0|0,0:1|0:0|0:0,0:0:0:0:
252,174,85121,22,0,P|278:228|262:308,2,112.5,4|0|2,3:2|0:0|0:0,0:0:0:0:
178,138,85876,2,0,P|236:94|306:114,1,150,2|2,3:2|3:2,0:0:0:0:
408,242,86631,22,0,P|383:192|385:137,2,112.5,2|0|2,3:2|0:0|0:2,0:0:0:0:
483,278,87386,2,0,P|425:321|355:301,1,150,0|0,3:0|3:0,0:0:0:0:
221,204,88140,22,0,L|109:194,2,112.5,4|0|4,0:0|0:0|0:0,0:0:0:0:
384,228,89084,1,2,1:2:0:0:
442,170,89272,1,0,1:0:0:0:
433,87,89461,1,2,1:2:0:0:
