osu file format v14

[General]
AudioFilename: 1 Synchrogazer.mp3
AudioLeadIn: 0
PreviewTime: 58423
Countdown: 0
SampleSet: Soft
StackLeniency: 0.7
Mode: 0
LetterboxInBreaks: 0
WidescreenStoryboard: 0

[Editor]
Bookmarks: 45121
DistanceSpacing: 1
BeatDivisor: 2
GridSize: 16
TimelineZoom: 1

[Metadata]
Title:Synchrogazer
TitleUnicode:Synchrogazer
Artist:Mizuki Nana
ArtistUnicode:水樹奈々
Creator:DakeDekaane
Version:Easy
Source:戦姫絶唱シンフォギア
Tags:Senki Zesshou Symphogear: Meteoroid-Falling Burning and Disappear Then... Opening TV Size
BeatmapID:291372
BeatmapSetID:112135

[Difficulty]
HPDrainRate:2
CircleSize:3.5
OverallDifficulty:2
ApproachRate:3
SliderMultiplier:0.9
SliderTickRate:2

[Events]
//Background and Video events
0,0,"SymphogearBG.jpg",0,0
//Break Periods
//Storyboard Layer 0 (Background)
//Storyboard Layer 1 (Fail)
//Storyboard Layer 2 (Pass)
//Storyboard Layer 3 (Foreground)
//Storyboard Sound Samples

[TimingPoints]
2103,377.358490566038,4,2,0,65,1,0
9650,-100,4,2,0,75,0,0
15688,-100,4,2,0,70,0,0
21726,-100,4,2,0,60,0,0
24744,-100,4,2,0,70,0,0
29650,-100,4,2,0,55,0,0
30027,-100,4,2,0,60,0,0
30405,-100,4,2,0,65,0,0
30782,-100,4,2,0,70,0,0
51914,-117.647058823529,4,2,0,60,0,0
56253,-100,4,2,0,70,0,0
59461,-100,4,2,0,80,0,1
72952,-100,4,2,0,80,0,0
73046,-100,4,2,0,80,0,1
85027,-100,4,2,0,80,0,0
85121,-100,4,2,0,80,0,1
89461,-100,4,2,0,80,0,0

[Colours]
Combo1 : 227,70,0
Combo2 : 133,106,255
Combo3 : 96,43,255
Combo4 : 255,128,0

[HitObjects]
118,59,2103,5,4,3:0:0:0:
256,327,3612,1,4,3:0:0:0:
386,53,5121,1,4,3:0:0:0:
200,273,6631,22,0,L|210:362,1,90,4|0,0:0|0:0,0:0:0:0:
301,362,7386,1,4,0:0:0:0:
312,272,7763,1,4,0:0:0:0:
34,337,9650,22,0,L|168:352,1,135,4|4,0:1|0:1,0:0:0:0:
215,222,10782,2,0,L|80:208,2,135,4|8|8,0:1|0:3|0:3,0:0:0:0:
344,352,12669,22,0,L|478:337,1,135,4|4,0:1|0:1,0:0:0:0:
432,208,13801,2,0,L|297:222,2,135,4|8|8,0:1|0:3|0:3,0:0:0:0:
341,52,15687,22,0,L|252:40,2,90,4|2|0,0:0|0:0|0:0,0:0:0:0:
411,217,17197,2,0,L|500:205,2,90,2|2|0,0:0|0:0|0:0,0:0:0:0:
239,271,18706,22,0,B|229:203|229:203|265:145|265:145|260:102,1,180,2|2,0:0|0:0,0:0:0:0:
200,35,19838,1,2,0:0:0:0:
256,192,20216,12,4,21725,0:0:0:0:
384,48,24744,21,4,0:1:0:0:
341,127,25121,2,0,P|332:192|363:251,1,135,2|2,0:0|0:0,0:0:0:0:
492,293,26253,2,0,P|501:227|470:169,2,135,2|2|2,0:0|0:0|0:0,0:0:0:0:
330,372,28140,22,0,L|195:362,1,135,4|4,0:0|0:0,0:0:0:0:
93,269,29272,2,0,P|96:147|219:141,1,270,4|4,0:0|0:0,0:0:0:0:
161,210,30782,21,4,0:2:0:0:
178,299,31159,2,0,L|311:311,1,135,2|2,0:0|0:0,0:0:0:0:
378,193,32291,2,0,L|511:181,2,135,2|2|2,0:0|0:0|0:0,0:0:0:0:
256,325,34178,22,0,P|194:349|134:325,1,135,4|4,0:0|0:0,0:0:0:0:
100,197,35310,2,0,L|90:61,1,135,4|4,0:0|0:0,0:0:0:0:
221,32,36442,2,0,L|227:121,1,90,2|4,0:0|3:0,0:0:0:0:
189,203,37197,22,0,P|277:197|317:121,1,180,4|0,0:0|0:0,0:0:0:0:
365,46,38329,2,0,P|427:25|485:55,1,135,2|2,0:0|0:0,0:0:0:0:
480,384,40216,22,0,B|461:328|461:328|477:208,1,180,4|0,0:0|0:0,0:0:0:0:
460,119,41348,2,0,P|401:89|339:109,1,135,2|2,0:0|0:0,0:0:0:0:
171,175,42669,22,0,B|164:85|164:85|184:46,1,135,4|2,1:2|0:0,0:0:0:0:
274,49,43612,1,4,0:0:0:0:
385,125,44178,2,0,B|378:215|378:215|398:254,1,135,4|2,1:2|0:0,0:0:0:0:
488,251,45121,1,4,0:0:0:0:
425,370,45687,22,0,B|376:392|316:370|316:370|256:344|207:370,1,225,4|2,0:0|0:0,0:0:0:0:
117,371,47008,2,0,P|130:321|170:288,1,90,0|0,1:0|0:0,0:0:0:0:
174,207,47763,21,2,1:2:0:0:
256,244,48140,1,2,0:0:0:0:
338,207,48518,1,2,1:2:0:0:
370,123,48895,2,0,B|328:104|276:124|256:167|256:167|236:124|184:104|142:123,1,270,4|0,0:0|0:0,0:0:0:0:
173,207,50404,22,0,P|180:250|211:282,1,90,4|4,0:0|0:2,0:0:0:0:
300,282,51159,2,0,P|331:250|338:207,1,90,4|4,0:0|0:2,0:0:0:0:
256,169,51914,21,2,0:2:0:0:
357,75,52480,2,0,L|433:68,2,76.5000014591217,2|0|2,0:0|0:0|0:0,0:0:0:0:
158,209,54555,21,2,0:0:0:0:
90,267,54933,2,0,P|69:213|84:159,1,114.750002188683,2|2,0:0|0:0,0:0:0:0:
232,20,56253,22,0,L|244:139,1,90,4|0,0:0|0:0,0:0:0:0:
285,116,56819,2,0,L|273:235,2,90,2|2|0,0:0|0:0|0:0,0:0:0:0:
345,48,57952,1,4,0:0:0:0:
416,160,58518,1,4,0:0:0:0:
284,342,59461,38,0,B|224:320|224:320|140:329,2,135,4|2|0,0:1|0:0|1:0,0:0:0:0:
374,334,60970,2,0,B|434:356|434:356|504:349,2,135,2|2|0,0:0|0:0|1:0,0:0:0:0:
323,259,62480,2,0,P|345:176|428:152,2,180,2|2|2,0:0|0:0|0:0,0:0:0:0:
64,352,65121,21,0,1:0:0:0:
98,268,65499,2,0,L|83:133,1,135,4|4,0:0|0:0,0:0:0:0:
216,156,66631,1,0,1:0:0:0:
304,176,67008,2,0,L|289:41,1,135,4|4,0:0|0:0,0:0:0:0:
64,28,68518,21,2,0:0:0:0:
137,192,69272,1,2,0:0:0:0:
64,356,70027,2,0,B|121:372|183:310|183:310|245:247|303:264,1,270,2|2,1:2|1:2,0:0:0:0:
303,354,71536,2,0,B|244:371|182:308|182:308|120:246|63:262,1,270,2|2,1:2|1:2,0:0:0:0:
8,193,73046,22,0,L|1:58,2,135,4|2|0,0:0|0:0|1:0,0:0:0:0:
95,174,74555,2,0,L|88:39,2,135,2|2|0,0:0|0:0|1:0,0:0:0:0:
125,258,76065,2,0,P|207:288|288:252,2,180,2|2|2,0:0|0:0|0:0,0:0:0:0:
256,23,78706,21,2,1:2:0:0:
345,33,79084,1,4,0:0:0:0:
256,192,79838,1,4,0:0:0:0:
345,351,80593,2,0,L|256:361,2,90,4|4|6,0:0|0:0|0:0,0:0:0:0:
412,291,81725,1,2,0:0:0:0:
342,233,82103,22,0,P|228:229|228:99,1,270,4|0,0:2|1:0,0:0:0:0:
259,16,83612,2,0,P|315:85|288:164,1,180,4|4,0:1|0:1,0:0:0:0:
219,223,84744,1,2,0:0:0:0:
143,271,85121,22,0,L|8:256,1,135,4|2,3:2|0:0,0:0:0:0:
113,57,86631,2,0,L|247:42,1,135,2|2,3:2|0:2,0:0:0:0:
395,212,88140,22,0,L|260:197,1,135,4|4,0:0|0:0,0:0:0:0:
195,260,89084,1,2,1:2:0:0:
105,250,89461,1,2,1:2:0:0:
